<?xml version="1.0" standalone="no"?>
<!DOCTYPE svg PUBLIC "-//W3C//DTD SVG 1.1//EN" "http://www.w3.org/Graphics/SVG/1.1/DTD/svg11.dtd">
<svg xmlns="http://www.w3.org/2000/svg">
<defs >
<font id="OpenSans" horiz-adv-x="1106" ><font-face
    font-family="Open Sans Medium"
    units-per-em="2048"
    panose-1="0 0 0 0 0 0 0 0 0 0"
    ascent="2189"
    descent="-600"
    alphabetic="0" />
<glyph unicode=" " glyph-name="space" horiz-adv-x="532" />
<glyph unicode="!" glyph-name="exclam" horiz-adv-x="540" d="M154 426L339 1462H575L320 426H154ZM155 -28Q97 -28 68 4T39 86Q39 150 76 201T198 253Q248 253 278 224T309 139Q309 76 270 24T155 -28Z" />
<glyph unicode="&quot;" glyph-name="quotedbl" horiz-adv-x="821" d="M577 934L652 1462H857L707 934H577ZM218 934L292 1462H498L347 934H218Z" />
<glyph unicode="#" glyph-name="numbersign" horiz-adv-x="1318" d="M192 0L312 426H57L70 572H353L447 887H177L190 1032H487L609 1462H766L643 1032H921L1046 1462H1197L1075 1032H1332L1318 887H1032L940 572H1218L1204 426H899L776 0H618L746 426H468L344
0H192ZM510 572H788L876 887H600L510 572Z" />
<glyph unicode="$" glyph-name="dollar" horiz-adv-x="1128" d="M350 -119L398 97Q306 102 220 121T68 173V354Q145 313 241 288T430 259L522 680Q436 712 373 754T274 858T238 1009Q238 1127 294 1206T448 1330T668 1385L706 1553H834L799 1384Q877 1377 948
1358T1084 1305L1011 1146Q959 1173 895 1194T764 1219L677 812Q769 776 834 735T935 635T970 490Q970 374 914 291T758 159T524 98L477 -119H350ZM559 264Q620 272 668 298T746 367T776 472Q776 510 761 539T716 591T639 634L559 264ZM559 858L635 1219Q575 1213
528 1189T454 1123T427 1017Q427 982 442 952T486 899T559 858Z" />
<glyph unicode="%" glyph-name="percent" horiz-adv-x="1659" d="M233 0L1318 1462H1489L404 0H233ZM397 565Q280 565 217 642T153 866Q153 929 164 1010T202 1174T274 1327T387 1440T549 1483Q669 1483 733 1409T797 1194Q797 1135 785 1054T746 887T672 729T558
611T397 565ZM412 711Q462 711 498 747T560 842T601 966T624 1091T632 1189Q632 1268 608 1303T536 1338Q488 1338 452 1304T390 1216T348 1097T325 971T317 863Q317 787 340 749T412 711ZM1173 -20Q1054 -20 990 55T926 274Q926 342 938 425T976 591T1049 743T1162
855T1322 898Q1443 898 1507 824T1572 612Q1572 551 1560 469T1520 302T1446 143T1332 25T1173 -20ZM1186 126Q1235 126 1271 163T1334 257T1376 381T1399 506T1406 603Q1406 681 1381 716T1309 752Q1261 752 1225 719T1164 630T1123 511T1100 386T1092 278Q1092
203 1115 165T1186 126Z" />
<glyph unicode="&amp;" glyph-name="ampersand" horiz-adv-x="1398" d="M458 -20Q282 -20 176 73T69 344Q69 454 113 536T244 684T455 810Q413 877 385 951T357 1104Q357 1217 405 1302T544 1436T759 1485Q863 1485 937 1448T1050 1344T1089 1191Q1089 1087 1037
1012T897 880T697 770L956 411Q1021 474 1067 552T1147 714H1348Q1311 626 1267 549T1170 403T1056 274L1258 0H1022L917 149Q823 75 716 28T458 -20ZM493 148Q561 148 618 165T725 213T822 281L537 687Q465 650 405 607T308 504T271 359Q271 296 299 248T377 174T493
148ZM619 890Q666 914 715 941T806 1001T873 1077T898 1173Q898 1243 858 1284T747 1325Q684 1325 639 1298T570 1223T545 1109Q545 1050 563 996T619 890Z" />
<glyph unicode="&apos;" glyph-name="quotesingle" horiz-adv-x="461" d="M218 934L292 1462H498L347 934H218Z" />
<glyph unicode="(" glyph-name="parenleft" horiz-adv-x="611" d="M225 -324Q178 -239 145 -144T96 56T79 272Q79 454 112 616T210 925T369 1205T583 1462H764Q655 1342 564 1208T405 925T301 613T264 271Q264 157 278 53T318 -144T382 -324H225Z" />
<glyph unicode=")" glyph-name="parenright" horiz-adv-x="611" d="M-153 -324Q-42 -204 49 -70T207 214T310 526T346 868Q346 982 333 1085T294 1282T230 1462H387Q434 1378 466 1283T515 1083T532 866Q532 684 499 521T401 212T243 -67T28 -324H-153Z" />
<glyph unicode="*" glyph-name="asterisk" horiz-adv-x="1122" d="M755 612L645 995L402 676L264 804L563 1075L205 1188L267 1358L628 1174L670 1565L857 1527L740 1151L1150 1176L1140 996L762 1036L935 668L755 612Z" />
<glyph unicode="+" glyph-name="plus" horiz-adv-x="1171" d="M699 800H1104V644H699V229H541V644H135V800H541V1217H699V800Z" />
<glyph unicode="," glyph-name="comma" horiz-adv-x="527" d="M-91 -264Q-54 -181 -18 -93T51 81T110 238H316L324 215Q291 142 248 59T157 -107T60 -264H-91Z" />
<glyph unicode="-" glyph-name="hyphen" horiz-adv-x="646" d="M52 460L91 638H584L546 460H52Z" />
<glyph unicode="." glyph-name="period" horiz-adv-x="532" d="M152 -28Q96 -28 68 3T39 84Q39 149 77 201T201 253Q249 253 279 224T309 140Q309 75 269 24T152 -28Z" />
<glyph unicode="/" glyph-name="slash" horiz-adv-x="754" d="M-92 0L721 1462H923L111 0H-92Z" />
<glyph unicode="0" glyph-name="zero" horiz-adv-x="1128" d="M480 -20Q295 -20 201 107T106 469Q106 579 121 696T168 928T249 1142T367 1320T524 1441T722 1485Q816 1485 886 1455T1004 1366T1074 1220T1097 1018Q1097 893 1082 768T1034 528T951 312T833 138T676
22T480 -20ZM500 149Q565 149 619 186T717 290T794 443T849 627T882 826T893 1023Q893 1167 848 1241T709 1315Q645 1315 591 1277T491 1173T412 1021T355 841T320 651T308 469Q308 313 353 231T500 149Z" />
<glyph unicode="1" glyph-name="one" horiz-adv-x="1128" d="M411 0L605 906Q618 962 632 1023T660 1139T686 1234Q659 1207 626 1181T553 1131L361 1009L269 1157L753 1462H925L613 0H411Z" />
<glyph unicode="2" glyph-name="two" horiz-adv-x="1128" d="M-6 0L27 160L501 586Q597 673 667 741T783 868T851 987T874 1113Q874 1203 821 1257T670 1311Q613 1311 561 1295T458 1249T354 1178L258 1314Q350 1387 455 1435T696 1483Q823 1483 908 1439T1038
1319T1082 1146Q1082 1024 1033 922T883 716T630 479L292 187V179H942L907 0H-6Z" />
<glyph unicode="3" glyph-name="three" horiz-adv-x="1128" d="M423 -20Q305 -20 210 1T37 60V247Q111 205 214 176T421 146Q503 146 567 166T677 223T745 313T769 434Q769 510 737 564T639 646T477 674H342L374 833H495Q569 833 638 851T761 907T846 1000T878
1129Q878 1216 823 1265T675 1315Q580 1315 501 1282T349 1198L259 1338Q348 1401 454 1442T702 1483Q826 1483 910 1442T1038 1327T1082 1158Q1082 1054 1038 971T910 832T710 755V747Q825 725 900 646T976 433Q976 345 944 264T844 119T672 18T423 -20Z" />
<glyph unicode="4" glyph-name="four" horiz-adv-x="1128" d="M575 0L646 330H4L38 501L858 1463H1079L878 501H1092L1055 330H839L769 0H575ZM238 501H682L757 848Q773 918 792 993T829 1134T860 1243H852Q827 1202 786 1147T713 1055L238 501Z" />
<glyph unicode="5" glyph-name="five" horiz-adv-x="1128" d="M410 -20Q342 -20 279 -11T162 17T64 60V248Q136 204 223 176T404 148Q506 148 580 175T701 249T770 358T793 489Q793 605 725 673T526 741Q463 741 408 731T292 704L213 765L414 1462H1106L1068 1283H550L432
879Q466 887 508 893T604 900Q723 900 811 855T950 723T1000 514Q1000 414 968 319T866 147T684 26T410 -20Z" />
<glyph unicode="6" glyph-name="six" horiz-adv-x="1128" d="M515 -20Q392 -20 303 32T167 186T120 438Q120 548 139 667T199 902T298 1120T438 1298Q499 1358 573 1399T736 1462T929 1484Q985 1484 1037 1478T1126 1460L1088 1290Q1053 1301 1009 1308T910 1315Q777
1315 669 1257T480 1074T351 751H358Q396 802 447 841T561 903T699 926Q850 926 940 830T1030 558Q1030 458 1000 356T907 169T747 32T515 -20ZM530 147Q603 147 659 180T753 269T811 396T831 541Q831 648 781 706T630 765Q556 765 495 731T393 648T336 553Q330
534 326 511T319 465T317 417Q317 364 329 316T366 229T432 169T530 147Z" />
<glyph unicode="7" glyph-name="seven" horiz-adv-x="1128" d="M149 0L913 1287H215L251 1462H1168L1139 1315L371 0H149Z" />
<glyph unicode="8" glyph-name="eight" horiz-adv-x="1128" d="M505 -20Q364 -20 270 29T130 161T83 346Q83 453 129 535T261 677T467 782Q417 819 377 863T314 963T291 1095Q291 1212 347 1300T504 1436T735 1485Q867 1485 950 1440T1073 1320T1113 1161Q1113
1054 1066 978T942 851T774 763Q841 723 893 673T976 555T1006 396Q1006 285 952 191T786 38T505 -20ZM523 140Q618 140 680 176T774 270T806 393Q806 459 783 511T714 605T602 685Q510 655 439 614T328 512T287 361Q287 257 352 199T523 140ZM645 852Q732 885
792 924T883 1016T915 1140Q915 1225 861 1274T718 1323Q649 1323 597 1296T515 1218T486 1099Q486 1011 530 953T645 852Z" />
<glyph unicode="9" glyph-name="nine" horiz-adv-x="1128" d="M335 -20Q272 -20 208 -11T94 14V193Q144 176 205 163T335 150Q438 150 519 186T662 293T768 466T842 702H834Q800 654 752 617T645 559T515 537Q402 537 324 583T207 716T167 921Q167 1005 188 1086T251
1239T356 1366T501 1452T686 1484Q808 1484 895 1433T1028 1279T1075 1025Q1075 917 1057 798T1002 562T913 344T794 170Q749 121 697 85T588 26T467 -9T335 -20ZM566 698Q634 698 691 725T790 799T854 907Q866 937 871 974T877 1054Q877 1130 854 1189T786 1282T671
1316Q598 1316 541 1285T445 1200T386 1078T366 933Q366 820 417 759T566 698Z" />
<glyph unicode=":" glyph-name="colon" horiz-adv-x="532" d="M323 846Q267 846 239 876T210 955Q210 1000 226 1039T279 1102T371 1126Q420 1126 449 1098T479 1014Q479 947 440 897T323 846ZM152 -28Q96 -28 68 3T39 84Q39 149 77 201T201 253Q249 253 279 224T309
140Q309 75 269 24T152 -28Z" />
<glyph unicode=";" glyph-name="semicolon" horiz-adv-x="532" d="M-100 -264Q-63 -181 -27 -93T43 81T101 238H309L316 215Q283 142 240 59T149 -107T52 -264H-100ZM323 846Q267 846 239 876T210 955Q210 1000 226 1039T279 1102T371 1126Q420 1126 449 1098T479
1014Q479 947 440 897T323 846Z" />
<glyph unicode="&lt;" glyph-name="less" horiz-adv-x="1171" d="M1105 233L135 662V769L1105 1250V1079L348 723L1105 403V233Z" />
<glyph unicode="=" glyph-name="equal" horiz-adv-x="1171" d="M144 845V1001H1096V845H144ZM144 441V597H1096V441H144Z" />
<glyph unicode="&gt;" glyph-name="greater" horiz-adv-x="1171" d="M135 403L894 722L135 1079V1250L1105 769V662L135 233V403Z" />
<glyph unicode="?" glyph-name="question" horiz-adv-x="891" d="M259 426Q275 518 303 585T381 708T507 822Q574 871 627 916T712 1013T744 1136Q744 1219 697 1266T559 1313Q484 1313 411 1288T263 1226L195 1378Q281 1423 381 1453T584 1483Q750 1483 847 1400T944
1159Q944 1063 908 989T806 851T647 719Q574 666 531 626T465 541T425 426H259ZM272 -28Q216 -28 188 3T159 84Q159 149 197 201T319 253Q369 253 398 224T428 140Q428 75 389 24T272 -28Z" />
<glyph unicode="@" glyph-name="at" horiz-adv-x="1739" d="M790 -186Q632 -186 506 -139T290 -1T153 216T105 502Q105 660 149 803T276 1066T477 1274T742 1410T1062 1459Q1274 1459 1414 1379T1623 1160T1693 848Q1693 742 1672 647T1612 472T1517 335T1393
246T1244 214Q1140 214 1091 264T1032 390H1024Q979 314 911 264T741 214Q629 214 559 287T489 504Q489 599 514 683T587 837T699 957T842 1034T1007 1061Q1105 1061 1174 1044T1297 1004L1200 631Q1184 571 1175 531T1166 456Q1166 399 1191 375T1256 350Q1306
350 1348 377T1425 453T1483 563T1521 696T1534 837Q1534 974 1484 1083T1324 1255T1037 1318Q899 1318 781 1279T568 1167T406 994T304 772T268 513Q268 345 329 220T511 27T811 -42Q925 -42 1033 -18T1236 42V-97Q1134 -139 1021 -162T790 -186ZM779 350Q876
350 939 435T1041 657L1107 906Q1086 914 1056 920T989 927Q916 927 855 894T749 804T680 672T655 516Q655 429 688 390T779 350Z" />
<glyph unicode="A" glyph-name="A" horiz-adv-x="1183" d="M-117 0L675 1462H901L1077 0H877L828 437H331L102 0H-117ZM423 615H811L776 965Q769 1035 762 1117T754 1267H749Q720 1196 684 1120T605 964L423 615Z" />
<glyph unicode="B" glyph-name="B" horiz-adv-x="1239" d="M78 0L387 1462H777Q914 1462 1012 1428T1163 1320T1216 1133Q1216 1033 1176 957T1062 832T888 763V754Q989 727 1054 654T1120 461Q1120 307 1046 205T844 51T553 0H78ZM317 173H563Q670 173 747 206T867
303T910 460Q910 558 848 619T646 680H424L317 173ZM460 847H684Q775 847 847 874T963 957T1006 1101Q1006 1193 947 1241T756 1290H554L460 847Z" />
<glyph unicode="C" glyph-name="C" horiz-adv-x="1216" d="M666 -20Q499 -20 383 48T205 243T143 543Q143 678 174 812T268 1067T425 1281T647 1429T932 1484Q1045 1484 1134 1463T1304 1397L1225 1228Q1163 1262 1093 1284T932 1307Q815 1307 723 1264T561 1145T447
972T378 767T355 550Q355 365 445 261T703 157Q789 157 871 175T1033 221V45Q959 18 872 -1T666 -20Z" />
<glyph unicode="D" glyph-name="D" horiz-adv-x="1373" d="M78 0L387 1462H742Q1008 1462 1158 1319T1308 886Q1308 732 1273 597T1167 353T994 164T756 43T455 0H78ZM317 174H466Q591 174 691 209T866 310T993 464T1070 659T1096 883Q1096 1096 994 1193T718
1290H554L317 174Z" />
<glyph unicode="E" glyph-name="E" horiz-adv-x="1071" d="M78 0L387 1462H1147L1110 1286H553L460 851H981L946 677H424L317 177H875L837 0H78Z" />
<glyph unicode="F" glyph-name="F" horiz-adv-x="1006" d="M78 0L387 1462H1146L1110 1286H553L448 788H969L931 613H409L280 0H78Z" />
<glyph unicode="G" glyph-name="G" horiz-adv-x="1397" d="M691 -20Q433 -20 288 125T143 536Q143 695 179 837T285 1098T454 1302T677 1436T948 1484Q1075 1484 1174 1461T1367 1394L1290 1221Q1214 1257 1129 1281T943 1306Q813 1306 705 1249T519 1088T398
847T355 551Q355 434 394 345T515 207T720 157Q794 157 855 168T964 194L1053 603H761L799 778H1292L1136 58Q1041 24 935 2T691 -20Z" />
<glyph unicode="H" glyph-name="H" horiz-adv-x="1403" d="M79 0L388 1462H592L462 852H1080L1210 1462H1410L1101 0H900L1042 675H424L282 0H79Z" />
<glyph unicode="I" glyph-name="I" horiz-adv-x="580" d="M77 0L388 1462H589L278 0H77Z" />
<glyph unicode="J" glyph-name="J" horiz-adv-x="582" d="M-158 -396Q-210 -396 -252 -389T-322 -371L-318 -199Q-285 -207 -247 -213T-166 -219Q-102 -219 -51 -193T36 -111T91 31L395 1462H598L289 6Q258 -137 198 -226T48 -355T-158 -396Z" />
<glyph unicode="K" glyph-name="K" horiz-adv-x="1174" d="M78 0L387 1462H589L436 746L570 897L1113 1462H1357L726 807L1064 0H841L566 688L400 569L280 0H78Z" />
<glyph unicode="L" glyph-name="L" horiz-adv-x="1002" d="M78 0L387 1462H589L317 178H875L837 0H78Z" />
<glyph unicode="M" glyph-name="M" horiz-adv-x="1736" d="M76 0L385 1462H666L796 279H804L1442 1462H1742L1437 0H1240L1420 854Q1437 933 1454 1006T1488 1144T1517 1255H1512L829 0H659L520 1254H512Q507 1212 497 1146T474 1004T446 858L265 0H76Z" />
<glyph unicode="N" glyph-name="N" horiz-adv-x="1467" d="M76 0L385 1462H608L1040 275H1046Q1053 323 1064 390T1089 530T1116 667L1287 1462H1475L1166 0H947L509 1197H502Q498 1168 491 1122T475 1018T454 901T431 787L265 0H76Z" />
<glyph unicode="O" glyph-name="O" horiz-adv-x="1481" d="M683 -20Q507 -20 387 50T205 247T143 546Q143 668 165 784T230 1006T336 1198T483 1350T667 1449T890 1485Q1141 1485 1278 1334T1416 916Q1416 796 1396 680T1336 460T1235 268T1093 116T910 16T683
-20ZM693 157Q773 157 841 185T966 264T1067 384T1141 539T1187 719T1203 917Q1203 1101 1117 1204T874 1308Q794 1308 724 1281T597 1202T494 1082T418 927T371 747T355 549Q355 426 395 338T510 204T693 157Z" />
<glyph unicode="P" glyph-name="P" horiz-adv-x="1182" d="M78 0L387 1462H736Q896 1462 995 1414T1139 1277T1184 1071Q1184 948 1142 854T1018 694T819 596T550 563H399L280 0H78ZM436 734H575Q700 734 790 770T929 881T978 1066Q978 1183 913 1236T715 1290H554L436
734Z" />
<glyph unicode="Q" glyph-name="Q" horiz-adv-x="1481" d="M923 -348L712 -18Q704 -19 697 -19T682 -20Q506 -19 387 50T205 247T143 546Q143 668 165 784T230 1006T336 1198T483 1350T667 1449T890 1485Q1141 1485 1278 1334T1416 916Q1416 796 1396 680T1335
460T1233 268T1091 117T908 19L1175 -348H923ZM693 157Q774 157 843 185T968 264T1069 384T1142 539T1187 719T1203 917Q1203 1101 1117 1204T874 1308Q794 1308 724 1281T597 1202T494 1082T418 927T371 747T355 549Q355 426 395 338T510 204T693 157Z" />
<glyph unicode="R" glyph-name="R" horiz-adv-x="1190" d="M78 0L387 1462H717Q940 1462 1055 1369T1171 1087Q1171 977 1133 889T1016 739T814 641L1059 0H838L628 598H407L280 0H78ZM442 769H595Q687 769 756 790T871 850T940 946T963 1074Q963 1190 897 1239T696
1288H554L442 769Z" />
<glyph unicode="S" glyph-name="S" horiz-adv-x="1045" d="M386 -20Q277 -20 193 -2T40 51V245Q110 208 195 181T388 154Q452 154 510 168T614 213T685 291T711 403Q711 462 686 505T610 589T479 676Q407 721 347 772T252 891T216 1056Q216 1157 253 1236T357
1370T512 1454T701 1483Q816 1483 903 1460T1073 1395L997 1228Q936 1260 860 1283T701 1306Q644 1306 595 1291T508 1246T450 1172T429 1070Q429 1008 452 967T522 891T635 817Q722 765 786 711T885 589T921 422Q921 311 881 228T769 90T600 8T386 -20Z" />
<glyph unicode="T" glyph-name="T" horiz-adv-x="1038" d="M303 0L575 1285H181L219 1462H1211L1174 1285H780L507 0H303Z" />
<glyph unicode="U" glyph-name="U" horiz-adv-x="1396" d="M612 -20Q461 -20 361 28T209 166T158 386Q158 420 163 467T179 565L371 1462H574L382 559Q372 516 367 471T361 394Q361 282 428 220T627 157Q741 157 817 198T940 320T1013 522L1214 1462H1416L1213
504Q1179 343 1107 226T913 44T612 -20Z" />
<glyph unicode="V" glyph-name="V" horiz-adv-x="1147" d="M342 0L189 1462H388L475 529Q480 478 483 424T488 317T488 220H493Q511 266 533 315T580 418T636 530L1112 1462H1332L560 0H342Z" />
<glyph unicode="W" glyph-name="W" horiz-adv-x="1767" d="M272 0L213 1462H410L435 576Q437 496 435 407T426 238H433Q462 317 499 413T576 591L980 1462H1176L1215 594Q1220 512 1221 413T1219 238H1226Q1244 290 1264 348T1307 465T1353 581L1734 1462H1945L1286
0H1071L1031 893Q1028 949 1026 999T1024 1097T1024 1188H1018Q997 1122 971 1058T904 906L486 0H272Z" />
<glyph unicode="X" glyph-name="X" horiz-adv-x="1113" d="M-110 0L484 771L228 1462H436L627 905L1053 1462H1278L725 758L1002 0H786L580 617L115 0H-110Z" />
<glyph unicode="Y" glyph-name="Y" horiz-adv-x="1067" d="M310 0L429 552L188 1462H393L563 755L1027 1462H1255L628 549L514 0H310Z" />
<glyph unicode="Z" glyph-name="Z" horiz-adv-x="1091" d="M-30 0L-1 149L892 1284H262L299 1462H1180L1152 1312L258 178H933L896 0H-30Z" />
<glyph unicode="[" glyph-name="bracketleft" horiz-adv-x="617" d="M-23 -324L358 1462H773L738 1307H507L193 -168H426L392 -324H-23Z" />
<glyph unicode="\" glyph-name="backslash" horiz-adv-x="754" d="M440 0L220 1462H398L620 0H440Z" />
<glyph unicode="]" glyph-name="bracketright" horiz-adv-x="617" d="M-144 -324L-112 -168H120L432 1307H200L234 1462H649L268 -324H-144Z" />
<glyph unicode="^" glyph-name="asciicircum" horiz-adv-x="1157" d="M70 542L566 1472H675L1085 542H918L610 1260L242 542H70Z" />
<glyph unicode="_" glyph-name="underscore" horiz-adv-x="808" d="M-186 -320L-157 -187H653L625 -320H-186Z" />
<glyph unicode="`" glyph-name="grave" horiz-adv-x="583" d="M526 1241Q487 1281 442 1336T359 1448T299 1548V1569H510Q525 1520 547 1468T595 1364T649 1266V1241H526Z" />
<glyph unicode="a" glyph-name="a" horiz-adv-x="1173" d="M399 -20Q312 -20 244 22T136 150T97 363Q97 481 122 592T193 799T305 967T453 1081T631 1122Q705 1122 759 1096T850 1027T908 932H918L980 1102H1133L900 0H744L770 195H762Q718 138 663 89T542 10T399
-20ZM469 144Q542 144 612 198T736 345T819 550Q833 604 838 651T843 742Q843 837 793 896T656 956Q595 956 541 924T443 834T368 703T319 541T301 364Q301 256 345 200T469 144Z" />
<glyph unicode="b" glyph-name="b" horiz-adv-x="1192" d="M561 -20Q485 -20 430 6T337 74T278 169H269L205 0H53L383 1556H583L507 1202Q494 1142 479 1079T450 969T430 905H438Q483 962 534 1011T648 1090T787 1120Q876 1120 945 1079T1053 953T1093 738Q1093
623 1070 512T1001 305T892 136T744 22T561 -20ZM539 144Q602 144 656 177T753 269T826 402T873 563T889 736Q889 845 846 900T718 956Q670 956 623 932T534 865T457 766T396 643T356 505T341 362Q341 264 390 204T539 144Z" />
<glyph unicode="c" glyph-name="c" horiz-adv-x="943" d="M506 -20Q386 -20 294 25T150 161T98 390Q98 508 123 617T197 817T316 977T477 1084T676 1122Q754 1122 827 1107T960 1065L902 903Q857 923 801 939T680 956Q594 956 524 911T405 788T328 610T301 398Q301
319 329 262T409 175T533 144Q607 144 671 165T800 216V48Q741 18 668 -1T506 -20Z" />
<glyph unicode="d" glyph-name="d" horiz-adv-x="1192" d="M399 -20Q312 -20 244 21T136 148T97 363Q97 479 121 589T190 796T300 965T449 1079T632 1120Q707 1120 759 1094T848 1025T906 932H916Q920 968 925 1010T939 1099T957 1191L1034 1556H1233L903 0H743L768
195H760Q714 137 660 88T542 10T399 -20ZM473 144Q520 144 566 168T654 234T731 333T792 456T833 594T848 738Q848 837 801 896T652 956Q590 956 536 923T439 831T365 698T318 537T301 364Q301 256 344 200T473 144Z" />
<glyph unicode="e" glyph-name="e" horiz-adv-x="1050" d="M506 -20Q381 -20 290 29T148 171T98 398Q98 533 137 662T250 895T429 1060T667 1122Q827 1122 909 1050T991 856Q991 772 953 702T834 580T633 500T346 471H305Q303 455 302 436T301 400Q301 279 362
210T543 140Q624 140 695 162T848 223V59Q770 23 691 2T506 -20ZM331 624H361Q486 624 584 647T739 719T797 844Q797 898 762 931T655 964Q589 964 525 924T410 807T331 624Z" />
<glyph unicode="f" glyph-name="f" horiz-adv-x="670" d="M-88 -492Q-130 -492 -166 -486T-229 -470V-304Q-201 -314 -174 -320T-114 -326Q-44 -326 -2 -272T64 -111L288 949H104L122 1039L320 1105L342 1206Q365 1308 398 1377T478 1489T584 1549T722 1567Q777
1567 831 1555T922 1526L870 1375Q840 1387 807 1395T733 1404Q655 1404 610 1359T541 1200L519 1102H751L720 949H488L258 -137Q235 -245 193 -325T82 -448T-88 -492Z" />
<glyph unicode="g" glyph-name="g" horiz-adv-x="1074" d="M319 -492Q123 -492 12 -418T-99 -211Q-99 -105 -28 -28T200 101Q163 122 144 153T124 225Q124 294 172 344T314 437Q250 474 213 537T176 686Q177 784 209 865T301 1004Q358 1059 436 1089T610 1120Q649
1120 688 1115T765 1100H1141L1114 982L908 956Q927 926 937 887T946 802Q946 705 914 627T822 493Q766 442 688 414T514 386Q486 386 464 388T426 394Q361 371 330 340T298 273Q298 247 314 230Q330 216 358 208T427 195L549 181Q667 167 741 134T850 45T885 -95Q885
-202 838 -280T701 -410Q630 -450 534 -471T319 -492ZM329 -350Q418 -350 487 -335T603 -290Q651 -259 676 -217T702 -119Q702 -95 695 -76T671 -41Q645 -16 598 -1T479 21L325 37Q245 21 191 -11T108 -88T80 -191Q80 -267 143 -308T329 -350ZM520 516Q597 516
651 557T734 668T763 822Q763 862 753 893T722 944Q702 965 673 975T605 986Q548 986 503 963T426 898T377 801T360 683Q360 647 369 619T395 570Q435 516 520 516Z" />
<glyph unicode="h" glyph-name="h" horiz-adv-x="1194" d="M53 0L383 1556H583L502 1186Q494 1142 482 1093T456 996T430 905H439Q479 957 531 1006T650 1088T802 1120Q891 1120 953 1087T1048 990T1081 831Q1081 793 1075 751T1060 663L919 0H718L862 681Q871
723 875 754T879 810Q879 881 845 918T738 956Q664 956 589 904T451 745T354 478L253 0H53Z" />
<glyph unicode="i" glyph-name="i" horiz-adv-x="540" d="M53 0L287 1102H487L253 0H53ZM442 1280Q396 1280 365 1305T334 1379Q334 1418 349 1449T394 1499T466 1517Q514 1517 541 1494T569 1422Q569 1358 533 1319T442 1280Z" />
<glyph unicode="j" glyph-name="j" horiz-adv-x="540" d="M-124 -492Q-164 -492 -200 -486T-262 -470V-304Q-236 -314 -206 -320T-145 -326Q-102 -326 -69 -305T-11 -241T27 -132L287 1102H487L219 -155Q198 -256 158 -332T49 -450T-124 -492ZM441 1280Q395 1280
365 1305T335 1379Q335 1418 350 1449T395 1499T466 1517Q514 1517 541 1494T569 1422Q569 1358 532 1319T441 1280Z" />
<glyph unicode="k" glyph-name="k" horiz-adv-x="1042" d="M51 0L381 1556H583L444 906Q425 820 408 754T378 644T357 574H362L880 1102H1114L634 622L927 0H705L481 496L332 381L253 0H51Z" />
<glyph unicode="l" glyph-name="l" horiz-adv-x="540" d="M51 0L383 1556H583L252 0H51Z" />
<glyph unicode="m" glyph-name="m" horiz-adv-x="1802" d="M53 0L287 1102H446L422 891H431Q469 947 520 999T638 1087T789 1122Q904 1122 965 1057T1039 877H1046Q1086 940 1141 996T1267 1087T1421 1122Q1551 1122 1620 1049T1689 840Q1689 795 1684 752T1667
663L1527 0H1326L1471 681Q1480 723 1484 755T1489 816Q1489 882 1456 919T1354 956Q1301 956 1248 926T1145 838T1057 693T993 494L889 0H689L833 679Q842 722 846 754T851 811Q851 880 820 918T720 956Q668 956 614 927T511 837T420 688T354 478L253 0H53Z" />
<glyph unicode="n" glyph-name="n" horiz-adv-x="1194" d="M48 0L283 1105H451L426 895H430Q469 951 522 1004T644 1091T802 1126Q892 1126 955 1092T1052 994T1086 840Q1086 796 1079 749T1064 662L921 0H713L858 682Q867 725 872 756T877 815Q877 883 842 917T738
952Q666 952 592 900T455 743T358 478L256 0H48Z" />
<glyph unicode="o" glyph-name="o" horiz-adv-x="1164" d="M508 -17Q382 -17 290 34T148 181T98 406Q98 514 121 617T189 811T303 971T460 1079T659 1118Q787 1118 878 1067T1019 919T1069 690Q1069 585 1047 483T979 291T867 131T711 23T508 -17ZM522 148Q581
148 633 174T728 248T801 365T848 519T865 704Q865 767 845 824T778 917T655 953Q588 953 533 924T434 842T362 720T316 569T300 401Q300 280 357 214T522 148Z" />
<glyph unicode="p" glyph-name="p" horiz-adv-x="1192" d="M-50 -490L287 1102H446L422 899H429Q473 958 527 1008T646 1089T790 1120Q878 1120 946 1079T1053 952T1093 736Q1093 621 1070 511T1001 304T891 135T743 21T561 -20Q486 -20 433 6T343 75T283 169H275Q270
121 261 59T241 -52L148 -490H-50ZM539 144Q602 144 656 177T753 269T826 402T873 563T889 736Q889 845 846 900T718 956Q670 956 623 932T534 866T457 767T396 644T356 506T341 362Q341 264 390 204T539 144Z" />
<glyph unicode="q" glyph-name="q" horiz-adv-x="1192" d="M600 -490L692 -58Q700 -28 711 17T736 111T759 197H751Q708 140 655 90T539 10T397 -20Q311 -20 243 22T136 149T97 363Q97 478 121 588T190 795T301 965T450 1080T634 1122Q707 1122 760 1096T851 1027T912
932H922L985 1102H1137L799 -490H600ZM474 144Q521 144 567 168T655 235T732 336T792 459T832 597T847 738Q847 831 800 893T654 956Q591 956 537 923T440 831T365 698T318 537T301 364Q301 256 344 200T474 144Z" />
<glyph unicode="r" glyph-name="r" horiz-adv-x="822" d="M53 0L287 1102H446L422 891H432Q475 951 524 1004T634 1089T775 1122Q803 1122 833 1119T888 1108L844 924Q820 930 795 933T741 937Q670 937 609 902T498 806T413 668T360 505L253 0H53Z" />
<glyph unicode="s" glyph-name="s" horiz-adv-x="905" d="M329 -20Q227 -20 151 -1T15 49V226Q73 192 154 165T321 138Q397 138 449 158T530 216T558 304Q558 343 541 372T484 430T374 498Q299 540 247 583T168 679T141 802Q141 901 188 972T322 1083T526 1122Q625
1122 710 1100T863 1043L798 889Q744 917 677 938T528 960Q445 960 394 922T342 818Q342 783 358 755T413 700T520 635Q588 596 643 555T730 459T762 327Q762 215 709 138T559 20T329 -20Z" />
<glyph unicode="t" glyph-name="t" horiz-adv-x="716" d="M380 -20Q265 -20 191 33T117 219Q117 249 120 283T133 355L258 949H93L113 1044L298 1117L421 1350H544L490 1102H773L741 949H459L333 353Q327 328 323 301T318 249Q318 202 343 173T425 143Q464 143
499 150T575 172V20Q544 5 490 -7T380 -20Z" />
<glyph unicode="u" glyph-name="u" horiz-adv-x="1194" d="M389 -20Q303 -20 241 13T146 109T113 264Q113 306 119 351T134 446L275 1102H476L330 419Q322 379 318 346T313 288Q313 219 347 182T455 144Q529 144 604 197T743 357T840 624L941 1102H1139L906 0H746L771
211H762Q722 155 669 102T547 15T389 -20Z" />
<glyph unicode="v" glyph-name="v" horiz-adv-x="970" d="M233 0L99 1102H299L360 482Q365 436 369 376T376 260T379 173H386Q406 218 432 275T484 389T531 484L859 1102H1073L475 0H233Z" />
<glyph unicode="w" glyph-name="w" horiz-adv-x="1502" d="M167 0L118 1102H311L326 524Q328 422 326 337T319 184H326Q342 228 364 285T410 397T451 491L735 1102H950L980 512Q982 439 983 350T981 184H988Q1005 233 1027 295T1077 424T1131 556L1377 1102H1585L1071
0H840L811 592Q809 642 809 694T809 800T811 913H802Q784 864 766 817T727 720T678 611L394 0H167Z" />
<glyph unicode="x" glyph-name="x" horiz-adv-x="1009" d="M-81 0L396 566L162 1102H368L529 708L840 1102H1073L613 557L865 0H656L480 413L151 0H-81Z" />
<glyph unicode="y" glyph-name="y" horiz-adv-x="973" d="M-42 -493Q-92 -493 -123 -487T-183 -472V-311Q-156 -317 -125 -322T-56 -328Q29 -328 88 -275T202 -125L266 -10L99 1102H299L370 550Q379 489 384 419T391 286T394 181H400Q414 214 439 271T492 392T547
504L859 1102H1074L377 -182Q322 -286 261 -355T127 -458T-42 -493Z" />
<glyph unicode="z" glyph-name="z" horiz-adv-x="915" d="M-35 0L-9 130L658 949H197L229 1102H915L885 952L228 153H739L708 0H-35Z" />
<glyph unicode="{" glyph-name="braceleft" horiz-adv-x="716" d="M448 -324Q294 -324 219 -266T143 -95Q143 -62 148 -30T161 38L210 256Q216 285 220 310T224 359Q224 430 173 465T18 500L53 661Q173 661 243 705T336 853L402 1168Q425 1273 469 1338T590 1432T782
1462H828L794 1302Q705 1302 653 1270T579 1142L509 826Q486 720 425 655T250 571V566Q329 545 366 491T403 358Q403 332 399 300T386 235L341 23Q336 1 332 -20T328 -60Q328 -122 369 -142T481 -163V-324H448Z" />
<glyph unicode="|" glyph-name="bar" horiz-adv-x="1126" d="M517 -487V1555H674V-487H517Z" />
<glyph unicode="}" glyph-name="braceright" horiz-adv-x="716" d="M-84 -324L-83 -163Q-20 -163 27 -150T104 -102T147 -3L218 313Q241 419 302 483T477 565V571Q398 594 362 648T325 779Q325 806 329 838T341 902L388 1115Q394 1139 397 1160T401 1198Q401 1259
356 1280T227 1302L257 1462H276Q380 1462 448 1437T549 1361T583 1233Q583 1201 578 1169T565 1101L516 882Q511 853 506 828T500 780Q500 709 553 674T708 639L673 477Q594 477 536 459T442 398T392 286L325 -30Q302 -140 256 -204T132 -296T-62 -324H-84Z" />
<glyph unicode="~" glyph-name="asciitilde" horiz-adv-x="1171" d="M589 648Q517 680 467 692T370 704Q313 704 250 670T135 584V754Q185 807 247 834T384 861Q445 861 504 848T653 796Q727 765 776 753T870 740Q929 740 992 774T1105 860V692Q1056 640 995 612T858
583Q798 583 739 595T589 648Z" />
<glyph unicode="&#xa0;" glyph-name="uni00A0" horiz-adv-x="532" />
<glyph unicode="&#xa1;" glyph-name="exclamdown" horiz-adv-x="540" d="M-33 -372L234 664H378L203 -372H-33ZM347 837Q294 837 265 865T235 947Q235 1016 275 1066T393 1117Q448 1117 475 1086T503 1004Q503 964 487 926T437 862T347 837Z" />
<glyph unicode="&#xa2;" glyph-name="cent" horiz-adv-x="1128" d="M438 -20L483 193Q357 225 281 324T205 589Q205 700 228 802T293 991T398 1147T539 1260T713 1317L746 1483H884L848 1317Q909 1312 965 1299T1069 1264L1011 1102Q965 1123 910 1139T789 1155Q703
1155 634 1110T514 987T436 809T409 596Q409 477 471 410T642 343Q714 343 779 363T907 414V246Q848 216 777 198T618 177L577 -20H438Z" />
<glyph unicode="&#xa3;" glyph-name="sterling" horiz-adv-x="1128" d="M-19 0L13 167Q75 181 126 214T215 306T271 452L312 642H114L145 791H344L410 1108Q438 1239 500 1322T651 1443T853 1482Q959 1482 1045 1457T1195 1398L1118 1241Q1066 1267 1000 1291T855
1315Q768 1315 701 1267T606 1086L544 791H894L862 642H512L472 457Q447 337 394 275T274 179H982L944 0H-19Z" />
<glyph unicode="&#xa4;" glyph-name="currency" horiz-adv-x="1131" d="M944 275L814 405Q768 373 714 356T600 339Q540 339 485 356T383 405L255 277L153 380L282 510Q250 555 233 608T215 723Q215 782 233 836T282 937L151 1068L255 1173L384 1042Q431 1073
486 1091T600 1110Q659 1110 713 1092T814 1042L944 1173L1049 1071L918 939Q948 894 966 839T985 723Q985 662 967 608T918 508L1048 378L944 275ZM600 486Q667 486 722 517T809 603T842 723Q842 790 810 845T722 932T600 964Q534 964 480 932T394 845T362 723Q362
657 394 603T480 518T600 486Z" />
<glyph unicode="&#xa5;" glyph-name="yen" horiz-adv-x="1128" d="M345 0L400 258H116L147 398H429L462 557H178L210 697H434L227 1462H424L590 761L1053 1462H1268L737 697H966L936 557H650L617 398H904L874 258H590L533 0H345Z" />
<glyph unicode="&#xa6;" glyph-name="brokenbar" horiz-adv-x="1126" d="M517 769V1555H674V769H517ZM517 -487V301H674V-487H517Z" />
<glyph unicode="&#xa7;" glyph-name="section" horiz-adv-x="997" d="M355 -12Q251 -12 174 8T46 54V218Q105 186 188 159T358 132Q482 132 547 175T612 297Q612 330 593 357T531 411T419 470Q344 504 288 544T201 639T170 768Q170 844 201 901T285 999T400 1071Q351
1103 318 1153T284 1272Q284 1359 332 1425T469 1529T680 1566Q777 1566 858 1546T1006 1493L948 1354Q884 1383 816 1402T675 1421Q624 1421 577 1407T500 1362T470 1279Q470 1227 515 1192T662 1111Q736 1078 792 1039T880 946T911 821Q911 749 882 690T802 586T691
507Q735 475 766 429T798 316Q798 216 746 143T596 29T355 -12ZM579 573Q639 606 687 663T735 795Q735 838 713 871T641 935T515 997Q473 983 433 955T368 886T342 792Q342 746 364 711T439 644T579 573Z" />
<glyph unicode="&#xa8;" glyph-name="dieresis" horiz-adv-x="1139" d="M913 1290Q873 1290 847 1312T821 1378Q821 1431 850 1467T937 1503Q979 1503 1002 1481T1026 1418Q1026 1359 994 1325T913 1290ZM543 1290Q502 1290 476 1312T450 1378Q450 1431 479 1467T564
1503Q593 1503 613 1493T643 1464T654 1418Q654 1359 623 1325T543 1290Z" />
<glyph unicode="&#xa9;" glyph-name="copyright" horiz-adv-x="1704" d="M852 -20Q689 -20 552 36T313 193T156 431T100 731Q100 892 156 1029T314 1268T553 1426T852 1483Q1009 1483 1145 1427T1385 1270T1546 1031T1604 731Q1604 569 1548 432T1391 193T1152
36T852 -20ZM884 271Q680 271 578 396T475 731Q475 865 523 968T665 1131T892 1190Q957 1190 1022 1174T1145 1129L1088 1007Q1038 1033 989 1046T894 1060Q768 1060 699 972T630 731Q630 572 692 487T891 401Q940 401 998 414T1108 448V321Q1059 299 1007 285T884
271ZM852 89Q983 89 1098 136T1300 270T1436 474T1486 731Q1486 864 1439 980T1306 1185T1106 1324T852 1374Q714 1374 598 1327T397 1193T264 989T217 731Q217 597 263 481T395 276T597 139T852 89Z" />
<glyph unicode="&#xaa;" glyph-name="ordfeminine" horiz-adv-x="711" d="M356 777Q304 777 261 803T192 882T166 1016Q166 1098 187 1180T250 1329T354 1437T499 1478Q564 1478 602 1448T659 1373H667L704 1465H807L663 790H558L572 902H565Q526 848 477 813T356
777ZM400 892Q443 892 477 915T538 977T582 1061T608 1152T617 1237Q617 1294 591 1329T509 1364Q462 1364 424 1335T359 1256T317 1147T302 1024Q302 958 327 925T400 892Z" />
<glyph unicode="&#xab;" glyph-name="guillemotleft" horiz-adv-x="1003" d="M300 111L79 554L80 579L473 982L582 882L287 549L448 174L300 111ZM710 111L497 527L498 553L876 974L991 882L704 525L857 174L710 111Z" />
<glyph unicode="&#xac;" glyph-name="logicalnot" horiz-adv-x="1171" d="M1101 800V259H946V644H135V800H1101Z" />
<glyph unicode="&#xad;" glyph-name="uni00AD" horiz-adv-x="643" d="M52 460L91 638H584L546 460H52Z" />
<glyph unicode="&#xae;" glyph-name="registered" horiz-adv-x="1704" d="M572 284V1180H836Q1000 1180 1078 1113T1156 914Q1156 817 1107 761T993 679L1231 284H1061L857 637H722V284H572ZM722 760H831Q913 760 958 800T1004 910Q1004 986 962 1019T829 1053H722V760ZM852
-20Q689 -20 552 36T313 193T156 431T100 731Q100 892 156 1029T314 1268T553 1426T852 1483Q1009 1483 1145 1427T1385 1270T1546 1031T1604 731Q1604 569 1548 432T1391 193T1152 36T852 -20ZM852 89Q983 89 1098 136T1300 270T1436 474T1486 731Q1486 864 1439
980T1306 1185T1106 1324T852 1374Q714 1374 598 1327T397 1193T264 989T217 731Q217 597 263 481T395 276T597 139T852 89Z" />
<glyph unicode="&#xaf;" glyph-name="overscore" horiz-adv-x="874" d="M200 1556L234 1703H1100L1064 1556H200Z" />
<glyph unicode="&#xb0;" glyph-name="degree" horiz-adv-x="877" d="M438 843Q340 843 266 883T150 995T108 1162Q108 1257 149 1329T264 1442T438 1483Q536 1483 610 1443T727 1330T769 1162Q769 1068 727 996T611 883T438 843ZM440 976Q529 976 577 1027T626
1162Q626 1249 577 1300T440 1352Q348 1352 300 1301T252 1162Q252 1078 299 1027T440 976Z" />
<glyph unicode="&#xb1;" glyph-name="plusminus" horiz-adv-x="1171" d="M135 0V156H1106V0H135ZM699 819H1104V663H699V248H541V663H135V819H541V1236H699V819Z" />
<glyph unicode="&#xb2;" glyph-name="uni00B2" horiz-adv-x="730" d="M134 852L161 972L429 1198Q508 1265 560 1316T638 1412T664 1508Q664 1558 634 1587T551 1616Q501 1616 453 1596T354 1535L285 1642Q351 1694 423 1720T583 1747Q708 1747 766 1683T824 1536Q824
1463 797 1404T712 1285T559 1149L364 990H750L722 852H134Z" />
<glyph unicode="&#xb3;" glyph-name="uni00B3" horiz-adv-x="730" d="M401 838Q331 838 268 852T158 892V1034Q213 1003 275 984T400 964Q498 964 550 1005T603 1123Q603 1182 563 1214T442 1246H339L365 1365H458Q520 1365 567 1382T640 1431T666 1510Q666 1564
634 1593T542 1620Q488 1619 441 1602T347 1553L287 1659Q342 1698 412 1722T570 1747Q656 1747 712 1720T795 1646T822 1541Q822 1444 765 1389T612 1309V1302Q685 1284 722 1235T760 1119Q760 1033 717 970T594 873T401 838Z" />
<glyph unicode="&#xb4;" glyph-name="acute" horiz-adv-x="562" d="M235 1241V1266Q271 1306 313 1358T396 1467T467 1569H692V1550Q670 1522 632 1482T546 1396T452 1311T365 1241H235Z" />
<glyph unicode="&#xb5;" glyph-name="uni00B5" horiz-adv-x="1206" d="M-51 -490L286 1102H486L343 422Q334 379 330 346T325 290Q325 222 360 183T468 144Q540 144 615 196T752 354T850 621L954 1102H1152L917 0H760L783 203H774Q735 146 685 95T572 12T428 -20Q370
-20 329 4T262 74H254Q250 43 243 -3T227 -95T213 -175L148 -490H-51Z" />
<glyph unicode="&#xb6;" glyph-name="paragraph" horiz-adv-x="1341" d="M747 -260V573Q716 564 681 560T601 555Q507 555 431 581T301 666T217 819T188 1050Q188 1194 220 1291T310 1446T450 1530T632 1556H1198V-260H1074V1396H871V-260H747Z" />
<glyph unicode="&#xb7;" glyph-name="middot" horiz-adv-x="532" d="M272 575Q216 575 188 606T159 687Q159 752 197 804T321 856Q369 856 399 827T429 743Q429 678 389 627T272 575Z" />
<glyph unicode="&#xb8;" glyph-name="cedilla" horiz-adv-x="418" d="M-74 -492Q-106 -492 -135 -488T-182 -478V-361Q-162 -366 -138 -369T-92 -373Q-43 -373 -9 -361T43 -326T61 -267Q61 -224 25 -202T-80 -173L18 0H144L90 -107Q142 -122 183 -158T225 -269Q225
-332 191 -382T91 -462T-74 -492Z" />
<glyph unicode="&#xb9;" glyph-name="uni00B9" horiz-adv-x="730" d="M382 850L486 1339Q498 1395 514 1457T543 1561Q524 1545 500 1525T451 1488L339 1417L273 1526L592 1726H732L546 850H382Z" />
<glyph unicode="&#xba;" glyph-name="ordmasculine" horiz-adv-x="711" d="M429 777Q316 777 246 846T176 1049Q176 1132 198 1209T264 1347T374 1443T526 1479Q657 1479 715 1403T774 1212Q774 1135 755 1059T695 919T588 816T429 777ZM440 894Q489 894 525 921T587
993T625 1095T638 1210Q638 1288 606 1324T517 1361Q468 1361 430 1335T366 1264T327 1164T314 1048Q314 971 347 933T440 894Z" />
<glyph unicode="&#xbb;" glyph-name="guillemotright" horiz-adv-x="1003" d="M530 111L421 212L717 543L555 919L704 982L925 537L924 511L530 111ZM127 119L12 212L299 565L146 919L294 982L506 564V537L127 119Z" />
<glyph unicode="&#xbc;" glyph-name="onequarter" horiz-adv-x="1541" d="M186 0L1272 1462H1445L360 0H186ZM325 586L429 1075Q441 1131 457 1193T486 1297Q467 1281 443 1261T394 1224L282 1153L216 1262L535 1462H675L489 586H325ZM1122 3L1161 193H792L816
312L1299 886H1466L1345 319H1469L1444 193H1317L1277 3H1122ZM971 319H1189L1231 507Q1243 557 1253 602T1277 697Q1263 672 1229 628T1169 555L971 319Z" />
<glyph unicode="&#xbd;" glyph-name="onehalf" horiz-adv-x="1677" d="M186 0L1272 1462H1445L360 0H186ZM325 586L429 1075Q441 1131 457 1193T486 1297Q467 1281 443 1261T394 1224L282 1153L216 1262L535 1462H675L489 586H325ZM903 2L930 122L1198 348Q1277
415 1329 466T1407 562T1433 658Q1433 708 1403 737T1320 766Q1270 766 1222 746T1123 685L1054 792Q1120 844 1192 870T1352 897Q1477 897 1535 833T1593 686Q1593 613 1566 554T1481 435T1328 299L1133 140H1519L1491 2H903Z" />
<glyph unicode="&#xbe;" glyph-name="threequarters" horiz-adv-x="1642" d="M346 573Q276 573 213 587T103 627V769Q158 738 220 719T345 699Q443 699 495 740T548 858Q548 917 508 949T387 981H284L310 1100H403Q465 1100 512 1117T585 1166T611 1245Q611 1299
579 1328T487 1355Q433 1354 386 1337T292 1288L232 1394Q287 1433 357 1457T515 1482Q601 1482 657 1455T740 1381T767 1276Q767 1179 710 1124T557 1044V1037Q630 1019 667 970T705 854Q705 768 662 705T539 608T346 573ZM294 0L1380 1462H1553L468 0H294ZM1222
1L1261 191H892L916 310L1399 884H1566L1445 317H1569L1544 191H1417L1377 1H1222ZM1071 317H1289L1331 505Q1343 555 1353 600T1377 695Q1363 670 1329 626T1269 553L1071 317Z" />
<glyph unicode="&#xbf;" glyph-name="questiondown" horiz-adv-x="891" d="M640 663Q625 571 596 504T518 381T392 267Q326 218 273 173T187 76T155 -47Q155 -130 202 -177T340 -224Q415 -224 489 -199T636 -137L704 -289Q619 -334 518 -364T315 -394Q151 -394
54 -311T-44 -70Q-44 26 -9 100T93 239T252 370Q327 423 369 463T435 548T474 663H640ZM628 1117Q684 1117 712 1086T741 1005Q741 940 703 888T580 836Q531 836 501 865T471 949Q471 1014 511 1065T628 1117Z" />
<glyph unicode="&#xc0;" glyph-name="Agrave" horiz-adv-x="1183" d="M-117 0L675 1462H901L1077 0H877L828 437H331L102 0H-117ZM423 615H811L776 965Q769 1035 762 1117T754 1267H749Q720 1196 684 1120T605 964L423 615ZM819 1602Q780 1642 735 1697T652 1809T592
1909V1930H803Q818 1881 840 1829T888 1725T942 1627V1602H819Z" />
<glyph unicode="&#xc1;" glyph-name="Aacute" horiz-adv-x="1183" d="M-117 0L675 1462H901L1077 0H877L828 437H331L102 0H-117ZM423 615H811L776 965Q769 1035 762 1117T754 1267H749Q720 1196 684 1120T605 964L423 615ZM699 1602V1627Q735 1667 777 1719T860
1828T931 1930H1156V1911Q1134 1883 1096 1843T1010 1757T916 1672T829 1602H699Z" />
<glyph unicode="&#xc2;" glyph-name="Acircumflex" horiz-adv-x="1183" d="M-117 0L675 1462H901L1077 0H877L828 437H331L102 0H-117ZM423 615H811L776 965Q769 1035 762 1117T754 1267H749Q720 1196 684 1120T605 964L423 615ZM465 1602L466 1627Q503 1661 559
1715T669 1826T754 1929H959Q979 1878 1009 1824T1072 1719T1130 1627V1602H1003Q978 1625 951 1655T896 1720T842 1790Q781 1736 720 1688T603 1602H465Z" />
<glyph unicode="&#xc3;" glyph-name="Atilde" horiz-adv-x="1183" d="M-117 0L675 1462H901L1077 0H877L828 437H331L102 0H-117ZM423 615H811L776 965Q769 1035 762 1117T754 1267H749Q720 1196 684 1120T605 964L423 615ZM458 1604Q477 1693 511 1753T593 1842T703
1872Q749 1872 788 1855T861 1816T926 1776T985 1759Q1027 1759 1052 1785T1102 1874H1222Q1200 1785 1165 1725T1083 1635T973 1605Q930 1605 893 1622T822 1662T756 1702T690 1719Q650 1719 625 1691T578 1604H458Z" />
<glyph unicode="&#xc4;" glyph-name="Adieresis" horiz-adv-x="1183" d="M-117 0L675 1462H901L1077 0H877L828 437H331L102 0H-117ZM423 615H811L776 965Q769 1035 762 1117T754 1267H749Q720 1196 684 1120T605 964L423 615ZM1013 1651Q973 1651 947 1673T921
1739Q921 1792 950 1828T1037 1864Q1079 1864 1102 1842T1126 1779Q1126 1720 1094 1686T1013 1651ZM643 1651Q602 1651 576 1673T550 1739Q550 1792 579 1828T664 1864Q693 1864 713 1854T743 1825T754 1779Q754 1720 723 1686T643 1651Z" />
<glyph unicode="&#xc5;" glyph-name="Aring" horiz-adv-x="1183" d="M-117 0L675 1462H901L1077 0H877L828 437H331L102 0H-117ZM423 615H811L776 965Q769 1035 762 1117T754 1267H749Q720 1196 684 1120T605 964L423 615ZM828 1585Q728 1585 665 1643T602 1805Q602
1908 667 1966T828 2024Q927 2024 992 1966T1057 1807Q1057 1702 992 1644T828 1585ZM828 1693Q878 1693 909 1723T941 1805Q941 1857 909 1887T828 1918Q781 1918 749 1888T716 1805Q716 1754 745 1724T828 1693Z" />
<glyph unicode="&#xc6;" glyph-name="AE" horiz-adv-x="1718" d="M-118 0L811 1462H1795L1759 1286H1199L1105 851H1629L1594 677H1071L965 177H1523L1486 0H723L816 437H381L108 0H-118ZM494 614H852L995 1286H912L494 614Z" />
<glyph unicode="&#xc7;" glyph-name="Ccedilla" horiz-adv-x="1216" d="M666 -20Q499 -20 383 48T205 243T143 543Q143 678 174 812T268 1067T425 1281T647 1429T932 1484Q1045 1484 1134 1463T1304 1397L1225 1228Q1163 1262 1093 1284T932 1307Q815 1307 723
1264T561 1145T447 972T378 767T355 550Q355 365 445 261T703 157Q789 157 871 175T1033 221V45Q959 18 872 -1T666 -20ZM494 -492Q462 -492 433 -488T386 -478V-361Q406 -366 430 -369T476 -373Q525 -373 559 -361T611 -326T629 -267Q629 -224 593 -202T488 -173L586
0H712L658 -107Q710 -122 751 -158T793 -269Q793 -332 759 -382T659 -462T494 -492Z" />
<glyph unicode="&#xc8;" glyph-name="Egrave" horiz-adv-x="1071" d="M78 0L387 1462H1147L1110 1286H553L460 851H981L946 677H424L317 177H875L837 0H78ZM791 1602Q752 1642 707 1697T624 1809T564 1909V1930H775Q790 1881 812 1829T860 1725T914 1627V1602H791Z" />
<glyph unicode="&#xc9;" glyph-name="Eacute" horiz-adv-x="1071" d="M78 0L387 1462H1147L1110 1286H553L460 851H981L946 677H424L317 177H875L837 0H78ZM668 1602V1627Q704 1667 746 1719T829 1828T900 1930H1125V1911Q1103 1883 1065 1843T979 1757T885 1672T798
1602H668Z" />
<glyph unicode="&#xca;" glyph-name="Ecircumflex" horiz-adv-x="1071" d="M78 0L387 1462H1147L1110 1286H553L460 851H981L946 677H424L317 177H875L837 0H78ZM438 1602L439 1627Q476 1661 532 1715T642 1826T727 1929H932Q952 1878 982 1824T1045 1719T1103
1627V1602H976Q951 1625 924 1655T869 1720T815 1790Q754 1736 693 1688T576 1602H438Z" />
<glyph unicode="&#xcb;" glyph-name="Edieresis" horiz-adv-x="1071" d="M78 0L387 1462H1147L1110 1286H553L460 851H981L946 677H424L317 177H875L837 0H78ZM987 1651Q947 1651 921 1673T895 1739Q895 1792 924 1828T1011 1864Q1053 1864 1076 1842T1100 1779Q1100
1720 1068 1686T987 1651ZM617 1651Q576 1651 550 1673T524 1739Q524 1792 553 1828T638 1864Q667 1864 687 1854T717 1825T728 1779Q728 1720 697 1686T617 1651Z" />
<glyph unicode="&#xcc;" glyph-name="Igrave" horiz-adv-x="580" d="M77 0L388 1462H589L278 0H77ZM509 1602Q470 1642 425 1697T342 1809T282 1909V1930H493Q508 1881 530 1829T578 1725T632 1627V1602H509Z" />
<glyph unicode="&#xcd;" glyph-name="Iacute" horiz-adv-x="580" d="M77 0L388 1462H589L278 0H77ZM400 1602V1627Q436 1667 478 1719T561 1828T632 1930H857V1911Q835 1883 797 1843T711 1757T617 1672T530 1602H400Z" />
<glyph unicode="&#xce;" glyph-name="Icircumflex" horiz-adv-x="580" d="M77 0L388 1462H589L278 0H77ZM181 1602L182 1627Q219 1661 275 1715T385 1826T470 1929H675Q695 1878 725 1824T788 1719T846 1627V1602H719Q694 1625 667 1655T612 1720T558 1790Q497
1736 436 1688T319 1602H181Z" />
<glyph unicode="&#xcf;" glyph-name="Idieresis" horiz-adv-x="580" d="M77 0L388 1462H589L278 0H77ZM728 1651Q688 1651 662 1673T636 1739Q636 1792 665 1828T752 1864Q794 1864 817 1842T841 1779Q841 1720 809 1686T728 1651ZM358 1651Q317 1651 291 1673T265
1739Q265 1792 294 1828T379 1864Q408 1864 428 1854T458 1825T469 1779Q469 1720 438 1686T358 1651Z" />
<glyph unicode="&#xd0;" glyph-name="Eth" horiz-adv-x="1373" d="M78 0L210 637H62L100 811H248L387 1462H742Q1008 1462 1158 1319T1308 886Q1308 732 1273 597T1167 353T994 164T756 43T455 0H78ZM317 174H466Q591 174 691 209T866 310T993 464T1070 659T1096
883Q1096 1096 994 1193T718 1290H554L452 811H760L721 637H414L317 174Z" />
<glyph unicode="&#xd1;" glyph-name="Ntilde" horiz-adv-x="1467" d="M76 0L385 1462H608L1040 275H1046Q1053 323 1064 390T1089 530T1116 667L1287 1462H1475L1166 0H947L509 1197H502Q498 1168 491 1122T475 1018T454 901T431 787L265 0H76ZM612 1604Q631 1693
665 1753T747 1842T857 1872Q903 1872 942 1855T1015 1816T1080 1776T1139 1759Q1181 1759 1206 1785T1256 1874H1376Q1354 1785 1319 1725T1237 1635T1127 1605Q1084 1605 1047 1622T976 1662T910 1702T844 1719Q804 1719 779 1691T732 1604H612Z" />
<glyph unicode="&#xd2;" glyph-name="Ograve" horiz-adv-x="1481" d="M683 -20Q507 -20 387 50T205 247T143 546Q143 668 165 784T230 1006T336 1198T483 1350T667 1449T890 1485Q1141 1485 1278 1334T1416 916Q1416 796 1396 680T1336 460T1235 268T1093 116T910
16T683 -20ZM693 157Q773 157 841 185T966 264T1067 384T1141 539T1187 719T1203 917Q1203 1101 1117 1204T874 1308Q794 1308 724 1281T597 1202T494 1082T418 927T371 747T355 549Q355 426 395 338T510 204T693 157ZM966 1602Q927 1642 882 1697T799 1809T739
1909V1930H950Q965 1881 987 1829T1035 1725T1089 1627V1602H966Z" />
<glyph unicode="&#xd3;" glyph-name="Oacute" horiz-adv-x="1481" d="M683 -20Q507 -20 387 50T205 247T143 546Q143 668 165 784T230 1006T336 1198T483 1350T667 1449T890 1485Q1141 1485 1278 1334T1416 916Q1416 796 1396 680T1336 460T1235 268T1093 116T910
16T683 -20ZM693 157Q773 157 841 185T966 264T1067 384T1141 539T1187 719T1203 917Q1203 1101 1117 1204T874 1308Q794 1308 724 1281T597 1202T494 1082T418 927T371 747T355 549Q355 426 395 338T510 204T693 157ZM843 1602V1627Q879 1667 921 1719T1004 1828T1075
1930H1300V1911Q1278 1883 1240 1843T1154 1757T1060 1672T973 1602H843Z" />
<glyph unicode="&#xd4;" glyph-name="Ocircumflex" horiz-adv-x="1481" d="M683 -20Q507 -20 387 50T205 247T143 546Q143 668 165 784T230 1006T336 1198T483 1350T667 1449T890 1485Q1141 1485 1278 1334T1416 916Q1416 796 1396 680T1336 460T1235 268T1093
116T910 16T683 -20ZM693 157Q773 157 841 185T966 264T1067 384T1141 539T1187 719T1203 917Q1203 1101 1117 1204T874 1308Q794 1308 724 1281T597 1202T494 1082T418 927T371 747T355 549Q355 426 395 338T510 204T693 157ZM610 1602L611 1627Q648 1661 704
1715T814 1826T899 1929H1104Q1124 1878 1154 1824T1217 1719T1275 1627V1602H1148Q1123 1625 1096 1655T1041 1720T987 1790Q926 1736 865 1688T748 1602H610Z" />
<glyph unicode="&#xd5;" glyph-name="Otilde" horiz-adv-x="1481" d="M683 -20Q507 -20 387 50T205 247T143 546Q143 668 165 784T230 1006T336 1198T483 1350T667 1449T890 1485Q1141 1485 1278 1334T1416 916Q1416 796 1396 680T1336 460T1235 268T1093 116T910
16T683 -20ZM693 157Q773 157 841 185T966 264T1067 384T1141 539T1187 719T1203 917Q1203 1101 1117 1204T874 1308Q794 1308 724 1281T597 1202T494 1082T418 927T371 747T355 549Q355 426 395 338T510 204T693 157ZM604 1604Q623 1693 657 1753T739 1842T849
1872Q895 1872 934 1855T1007 1816T1072 1776T1131 1759Q1173 1759 1198 1785T1248 1874H1368Q1346 1785 1311 1725T1229 1635T1119 1605Q1076 1605 1039 1622T968 1662T902 1702T836 1719Q796 1719 771 1691T724 1604H604Z" />
<glyph unicode="&#xd6;" glyph-name="Odieresis" horiz-adv-x="1481" d="M683 -20Q507 -20 387 50T205 247T143 546Q143 668 165 784T230 1006T336 1198T483 1350T667 1449T890 1485Q1141 1485 1278 1334T1416 916Q1416 796 1396 680T1336 460T1235 268T1093 116T910
16T683 -20ZM693 157Q773 157 841 185T966 264T1067 384T1141 539T1187 719T1203 917Q1203 1101 1117 1204T874 1308Q794 1308 724 1281T597 1202T494 1082T418 927T371 747T355 549Q355 426 395 338T510 204T693 157ZM1159 1651Q1119 1651 1093 1673T1067 1739Q1067
1792 1096 1828T1183 1864Q1225 1864 1248 1842T1272 1779Q1272 1720 1240 1686T1159 1651ZM789 1651Q748 1651 722 1673T696 1739Q696 1792 725 1828T810 1864Q839 1864 859 1854T889 1825T900 1779Q900 1720 869 1686T789 1651Z" />
<glyph unicode="&#xd7;" glyph-name="multiply" horiz-adv-x="1171" d="M963 1175L1072 1065L730 723L1070 382L961 271L618 610L281 272L169 382L508 723L168 1062L280 1175L619 833L963 1175Z" />
<glyph unicode="&#xd8;" glyph-name="Oslash" horiz-adv-x="1481" d="M226 -82L108 13L244 181Q193 252 168 345T143 546Q143 668 165 784T230 1006T336 1198T483 1350T667 1449T890 1485Q988 1485 1069 1459T1216 1381L1343 1538L1463 1443L1320 1270Q1367 1205
1391 1114T1416 916Q1416 796 1396 680T1336 460T1235 268T1093 116T910 16T683 -20Q583 -20 502 3T355 75L226 -82ZM694 155Q774 155 843 183T970 262T1072 384T1146 539T1192 719T1208 917Q1208 967 1201 1012T1181 1092L475 225Q514 193 569 174T694 155ZM386
354L1094 1231Q1054 1269 999 1290T874 1311Q793 1311 723 1283T594 1204T491 1083T415 927T368 747T352 549Q352 495 360 445T386 354Z" />
<glyph unicode="&#xd9;" glyph-name="Ugrave" horiz-adv-x="1396" d="M612 -20Q461 -20 361 28T209 166T158 386Q158 420 163 467T179 565L371 1462H574L382 559Q372 516 367 471T361 394Q361 282 428 220T627 157Q741 157 817 198T940 320T1013 522L1214 1462H1416L1213
504Q1179 343 1107 226T913 44T612 -20ZM924 1602Q885 1642 840 1697T757 1809T697 1909V1930H908Q923 1881 945 1829T993 1725T1047 1627V1602H924Z" />
<glyph unicode="&#xda;" glyph-name="Uacute" horiz-adv-x="1396" d="M612 -20Q461 -20 361 28T209 166T158 386Q158 420 163 467T179 565L371 1462H574L382 559Q372 516 367 471T361 394Q361 282 428 220T627 157Q741 157 817 198T940 320T1013 522L1214 1462H1416L1213
504Q1179 343 1107 226T913 44T612 -20ZM800 1602V1627Q836 1667 878 1719T961 1828T1032 1930H1257V1911Q1235 1883 1197 1843T1111 1757T1017 1672T930 1602H800Z" />
<glyph unicode="&#xdb;" glyph-name="Ucircumflex" horiz-adv-x="1396" d="M612 -20Q461 -20 361 28T209 166T158 386Q158 420 163 467T179 565L371 1462H574L382 559Q372 516 367 471T361 394Q361 282 428 220T627 157Q741 157 817 198T940 320T1013 522L1214
1462H1416L1213 504Q1179 343 1107 226T913 44T612 -20ZM568 1602L569 1627Q606 1661 662 1715T772 1826T857 1929H1062Q1082 1878 1112 1824T1175 1719T1233 1627V1602H1106Q1081 1625 1054 1655T999 1720T945 1790Q884 1736 823 1688T706 1602H568Z" />
<glyph unicode="&#xdc;" glyph-name="Udieresis" horiz-adv-x="1396" d="M612 -20Q461 -20 361 28T209 166T158 386Q158 420 163 467T179 565L371 1462H574L382 559Q372 516 367 471T361 394Q361 282 428 220T627 157Q741 157 817 198T940 320T1013 522L1214 1462H1416L1213
504Q1179 343 1107 226T913 44T612 -20ZM1118 1651Q1078 1651 1052 1673T1026 1739Q1026 1792 1055 1828T1142 1864Q1184 1864 1207 1842T1231 1779Q1231 1720 1199 1686T1118 1651ZM748 1651Q707 1651 681 1673T655 1739Q655 1792 684 1828T769 1864Q798 1864
818 1854T848 1825T859 1779Q859 1720 828 1686T748 1651Z" />
<glyph unicode="&#xdd;" glyph-name="Yacute" horiz-adv-x="1067" d="M310 0L429 552L188 1462H393L563 755L1027 1462H1255L628 549L514 0H310ZM633 1602V1627Q669 1667 711 1719T794 1828T865 1930H1090V1911Q1068 1883 1030 1843T944 1757T850 1672T763 1602H633Z" />
<glyph unicode="&#xde;" glyph-name="Thorn" horiz-adv-x="1180" d="M78 0L387 1462H589L537 1213H678Q839 1213 938 1165T1082 1030T1128 825Q1128 698 1085 602T958 443T755 347T487 314H347L280 0H78ZM383 486H515Q637 486 728 521T871 630T922 819Q922 935
856 988T658 1041H500L383 486Z" />
<glyph unicode="&#xdf;" glyph-name="germandbls" horiz-adv-x="1226" d="M-128 -492Q-164 -492 -199 -486T-260 -470V-302Q-233 -313 -206 -319T-148 -325Q-83 -325 -40 -279T26 -129L299 1159Q328 1296 390 1387T551 1522T791 1567Q962 1567 1062 1492T1163
1283Q1163 1206 1135 1150T1060 1050T957 967Q896 924 848 884T800 790Q800 762 820 737T868 690T923 645Q1000 581 1047 515T1095 352Q1095 229 1041 146T892 22T676 -20Q585 -20 516 -2T400 47V223Q447 189 514 164T652 138Q772 138 832 193T892 331Q892 373
879 404T836 466T758 535Q677 598 638 653T598 778Q598 848 626 896T699 982T795 1054Q840 1082 878 1112T938 1179T961 1264Q961 1330 911 1367T773 1405Q691 1405 636 1375T547 1287T497 1150L227 -133Q204 -243 161 -324T48 -448T-128 -492Z" />
<glyph unicode="&#xe0;" glyph-name="agrave" horiz-adv-x="1173" d="M399 -20Q312 -20 244 22T136 150T97 363Q97 481 122 592T193 799T305 967T453 1081T631 1122Q705 1122 759 1096T850 1027T908 932H918L980 1102H1133L900 0H744L770 195H762Q718 138 663
89T542 10T399 -20ZM469 144Q542 144 612 198T736 345T819 550Q833 604 838 651T843 742Q843 837 793 896T656 956Q595 956 541 924T443 834T368 703T319 541T301 364Q301 256 345 200T469 144ZM740 1241Q701 1281 656 1336T573 1448T513 1548V1569H724Q739 1520
761 1468T809 1364T863 1266V1241H740Z" />
<glyph unicode="&#xe1;" glyph-name="aacute" horiz-adv-x="1173" d="M399 -20Q312 -20 244 22T136 150T97 363Q97 481 122 592T193 799T305 967T453 1081T631 1122Q705 1122 759 1096T850 1027T908 932H918L980 1102H1133L900 0H744L770 195H762Q718 138 663
89T542 10T399 -20ZM469 144Q542 144 612 198T736 345T819 550Q833 604 838 651T843 742Q843 837 793 896T656 956Q595 956 541 924T443 834T368 703T319 541T301 364Q301 256 345 200T469 144ZM614 1241V1266Q650 1306 692 1358T775 1467T846 1569H1071V1550Q1049
1522 1011 1482T925 1396T831 1311T744 1241H614Z" />
<glyph unicode="&#xe2;" glyph-name="acircumflex" horiz-adv-x="1173" d="M399 -20Q312 -20 244 22T136 150T97 363Q97 481 122 592T193 799T305 967T453 1081T631 1122Q705 1122 759 1096T850 1027T908 932H918L980 1102H1133L900 0H744L770 195H762Q718 138
663 89T542 10T399 -20ZM469 144Q542 144 612 198T736 345T819 550Q833 604 838 651T843 742Q843 837 793 896T656 956Q595 956 541 924T443 834T368 703T319 541T301 364Q301 256 345 200T469 144ZM384 1241L385 1266Q422 1300 478 1354T588 1465T673 1568H878Q898
1517 928 1463T991 1358T1049 1266V1241H922Q897 1264 870 1294T815 1359T761 1429Q700 1375 639 1327T522 1241H384Z" />
<glyph unicode="&#xe3;" glyph-name="atilde" horiz-adv-x="1173" d="M399 -20Q312 -20 244 22T136 150T97 363Q97 481 122 592T193 799T305 967T453 1081T631 1122Q705 1122 759 1096T850 1027T908 932H918L980 1102H1133L900 0H744L770 195H762Q718 138 663
89T542 10T399 -20ZM469 144Q542 144 612 198T736 345T819 550Q833 604 838 651T843 742Q843 837 793 896T656 956Q595 956 541 924T443 834T368 703T319 541T301 364Q301 256 345 200T469 144ZM374 1243Q393 1332 427 1392T509 1481T619 1511Q665 1511 704 1494T777
1455T842 1415T901 1398Q943 1398 968 1424T1018 1513H1138Q1116 1424 1081 1364T999 1274T889 1244Q846 1244 809 1261T738 1301T672 1341T606 1358Q566 1358 541 1330T494 1243H374Z" />
<glyph unicode="&#xe4;" glyph-name="adieresis" horiz-adv-x="1173" d="M399 -20Q312 -20 244 22T136 150T97 363Q97 481 122 592T193 799T305 967T453 1081T631 1122Q705 1122 759 1096T850 1027T908 932H918L980 1102H1133L900 0H744L770 195H762Q718 138 663
89T542 10T399 -20ZM469 144Q542 144 612 198T736 345T819 550Q833 604 838 651T843 742Q843 837 793 896T656 956Q595 956 541 924T443 834T368 703T319 541T301 364Q301 256 345 200T469 144ZM932 1290Q892 1290 866 1312T840 1378Q840 1431 869 1467T956 1503Q998
1503 1021 1481T1045 1418Q1045 1359 1013 1325T932 1290ZM562 1290Q521 1290 495 1312T469 1378Q469 1431 498 1467T583 1503Q612 1503 632 1493T662 1464T673 1418Q673 1359 642 1325T562 1290Z" />
<glyph unicode="&#xe5;" glyph-name="aring" horiz-adv-x="1173" d="M399 -20Q312 -20 244 22T136 150T97 363Q97 481 122 592T193 799T305 967T453 1081T631 1122Q705 1122 759 1096T850 1027T908 932H918L980 1102H1133L900 0H744L770 195H762Q718 138 663 89T542
10T399 -20ZM469 144Q542 144 612 198T736 345T819 550Q833 604 838 651T843 742Q843 837 793 896T656 956Q595 956 541 924T443 834T368 703T319 541T301 364Q301 256 345 200T469 144ZM748 1241Q648 1241 585 1299T522 1461Q522 1564 587 1622T748 1680Q847 1680
912 1622T977 1463Q977 1358 912 1300T748 1241ZM748 1349Q798 1349 829 1379T861 1461Q861 1513 829 1543T748 1574Q701 1574 669 1544T636 1461Q636 1410 665 1380T748 1349Z" />
<glyph unicode="&#xe6;" glyph-name="ae" horiz-adv-x="1710" d="M374 -20Q291 -20 229 24T132 153T97 361Q97 482 121 594T193 802T304 970T448 1082T618 1122Q687 1122 735 1096T817 1027T873 932H883L947 1102H1075L1046 964Q1100 1035 1183 1078T1374 1122Q1496
1122 1577 1054T1659 856Q1659 772 1621 702T1503 580T1303 500T1016 471H970Q969 455 968 437T967 401Q967 283 1026 212T1216 140Q1293 140 1367 164T1515 223V57Q1438 21 1356 1T1182 -20Q1072 -20 992 18T869 138L841 0H710L734 195H726Q677 131 625 83T512
8T374 -20ZM445 144Q498 144 550 174T647 259T727 385T784 542Q799 598 804 646T810 739Q810 837 768 896T647 956Q588 956 536 924T440 835T366 703T318 542T301 365Q301 254 340 199T445 144ZM997 624H1029Q1154 624 1252 647T1407 718T1464 842Q1464 904 1428
934T1335 964Q1263 964 1196 924T1078 807T997 624Z" />
<glyph unicode="&#xe7;" glyph-name="ccedilla" horiz-adv-x="943" d="M506 -20Q386 -20 294 25T150 161T98 390Q98 508 123 617T197 817T316 977T477 1084T676 1122Q754 1122 827 1107T960 1065L902 903Q857 923 801 939T680 956Q594 956 524 911T405 788T328
610T301 398Q301 319 329 262T409 175T533 144Q607 144 671 165T800 216V48Q741 18 668 -1T506 -20ZM302 -492Q270 -492 241 -488T194 -478V-361Q214 -366 238 -369T284 -373Q333 -373 367 -361T419 -326T437 -267Q437 -224 401 -202T296 -173L394 0H520L466 -107Q518
-122 559 -158T601 -269Q601 -332 567 -382T467 -462T302 -492Z" />
<glyph unicode="&#xe8;" glyph-name="egrave" horiz-adv-x="1050" d="M506 -20Q381 -20 290 29T148 171T98 398Q98 533 137 662T250 895T429 1060T667 1122Q827 1122 909 1050T991 856Q991 772 953 702T834 580T633 500T346 471H305Q303 455 302 436T301 400Q301
279 362 210T543 140Q624 140 695 162T848 223V59Q770 23 691 2T506 -20ZM331 624H361Q486 624 584 647T739 719T797 844Q797 898 762 931T655 964Q589 964 525 924T410 807T331 624ZM692 1241Q653 1281 608 1336T525 1448T465 1548V1569H676Q691 1520 713 1468T761
1364T815 1266V1241H692Z" />
<glyph unicode="&#xe9;" glyph-name="eacute" horiz-adv-x="1050" d="M506 -20Q381 -20 290 29T148 171T98 398Q98 533 137 662T250 895T429 1060T667 1122Q827 1122 909 1050T991 856Q991 772 953 702T834 580T633 500T346 471H305Q303 455 302 436T301 400Q301
279 362 210T543 140Q624 140 695 162T848 223V59Q770 23 691 2T506 -20ZM331 624H361Q486 624 584 647T739 719T797 844Q797 898 762 931T655 964Q589 964 525 924T410 807T331 624ZM568 1241V1266Q604 1306 646 1358T729 1467T800 1569H1025V1550Q1003 1522 965
1482T879 1396T785 1311T698 1241H568Z" />
<glyph unicode="&#xea;" glyph-name="ecircumflex" horiz-adv-x="1050" d="M506 -20Q381 -20 290 29T148 171T98 398Q98 533 137 662T250 895T429 1060T667 1122Q827 1122 909 1050T991 856Q991 772 953 702T834 580T633 500T346 471H305Q303 455 302 436T301
400Q301 279 362 210T543 140Q624 140 695 162T848 223V59Q770 23 691 2T506 -20ZM331 624H361Q486 624 584 647T739 719T797 844Q797 898 762 931T655 964Q589 964 525 924T410 807T331 624ZM336 1241L337 1266Q374 1300 430 1354T540 1465T625 1568H830Q850 1517
880 1463T943 1358T1001 1266V1241H874Q849 1264 822 1294T767 1359T713 1429Q652 1375 591 1327T474 1241H336Z" />
<glyph unicode="&#xeb;" glyph-name="edieresis" horiz-adv-x="1050" d="M506 -20Q381 -20 290 29T148 171T98 398Q98 533 137 662T250 895T429 1060T667 1122Q827 1122 909 1050T991 856Q991 772 953 702T834 580T633 500T346 471H305Q303 455 302 436T301 400Q301
279 362 210T543 140Q624 140 695 162T848 223V59Q770 23 691 2T506 -20ZM331 624H361Q486 624 584 647T739 719T797 844Q797 898 762 931T655 964Q589 964 525 924T410 807T331 624ZM1140 1290Q1100 1290 1074 1312T1048 1378Q1048 1431 1077 1467T1164 1503Q1206
1503 1229 1481T1253 1418Q1253 1359 1221 1325T1140 1290ZM770 1290Q729 1290 703 1312T677 1378Q677 1431 706 1467T791 1503Q820 1503 840 1493T870 1464T881 1418Q881 1359 850 1325T770 1290Z" />
<glyph unicode="&#xec;" glyph-name="igrave" horiz-adv-x="540" d="M53 0L287 1102H487L253 0H53ZM676 1241Q637 1281 592 1336T509 1448T449 1548V1569H660Q675 1520 697 1468T745 1364T799 1266V1241H676Z" />
<glyph unicode="&#xed;" glyph-name="iacute" horiz-adv-x="540" d="M53 0L287 1102H487L253 0H53ZM296 1241V1266Q332 1306 374 1358T457 1467T528 1569H753V1550Q731 1522 693 1482T607 1396T513 1311T426 1241H296Z" />
<glyph unicode="&#xee;" glyph-name="icircumflex" horiz-adv-x="540" d="M53 0L287 1102H487L253 0H53ZM66 1241L67 1266Q104 1300 160 1354T270 1465T355 1568H560Q580 1517 610 1463T673 1358T731 1266V1241H604Q579 1264 552 1294T497 1359T443 1429Q382 1375
321 1327T204 1241H66Z" />
<glyph unicode="&#xef;" glyph-name="idieresis" horiz-adv-x="540" d="M53 0L287 1102H487L253 0H53ZM614 1290Q574 1290 548 1312T522 1378Q522 1431 551 1467T638 1503Q680 1503 703 1481T727 1418Q727 1359 695 1325T614 1290ZM244 1290Q203 1290 177 1312T151
1378Q151 1431 180 1467T265 1503Q294 1503 314 1493T344 1464T355 1418Q355 1359 324 1325T244 1290Z" />
<glyph unicode="&#xf0;" glyph-name="eth" horiz-adv-x="1168" d="M488 -20Q366 -20 276 26T136 162T86 383Q86 500 121 606T224 796T387 926T603 974Q719 974 789 926T890 812L897 813Q897 925 867 1030T757 1231L499 1088L435 1202L663 1328Q634 1355 599 1382T523
1434L620 1566Q673 1535 724 1498T820 1417L1072 1558L1137 1443L911 1318Q961 1253 997 1176T1053 1006T1073 800Q1073 679 1054 561T991 338T880 153T715 26T488 -20ZM499 140Q570 140 625 168T721 243T788 348T827 466T840 582Q840 624 828 665T790 741T722
795T618 815Q534 815 472 778T369 677T309 536T289 377Q289 272 339 206T499 140Z" />
<glyph unicode="&#xf1;" glyph-name="ntilde" horiz-adv-x="1194" d="M48 0L283 1105H451L426 895H430Q469 951 522 1004T644 1091T802 1126Q892 1126 955 1092T1052 994T1086 840Q1086 796 1079 749T1064 662L921 0H713L858 682Q867 725 872 756T877 815Q877
883 842 917T738 952Q666 952 592 900T455 743T358 478L256 0H48ZM388 1243Q407 1332 441 1392T523 1481T633 1511Q679 1511 718 1494T791 1455T856 1415T915 1398Q957 1398 982 1424T1032 1513H1152Q1130 1424 1095 1364T1013 1274T903 1244Q860 1244 823 1261T752
1301T686 1341T620 1358Q580 1358 555 1330T508 1243H388Z" />
<glyph unicode="&#xf2;" glyph-name="ograve" horiz-adv-x="1164" d="M508 -17Q382 -17 290 34T148 181T98 406Q98 514 121 617T189 811T303 971T460 1079T659 1118Q787 1118 878 1067T1019 919T1069 690Q1069 585 1047 483T979 291T867 131T711 23T508 -17ZM522
148Q581 148 633 174T728 248T801 365T848 519T865 704Q865 767 845 824T778 917T655 953Q588 953 533 924T434 842T362 720T316 569T300 401Q300 280 357 214T522 148ZM705 1241Q666 1281 621 1336T538 1448T478 1548V1569H689Q704 1520 726 1468T774 1364T828
1266V1241H705Z" />
<glyph unicode="&#xf3;" glyph-name="oacute" horiz-adv-x="1164" d="M508 -17Q382 -17 290 34T148 181T98 406Q98 514 121 617T189 811T303 971T460 1079T659 1118Q787 1118 878 1067T1019 919T1069 690Q1069 585 1047 483T979 291T867 131T711 23T508 -17ZM522
148Q581 148 633 174T728 248T801 365T848 519T865 704Q865 767 845 824T778 917T655 953Q588 953 533 924T434 842T362 720T316 569T300 401Q300 280 357 214T522 148ZM582 1241V1266Q618 1306 660 1358T743 1467T814 1569H1039V1550Q1017 1522 979 1482T893 1396T799
1311T712 1241H582Z" />
<glyph unicode="&#xf4;" glyph-name="ocircumflex" horiz-adv-x="1164" d="M508 -17Q382 -17 290 34T148 181T98 406Q98 514 121 617T189 811T303 971T460 1079T659 1118Q787 1118 878 1067T1019 919T1069 690Q1069 585 1047 483T979 291T867 131T711 23T508 -17ZM522
148Q581 148 633 174T728 248T801 365T848 519T865 704Q865 767 845 824T778 917T655 953Q588 953 533 924T434 842T362 720T316 569T300 401Q300 280 357 214T522 148ZM350 1241L351 1266Q388 1300 444 1354T554 1465T639 1568H844Q864 1517 894 1463T957 1358T1015
1266V1241H888Q863 1264 836 1294T781 1359T727 1429Q666 1375 605 1327T488 1241H350Z" />
<glyph unicode="&#xf5;" glyph-name="otilde" horiz-adv-x="1164" d="M508 -17Q382 -17 290 34T148 181T98 406Q98 514 121 617T189 811T303 971T460 1079T659 1118Q787 1118 878 1067T1019 919T1069 690Q1069 585 1047 483T979 291T867 131T711 23T508 -17ZM522
148Q581 148 633 174T728 248T801 365T848 519T865 704Q865 767 845 824T778 917T655 953Q588 953 533 924T434 842T362 720T316 569T300 401Q300 280 357 214T522 148ZM343 1243Q362 1332 396 1392T478 1481T588 1511Q634 1511 673 1494T746 1455T811 1415T870
1398Q912 1398 937 1424T987 1513H1107Q1085 1424 1050 1364T968 1274T858 1244Q815 1244 778 1261T707 1301T641 1341T575 1358Q535 1358 510 1330T463 1243H343Z" />
<glyph unicode="&#xf6;" glyph-name="odieresis" horiz-adv-x="1164" d="M508 -17Q382 -17 290 34T148 181T98 406Q98 514 121 617T189 811T303 971T460 1079T659 1118Q787 1118 878 1067T1019 919T1069 690Q1069 585 1047 483T979 291T867 131T711 23T508 -17ZM522
148Q581 148 633 174T728 248T801 365T848 519T865 704Q865 767 845 824T778 917T655 953Q588 953 533 924T434 842T362 720T316 569T300 401Q300 280 357 214T522 148ZM1156 1290Q1116 1290 1090 1312T1064 1378Q1064 1431 1093 1467T1180 1503Q1222 1503 1245
1481T1269 1418Q1269 1359 1237 1325T1156 1290ZM786 1290Q745 1290 719 1312T693 1378Q693 1431 722 1467T807 1503Q836 1503 856 1493T886 1464T897 1418Q897 1359 866 1325T786 1290Z" />
<glyph unicode="&#xf7;" glyph-name="divide" horiz-adv-x="1171" d="M135 644V800H1106V644H135ZM620 245Q571 245 538 275T504 372Q504 441 537 469T620 497Q667 497 700 469T734 372Q734 306 701 276T620 245ZM620 946Q571 946 538 976T504 1073Q504 1142 537
1170T620 1198Q667 1198 700 1170T734 1073Q734 1007 701 977T620 946Z" />
<glyph unicode="&#xf8;" glyph-name="oslash" horiz-adv-x="1164" d="M161 -82L50 4L168 147Q134 199 116 263T98 406Q98 514 121 617T190 811T303 971T460 1079T659 1118Q735 1118 796 1101T906 1050L1004 1168L1116 1084L1004 958Q1036 909 1051 841T1066 702Q1066
596 1044 493T978 298T867 135T711 24T510 -17Q439 -17 377 0T267 49L161 -82ZM522 142Q583 142 636 168T732 243T806 357T854 504T872 676Q872 705 869 731T860 774L378 187Q403 166 441 154T522 142ZM308 318L794 911Q772 930 738 943T655 956Q587 956 531 928T432
850T358 733T311 589T293 430Q293 395 297 366T308 318Z" />
<glyph unicode="&#xf9;" glyph-name="ugrave" horiz-adv-x="1194" d="M389 -20Q303 -20 241 13T146 109T113 264Q113 306 119 351T134 446L275 1102H476L330 419Q322 379 318 346T313 288Q313 219 347 182T455 144Q529 144 604 197T743 357T840 624L941 1102H1139L906
0H746L771 211H762Q722 155 669 102T547 15T389 -20ZM748 1241Q709 1281 664 1336T581 1448T521 1548V1569H732Q747 1520 769 1468T817 1364T871 1266V1241H748Z" />
<glyph unicode="&#xfa;" glyph-name="uacute" horiz-adv-x="1194" d="M389 -20Q303 -20 241 13T146 109T113 264Q113 306 119 351T134 446L275 1102H476L330 419Q322 379 318 346T313 288Q313 219 347 182T455 144Q529 144 604 197T743 357T840 624L941 1102H1139L906
0H746L771 211H762Q722 155 669 102T547 15T389 -20ZM624 1241V1266Q660 1306 702 1358T785 1467T856 1569H1081V1550Q1059 1522 1021 1482T935 1396T841 1311T754 1241H624Z" />
<glyph unicode="&#xfb;" glyph-name="ucircumflex" horiz-adv-x="1194" d="M389 -20Q303 -20 241 13T146 109T113 264Q113 306 119 351T134 446L275 1102H476L330 419Q322 379 318 346T313 288Q313 219 347 182T455 144Q529 144 604 197T743 357T840 624L941 1102H1139L906
0H746L771 211H762Q722 155 669 102T547 15T389 -20ZM392 1241L393 1266Q430 1300 486 1354T596 1465T681 1568H886Q906 1517 936 1463T999 1358T1057 1266V1241H930Q905 1264 878 1294T823 1359T769 1429Q708 1375 647 1327T530 1241H392Z" />
<glyph unicode="&#xfc;" glyph-name="udieresis" horiz-adv-x="1194" d="M389 -20Q303 -20 241 13T146 109T113 264Q113 306 119 351T134 446L275 1102H476L330 419Q322 379 318 346T313 288Q313 219 347 182T455 144Q529 144 604 197T743 357T840 624L941 1102H1139L906
0H746L771 211H762Q722 155 669 102T547 15T389 -20ZM941 1290Q901 1290 875 1312T849 1378Q849 1431 878 1467T965 1503Q1007 1503 1030 1481T1054 1418Q1054 1359 1022 1325T941 1290ZM571 1290Q530 1290 504 1312T478 1378Q478 1431 507 1467T592 1503Q621 1503
641 1493T671 1464T682 1418Q682 1359 651 1325T571 1290Z" />
<glyph unicode="&#xfd;" glyph-name="yacute" horiz-adv-x="973" d="M-42 -493Q-92 -493 -123 -487T-183 -472V-311Q-156 -317 -125 -322T-56 -328Q29 -328 88 -275T202 -125L266 -10L99 1102H299L370 550Q379 489 384 419T391 286T394 181H400Q414 214 439 271T492
392T547 504L859 1102H1074L377 -182Q322 -286 261 -355T127 -458T-42 -493ZM476 1241V1266Q512 1306 554 1358T637 1467T708 1569H933V1550Q911 1522 873 1482T787 1396T693 1311T606 1241H476Z" />
<glyph unicode="&#xfe;" glyph-name="thorn" horiz-adv-x="1192" d="M-50 -490L383 1556H583L506 1198Q489 1118 469 1041T430 905H438Q485 965 538 1014T654 1091T788 1120Q926 1120 1009 1023T1093 736Q1093 624 1071 515T1005 309T898 139T751 23T566 -20Q492
-20 437 6T343 75T282 169H273Q270 122 261 60T241 -52L148 -490H-50ZM539 144Q603 144 657 177T754 269T827 402T873 563T889 736Q889 845 845 900T715 956Q642 956 572 901T445 752T361 543Q352 498 347 453T341 362Q341 264 389 204T539 144Z" />
<glyph unicode="&#xff;" glyph-name="ydieresis" horiz-adv-x="973" d="M-42 -493Q-92 -493 -123 -487T-183 -472V-311Q-156 -317 -125 -322T-56 -328Q29 -328 88 -275T202 -125L266 -10L99 1102H299L370 550Q379 489 384 419T391 286T394 181H400Q414 214 439
271T492 392T547 504L859 1102H1074L377 -182Q322 -286 261 -355T127 -458T-42 -493ZM1051 1290Q1011 1290 985 1312T959 1378Q959 1431 988 1467T1075 1503Q1117 1503 1140 1481T1164 1418Q1164 1359 1132 1325T1051 1290ZM681 1290Q640 1290 614 1312T588 1378Q588
1431 617 1467T702 1503Q731 1503 751 1493T781 1464T792 1418Q792 1359 761 1325T681 1290Z" />
<glyph unicode="&#x2013;" glyph-name="endash" horiz-adv-x="983" d="M52 465L90 637H921L886 465H52Z" />
<glyph unicode="&#x2014;" glyph-name="emdash" horiz-adv-x="1965" d="M52 465L90 637H1903L1867 465H52Z" />
<glyph unicode="&#x2018;" glyph-name="quoteleft" horiz-adv-x="368" d="M129 961L122 983Q155 1056 198 1138T289 1304T386 1462H538Q511 1402 483 1337T429 1205T378 1077T335 961H129Z" />
<glyph unicode="&#x2019;" glyph-name="quoteright" horiz-adv-x="368" d="M119 961Q155 1041 193 1130T265 1305T322 1462H528L536 1440Q504 1367 461 1285T368 1119T271 961H119Z" />
<glyph unicode="&#x201a;" glyph-name="quotesinglbase" horiz-adv-x="508" d="M-99 -264Q-63 -184 -26 -95T44 80T103 238H310L318 215Q285 143 242 60T149 -106T52 -264H-99Z" />
<glyph unicode="&#x201c;" glyph-name="quotedblleft" horiz-adv-x="754" d="M514 961L506 983Q538 1056 582 1138T676 1304T773 1462H923Q887 1382 850 1293T779 1118T720 961H514ZM129 961L122 983Q155 1056 198 1138T289 1304T386 1462H538Q511 1402 483 1337T429
1205T378 1077T335 961H129Z" />
<glyph unicode="&#x201d;" glyph-name="quotedblright" horiz-adv-x="754" d="M504 961Q541 1041 578 1130T648 1305T705 1462H913L921 1440Q890 1367 846 1285T753 1119T654 961H504ZM119 961Q155 1041 193 1130T265 1305T322 1462H528L536 1440Q504 1367 461
1285T368 1119T271 961H119Z" />
<glyph unicode="&#x201e;" glyph-name="quotedblbase" horiz-adv-x="893" d="M285 -264Q321 -184 358 -95T429 80T488 238H694L702 215Q670 143 627 60T534 -106T438 -264H285ZM-99 -264Q-63 -184 -26 -95T44 80T103 238H310L318 215Q285 143 242 60T149 -106T52
-264H-99Z" />
<glyph unicode="&#x2022;" glyph-name="bullet" horiz-adv-x="770" d="M425 488Q326 488 261 548T195 744Q195 838 225 895T309 980T428 1007Q493 1007 545 982T628 900T659 751Q659 660 628 602T544 516T425 488Z" />
<glyph unicode="&#x2039;" glyph-name="guilsinglleft" horiz-adv-x="594" d="M300 111L79 550L80 577L473 982L582 882L287 545L448 174L300 111Z" />
<glyph unicode="&#x203a;" glyph-name="guilsinglright" horiz-adv-x="594" d="M122 111L12 212L308 548L146 919L294 982L515 543L514 519L122 111Z" />
</font>
</defs>
</svg>
