<?xml version="1.0" standalone="no"?>
<!DOCTYPE svg PUBLIC "-//W3C//DTD SVG 1.1//EN" "http://www.w3.org/Graphics/SVG/1.1/DTD/svg11.dtd">
<svg xmlns="http://www.w3.org/2000/svg">
<defs >
<font id="FiraSans" horiz-adv-x="573" ><font-face
    font-family="Fira Sans Black"
    units-per-em="1000"
    panose-1="2 11 10 3 5 0 0 2 0 4"
    ascent="935"
    descent="-265"
    alphabetic="0" />
<glyph unicode=" " glyph-name="space" horiz-adv-x="208" />
<glyph unicode="!" glyph-name="exclam" horiz-adv-x="228" d="M38 270L72 696H276L190 270H38ZM42 -20T17 6T-8 73Q-8 119 25 152T107 186Q146 186 171 161T196 95Q196 48 163 14T82 -20Q42 -20 17 6Z" />
<glyph unicode="&quot;" glyph-name="quotedbl" horiz-adv-x="452" d="M77 406L96 696H262L201 406H77ZM291 406L310 696H476L415 406H291Z" />
<glyph unicode="#" glyph-name="numbersign" horiz-adv-x="568" d="M578 436H513L465 257H516L498 131H431L396 0H236L271 131H205L170 0H10L45 131H-5L13 257H79L127 436H75L92 562H160L192 680H353L321 562H386L418 680H579L547 562H595L578 436ZM305 257L353
436H287L239 257H305Z" />
<glyph unicode="$" glyph-name="dollar" horiz-adv-x="548" d="M527 364T527 227Q527 176 505 129T433 46T309 -2L286 -165H153L176 -6Q111 2 60 29T-24 94L85 197Q117 165 156 149T234 132Q276 132 300 151T324 198Q324 225 306 241T240 276Q148 310 108 357T68
468Q68 547 124 607T283 685L303 834H436L414 684Q509 667 578 598L482 499Q414 551 353 551Q314 551 293 537T272 499Q272 476 291 461T366 424Q527 364 527 227Z" />
<glyph unicode="%" glyph-name="percent" horiz-adv-x="867" d="M668 725L118 28L222 -45L774 652L668 725ZM145 324T100 367T54 482Q54 533 77 582T148 664T264 696Q335 696 380 653T425 538Q425 487 402 438T332 356T216 324Q145 324 100 367ZM264 438T279 466T295
534Q295 582 252 582Q213 582 199 552T184 486Q184 438 228 438Q264 438 279 466ZM553 -20T508 23T462 138Q462 189 485 238T556 320T672 352Q743 352 788 309T833 194Q833 143 810 94T740 12T624 -20Q553 -20 508 23ZM672 94T687 122T703 190Q703 238 660 238Q621
238 607 208T592 142Q592 94 636 94Q672 94 687 122Z" />
<glyph unicode="&amp;" glyph-name="ampersand" horiz-adv-x="775" d="M435 716T484 696T558 639T584 558Q584 506 551 460T433 357L525 255Q555 304 581 371L732 322Q687 236 617 154L715 52L548 -20L491 44Q439 11 386 -4T270 -20Q200 -20 147 3T66 66T37 159Q37
229 73 278T194 375Q154 421 139 454T123 529Q123 572 146 614T224 686T366 716Q435 716 484 696ZM336 594T321 578T305 534Q305 516 312 501T339 461Q376 487 389 508T403 554Q403 573 392 583T361 594Q336 594 321 578ZM267 245T256 224T245 175Q245 147 262
132T314 116Q356 116 405 136L290 265Q267 245 256 224Z" />
<glyph unicode="&apos;" glyph-name="quotesingle" horiz-adv-x="238" d="M77 406L96 696H262L201 406H77Z" />
<glyph unicode="(" glyph-name="parenleft" horiz-adv-x="313" d="M394 781Q295 663 246 518T197 217Q197 129 214 55T271 -88L136 -166Q94 -93 68 -38T24 87T6 238Q6 366 37 471T126 668T276 868L394 781Z" />
<glyph unicode=")" glyph-name="parenright" horiz-adv-x="313" d="M242 794T268 738T312 612T330 459Q330 333 299 228T209 29T59 -168L-58 -81Q41 38 89 181T138 480Q138 570 121 644T64 788L200 866Q242 794 268 738Z" />
<glyph unicode="*" glyph-name="asterisk" horiz-adv-x="443" d="M480 520L345 502L430 409L287 312L245 434L172 311L55 408L163 502L33 519L102 670L213 608L204 744H374L328 609L451 673L480 520Z" />
<glyph unicode="+" glyph-name="plus" horiz-adv-x="536" d="M388 567L366 407H518L497 257H345L322 97H166L189 257H37L58 407H210L231 567H388Z" />
<glyph unicode="," glyph-name="comma" horiz-adv-x="240" d="M146 186T171 161T196 97Q196 69 185 43T139 -45L58 -184H-43L28 0Q-7 24 -7 69Q-7 118 26 152T107 186Q146 186 171 161Z" />
<glyph unicode="-" glyph-name="hyphen" horiz-adv-x="399" d="M29 238L49 388H383L363 238H29Z" />
<glyph unicode="." glyph-name="period" horiz-adv-x="240" d="M42 -20T17 6T-8 73Q-8 119 25 152T107 186Q146 186 171 161T196 95Q196 48 163 14T82 -20Q42 -20 17 6Z" />
<glyph unicode="/" glyph-name="slash" horiz-adv-x="508" d="M362 822L528 782L171 -117L4 -77L362 822Z" />
<glyph unicode="0" glyph-name="zero" horiz-adv-x="590" d="M234 696T162 626T60 454T29 248Q29 119 88 50T259 -20Q376 -20 448 51T550 226T581 432Q581 560 522 628T351 696Q234 696 162 626ZM364 553T376 536T389 474Q389 401 377 320T338 181T271 124Q247
124 235 143T222 207Q222 281 234 361T272 497T340 553Q364 553 376 536Z" />
<glyph unicode="1" glyph-name="one" horiz-adv-x="470" d="M465 680L370 0H182L250 483L101 398L35 536L291 680H465Z" />
<glyph unicode="2" glyph-name="two" horiz-adv-x="518" d="M365 696T416 672T493 606T519 512Q519 462 500 415T417 302T225 147L483 148L442 0H-15L2 137Q144 258 208 319T295 416T317 489Q317 516 300 532T254 548Q223 548 196 532T133 481L31 579Q84 636 147
666T291 696Q365 696 416 672Z" />
<glyph unicode="3" glyph-name="three" horiz-adv-x="520" d="M403 696T459 651T515 533Q515 476 480 429T360 358Q418 352 455 317T492 219Q492 165 462 110T364 18T192 -20Q111 -20 54 9T-40 91L77 187Q103 156 130 142T195 128Q238 128 266 154T295 227Q295
259 275 274T212 289H152L191 421H231Q282 421 303 445T324 501Q324 527 307 540T259 553Q190 553 124 495L41 604Q99 650 161 673T299 696Q403 696 459 651Z" />
<glyph unicode="4" glyph-name="four" d="M560 280L540 134H472L453 0H263L281 134H0L18 263L257 701L418 641L230 280H303L346 428H513L492 280H560Z" />
<glyph unicode="5" glyph-name="five" horiz-adv-x="545" d="M504 542H274L258 433Q304 454 355 454Q429 454 474 405T519 265Q519 200 487 135T384 25T205 -20Q59 -20 -22 90L94 188Q143 126 211 126Q260 126 290 159T321 252Q321 323 258 323Q238 323 220 318T180
299H52L105 680H544L504 542Z" />
<glyph unicode="6" glyph-name="six" horiz-adv-x="572" d="M466 464T511 415T556 278Q556 215 527 146T434 29T269 -20Q147 -20 87 46T26 230Q26 353 72 460T203 631T399 696Q448 696 487 683T554 647L469 536Q434 560 390 560Q343 560 308 525T253 420Q285 442
320 453T388 464Q466 464 511 415ZM322 118T341 166T361 271Q361 305 350 319T315 333Q276 333 235 301Q226 237 226 197Q226 154 238 136T277 118Q322 118 341 166Z" />
<glyph unicode="7" glyph-name="seven" horiz-adv-x="470" d="M519 680L501 550L183 -20L12 40L295 534H41L61 680H519Z" />
<glyph unicode="8" glyph-name="eight" horiz-adv-x="587" d="M559 302T559 205Q559 144 523 93T418 11T253 -20Q174 -20 118 5T34 72T5 168Q5 221 41 269T153 348Q77 402 77 484Q77 534 105 583T195 664T349 696Q455 696 517 652T580 533Q580 486 550 442T453
363Q559 302 559 205ZM299 567T282 545T264 493Q264 471 274 455T309 425L330 416Q392 459 392 518Q392 541 378 554T339 567Q299 567 282 545ZM318 118T341 143T365 206Q365 230 350 246T300 278L265 291Q230 270 216 241T201 183Q201 153 220 136T273 118Q318
118 341 143Z" />
<glyph unicode="9" glyph-name="nine" horiz-adv-x="570" d="M450 696T514 636T578 477Q578 367 533 264T373 79T60 -32L37 105Q125 123 181 144T274 198T338 279Q308 253 277 241T205 229Q158 229 121 251T62 316T40 416Q40 482 71 546T168 653T333 696Q450 696
514 636ZM235 392T248 378T284 363Q306 363 329 374T371 410Q379 463 379 491Q379 528 366 544T323 560Q276 560 256 519T235 428Q235 392 248 378Z" />
<glyph unicode=":" glyph-name="colon" horiz-adv-x="240" d="M42 -20T17 6T-8 73Q-8 119 25 152T107 186Q146 186 171 161T196 95Q196 48 163 14T82 -20Q42 -20 17 6ZM88 312T63 338T38 405Q38 451 71 484T153 518Q192 518 217 493T242 427Q242 380 209 346T128
312Q88 312 63 338Z" />
<glyph unicode=";" glyph-name="semicolon" horiz-adv-x="242" d="M148 186T173 161T198 97Q198 69 187 43T141 -45L60 -184H-41L30 0Q-5 24 -5 69Q-5 118 28 152T109 186Q148 186 173 161ZM90 312T65 338T40 405Q40 451 73 484T155 518Q194 518 219 493T244 427Q244
380 211 346T130 312Q90 312 65 338Z" />
<glyph unicode="&lt;" glyph-name="less" horiz-adv-x="520" d="M481 591L528 449L201 333L488 215L409 75L22 249L45 416L481 591Z" />
<glyph unicode="=" glyph-name="equal" horiz-adv-x="518" d="M52 367L73 517H515L494 367H52ZM277 403L298 553H740L719 403H277Z" />
<glyph unicode="&gt;" glyph-name="greater" horiz-adv-x="518" d="M128 591L515 416L491 249L56 75L12 225L336 335L51 459L128 591Z" />
<glyph unicode="?" glyph-name="question" horiz-adv-x="483" d="M411 716T465 671T519 555Q519 504 500 470T453 415T383 372Q339 348 319 330T299 284Q299 276 301 266L130 241Q124 265 124 289Q124 336 141 368T183 418T244 458Q279 478 295 493T312 530Q312
562 271 562Q219 562 158 507L51 605Q159 716 309 716Q411 716 465 671ZM157 -20T132 6T107 73Q107 119 140 152T222 186Q261 186 286 161T311 95Q311 48 278 14T197 -20Q157 -20 132 6Z" />
<glyph unicode="@" glyph-name="at" horiz-adv-x="1008" d="M698 716T790 668T932 536T981 349Q981 266 952 186T864 53T726 1Q671 1 633 29T586 100Q533 6 435 6Q357 6 316 53T275 179Q275 252 302 327T391 456T553 509Q595 509 643 496T728 460L689 161Q688
156 688 148Q688 116 716 116Q744 116 766 151T801 241T813 350Q813 462 749 519T556 577Q427 577 348 517T234 367T200 182Q200 57 273 -14T487 -86Q527 -86 579 -76T671 -51L699 -184Q651 -203 586 -215T470 -227Q334 -227 234 -175T81 -31T28 182Q28 303 87
426T270 633T572 716Q698 716 790 668ZM504 125T523 154L556 384Q545 389 530 389Q485 389 465 322T445 175Q445 125 477 125Q504 125 523 154Z" />
<glyph unicode="A" glyph-name="A" horiz-adv-x="589" d="M362 0L355 135H192L148 0H-63L233 696H475L576 0H362ZM238 279H347L331 567L238 279Z" />
<glyph unicode="B" glyph-name="B" horiz-adv-x="610" d="M515 356T552 323T589 221Q589 121 509 61T246 0H6L103 696H314Q455 696 529 659T604 535Q604 465 561 425T453 368Q515 356 552 323ZM358 427T376 450T395 509Q395 533 377 544T315 555H284L266 427H301Q358
427 376 450ZM333 145T357 169T382 239Q382 297 297 297H248L227 145H266Q333 145 357 169Z" />
<glyph unicode="C" glyph-name="C" horiz-adv-x="571" d="M537 716T613 626L506 523Q481 545 455 556T397 568Q338 568 302 520T250 403T234 274Q234 135 337 135Q370 135 400 150T469 193L545 76Q497 33 436 7T301 -20Q218 -20 156 13T60 112T25 270Q25 377 63
479T184 648T395 716Q537 716 613 626Z" />
<glyph unicode="D" glyph-name="D" horiz-adv-x="644" d="M466 696T554 638T642 432Q642 239 548 120T237 0H6L103 696H320Q466 696 554 638ZM285 551L228 145H267Q361 145 397 230T434 430Q434 498 408 524T327 551H285Z" />
<glyph unicode="E" glyph-name="E" horiz-adv-x="510" d="M552 696L511 553H285L267 423H464L446 284H248L228 144H470L450 0H6L103 696H552Z" />
<glyph unicode="F" glyph-name="F" horiz-adv-x="475" d="M537 696L496 553H285L264 401H450L430 258H244L208 0H6L103 696H537Z" />
<glyph unicode="G" glyph-name="G" horiz-adv-x="640" d="M499 716T557 690T654 622L544 523Q512 549 485 560T421 572Q317 572 274 474T231 243Q231 178 252 152T319 126Q356 126 394 142L412 270H343L345 409H626L578 58Q519 21 447 1T310 -20Q24 -20 24 259Q24
374 65 478T196 649T425 716Q499 716 557 690Z" />
<glyph unicode="H" glyph-name="H" horiz-adv-x="645" d="M207 0H5L103 696H305L269 439H423L459 696H661L564 0H362L400 281H247L207 0Z" />
<glyph unicode="I" glyph-name="I" horiz-adv-x="289" d="M305 696L208 0H6L103 696H305Z" />
<glyph unicode="J" glyph-name="J" horiz-adv-x="317" d="M254 110Q241 19 199 -40T99 -132T-32 -189L-68 -44Q-24 -28 0 -5T35 46T52 119L133 696H335L254 110Z" />
<glyph unicode="K" glyph-name="K" horiz-adv-x="647" d="M6 0L103 696H305L208 0H6ZM402 0L266 371L499 696H709L471 377L630 0H402Z" />
<glyph unicode="L" glyph-name="L" horiz-adv-x="514" d="M305 696L230 158H487L445 0H6L103 696H305Z" />
<glyph unicode="M" glyph-name="M" horiz-adv-x="777" d="M724 0H525L554 248Q569 379 602 552L456 70H262L239 550Q238 449 233 384T215 247L176 0H-23L123 696H367L380 226L516 696H772L724 0Z" />
<glyph unicode="N" glyph-name="N" horiz-adv-x="640" d="M559 0H305L220 527L221 500Q225 438 225 399Q225 311 211 205L182 0H6L103 696H353L442 169Q436 261 436 301Q436 382 450 484L480 696H656L559 0Z" />
<glyph unicode="O" glyph-name="O" horiz-adv-x="678" d="M534 716T605 641T676 429Q676 322 640 220T520 49T301 -20Q168 -20 97 56T25 268Q25 375 61 477T181 647T400 716Q534 716 605 641ZM325 570T292 515T246 388T233 251Q233 184 253 155T317 126Q376 126
409 180T455 308T468 447Q468 513 448 541T384 570Q325 570 292 515Z" />
<glyph unicode="P" glyph-name="P" horiz-adv-x="600" d="M476 696T546 645T617 495Q617 427 585 364T483 259T306 217H238L208 0H6L103 696H349Q476 696 546 645ZM361 362T385 400T409 483Q409 553 328 553H285L258 362H304Q361 362 385 400Z" />
<glyph unicode="Q" glyph-name="Q" horiz-adv-x="678" d="M554 43T599 28T682 -20L543 -176Q500 -107 444 -64T301 -20Q168 -20 97 56T25 268Q25 375 61 477T181 647T400 716Q534 716 605 641T676 429Q676 311 630 206T479 46Q554 43 599 28ZM233 183T253 155T317
126Q402 126 435 230T468 452Q468 514 448 542T384 570Q325 570 292 515T246 387T233 246Q233 183 253 155Z" />
<glyph unicode="R" glyph-name="R" horiz-adv-x="612" d="M618 432T588 379T470 281L595 0H375L283 248H242L208 0H6L103 696H354Q482 696 550 644T618 504Q618 432 588 379ZM262 386H314Q363 386 386 417T410 491Q410 555 329 555H285L262 386Z" />
<glyph unicode="S" glyph-name="S" horiz-adv-x="576" d="M500 716T594 620L492 515Q431 570 354 570Q314 570 293 555T271 514Q271 497 280 486T312 465T380 440Q471 409 513 361T556 238Q556 172 525 114T424 18T244 -20Q155 -20 88 9T-25 86L88 201Q155 134
249 134Q294 134 318 151T342 200Q342 228 321 247T244 285Q144 318 101 367T58 486Q58 547 89 599T185 683T346 716Q500 716 594 620Z" />
<glyph unicode="T" glyph-name="T" horiz-adv-x="542" d="M608 696L566 542H411L335 0H133L209 542H43L64 696H608Z" />
<glyph unicode="U" glyph-name="U" horiz-adv-x="632" d="M595 235Q585 162 546 105T438 14T278 -20Q152 -20 89 36T26 190Q26 213 29 237L93 696H295L231 241Q228 219 228 201Q228 163 243 146T294 128Q338 128 361 156T393 243L457 696H659L595 235Z" />
<glyph unicode="V" glyph-name="V" horiz-adv-x="567" d="M652 696L382 0H122L35 696H246L273 143L443 696H652Z" />
<glyph unicode="W" glyph-name="W" horiz-adv-x="847" d="M905 696L709 0H446L455 500L317 0H61L62 696H262L229 149L378 696H590L574 149L709 696H905Z" />
<glyph unicode="X" glyph-name="X" horiz-adv-x="594" d="M649 696L428 375L566 0H350L290 249L168 0H-48L186 369L62 696H277L322 486L434 696H649Z" />
<glyph unicode="Y" glyph-name="Y" horiz-adv-x="608" d="M683 696L404 257L368 0H166L202 256L45 696H262L325 412L467 696H683Z" />
<glyph unicode="Z" glyph-name="Z" horiz-adv-x="545" d="M-28 0L-8 151L326 540H76L97 696H582L561 543L232 161H516L474 0H-28Z" />
<glyph unicode="[" glyph-name="bracketleft" horiz-adv-x="313" d="M385 827L365 684H255L161 15H271L251 -127H-44L91 827H385Z" />
<glyph unicode="\" glyph-name="backslash" horiz-adv-x="508" d="M300 822L408 -77L231 -117L124 782L300 822Z" />
<glyph unicode="]" glyph-name="bracketright" horiz-adv-x="313" d="M381 827L247 -127H-48L-27 16H83L177 685H67L87 827H381Z" />
<glyph unicode="^" glyph-name="asciicircum" horiz-adv-x="558" d="M449 847L590 527H405L340 705L231 527H40L271 847H449Z" />
<glyph unicode="_" glyph-name="underscore" horiz-adv-x="508" d="M-60 -188L-39 -38H461L440 -188H-60Z" />
<glyph unicode="`" glyph-name="grave" horiz-adv-x="357" d="M173 856L385 709L332 616L93 712L173 856Z" />
<glyph unicode="a" glyph-name="a" horiz-adv-x="574" d="M389 554T451 539T566 491L520 172Q518 152 518 147Q518 133 523 125T542 110L486 -16Q436 -13 398 9T345 72Q316 29 278 5T186 -20Q102 -20 57 38T11 197Q11 283 43 364T147 500T330 554Q389 554 451
539ZM264 418T237 351T210 198Q210 153 221 138T253 122Q295 122 330 182L364 412Q342 418 322 418Q264 418 237 351Z" />
<glyph unicode="b" glyph-name="b" horiz-adv-x="583" d="M489 554T530 501T571 347Q571 199 499 90T244 -20Q120 -20 7 30L107 744L303 764L265 493Q291 521 330 537T407 554Q489 554 530 501ZM283 412T247 359L215 131Q241 121 266 121Q320 121 346 189T372
338Q372 381 360 396T326 412Q283 412 247 359Z" />
<glyph unicode="c" glyph-name="c" horiz-adv-x="469" d="M381 554T427 535T507 480L414 369Q375 405 328 405Q266 405 241 347T215 212Q215 167 233 150T284 133Q307 133 328 141T379 168L449 44Q360 -20 256 -20Q141 -20 77 44T12 217Q12 293 45 371T149 501T327
554Q381 554 427 535Z" />
<glyph unicode="d" glyph-name="d" horiz-adv-x="585" d="M611 744L507 0H334L335 69Q270 -20 178 -20Q95 -20 53 36T11 197Q11 278 39 361T126 499T271 554Q306 554 335 543T384 511L419 764L611 744ZM260 413T236 345T211 199Q211 154 221 138T251 122Q290 122
341 205L367 391Q345 413 315 413Q260 413 236 345Z" />
<glyph unicode="e" glyph-name="e" horiz-adv-x="542" d="M545 300T448 252T206 191Q213 120 287 120Q319 120 349 132T419 169L486 56Q382 -20 261 -20Q137 -20 75 42T12 211Q12 291 44 370T148 501T331 554Q432 554 488 512T545 401Q545 300 448 252ZM293 307T322
335T351 392Q351 429 312 429Q273 429 249 394T214 302Q293 307 322 335Z" />
<glyph unicode="f" glyph-name="f" horiz-adv-x="357" d="M340 622T323 606T301 554L298 534H420L380 400H279L234 76Q216 -54 145 -122T-44 -227L-91 -86Q-30 -65 0 -31T39 66L85 400H15L33 534H104L108 566Q120 653 182 708T350 764Q400 764 441 751T512 717L446
602Q411 622 369 622Q340 622 323 606Z" />
<glyph unicode="g" glyph-name="g" horiz-adv-x="575" d="M394 554T456 539T571 491L510 58Q496 -43 462 -105T366 -197T207 -227Q157 -227 100 -210T-3 -164L60 -40Q139 -82 206 -82Q251 -82 279 -61T317 21L324 63Q268 0 189 0Q103 0 58 57T12 211Q12 290 44
368T150 500T335 554Q394 554 456 539ZM286 418T260 386T223 307T211 218Q211 144 257 144Q298 144 337 202L369 412Q346 418 328 418Q286 418 260 386Z" />
<glyph unicode="h" glyph-name="h" horiz-adv-x="559" d="M481 554T512 521T543 428Q543 405 541 393L486 0H292L340 341Q342 359 342 364Q342 393 324 393Q290 393 236 278L197 0H3L107 744L303 764L260 451Q286 497 331 525T426 554Q481 554 512 521Z" />
<glyph unicode="i" glyph-name="i" horiz-adv-x="276" d="M272 534L198 0H4L78 534H272ZM145 617T119 643T92 710Q92 761 127 795T215 829Q259 829 285 803T312 736Q312 685 277 651T189 617Q145 617 119 643Z" />
<glyph unicode="j" glyph-name="j" horiz-adv-x="274" d="M-117 -88Q-57 -65 -27 -31T12 66L77 534H271L207 76Q189 -54 118 -122T-71 -227L-117 -88ZM144 617T118 643T91 710Q91 761 126 795T214 829Q258 829 284 803T311 736Q311 685 276 651T188 617Q144 617 118 643Z" />
<glyph unicode="k" glyph-name="k" horiz-adv-x="579" d="M264 478Q304 518 346 536T437 554Q508 554 548 518T589 423Q589 300 456 238L542 0H330L252 256Q330 283 361 315T393 385Q393 421 355 421Q303 421 244 337L198 0H3L107 744L304 764L264 478Z" />
<glyph unicode="l" glyph-name="l" horiz-adv-x="288" d="M215 167Q214 163 214 157Q214 135 234 135Q240 135 254 139L272 1Q250 -9 219 -14T156 -20Q89 -20 53 14T16 114Q16 133 19 152L102 744L298 764L215 167Z" />
<glyph unicode="m" glyph-name="m" horiz-adv-x="821" d="M742 554T773 521T805 428Q805 405 803 393L748 0H554L603 341L605 365Q605 393 588 393Q553 393 513 286L473 0H279L327 341Q329 359 329 364Q329 393 311 393Q295 393 275 364T238 281L198 0H4L78 534H247L248
456Q277 502 320 528T410 554Q458 554 488 531T527 463Q558 505 600 529T686 554Q742 554 773 521Z" />
<glyph unicode="n" glyph-name="n" horiz-adv-x="560" d="M482 554T513 521T544 428Q544 405 542 393L487 0H293L341 341Q343 359 343 364Q343 393 325 393Q307 393 286 365T238 278L198 0H4L78 534H247L248 446Q280 495 328 524T427 554Q482 554 513 521Z" />
<glyph unicode="o" glyph-name="o" horiz-adv-x="572" d="M137 -20T75 41T13 211Q13 298 43 376T143 504T323 554Q433 554 495 493T558 325Q558 238 528 160T428 31T247 -20Q137 -20 75 41ZM320 122T340 190T360 338Q360 377 347 394T307 412Q251 412 231 346T211
201Q211 159 223 141T263 122Q320 122 340 190Z" />
<glyph unicode="p" glyph-name="p" horiz-adv-x="583" d="M78 534H251L252 479Q289 518 329 536T406 554Q489 554 530 501T572 347Q572 260 544 176T453 36T289 -20Q231 -20 196 -6L166 -207L-28 -227L78 534ZM321 121T347 189T373 338Q373 381 361 396T327 412Q284
412 248 360L216 131Q242 121 267 121Q321 121 347 189Z" />
<glyph unicode="q" glyph-name="q" horiz-adv-x="574" d="M314 36Q302 17 266 -1T185 -20Q101 -20 56 38T11 197Q11 287 44 368T149 502T333 554Q392 554 454 539T569 491L472 -207L277 -227L314 36ZM298 122T333 182L367 412Q345 418 325 418Q267 418 239 350T210
198Q210 153 222 138T256 122Q298 122 333 182Z" />
<glyph unicode="r" glyph-name="r" horiz-adv-x="399" d="M424 551T449 542L394 351Q367 359 348 359Q304 359 278 324T230 225L198 0H4L78 534H247L248 439Q274 493 313 522T396 551Q424 551 449 542Z" />
<glyph unicode="s" glyph-name="s" horiz-adv-x="481" d="M335 554T389 535T482 484L399 380Q371 397 339 407T277 417Q227 417 227 390Q227 380 234 374T265 359T327 337Q459 293 459 174Q459 125 436 82T357 9T209 -20Q138 -20 74 6T-27 74L67 173Q130 117 209
117Q268 117 268 150Q268 162 261 169T235 184T167 209Q100 233 68 271T35 370Q35 422 63 464T146 530T275 554Q335 554 389 535Z" />
<glyph unicode="t" glyph-name="t" horiz-adv-x="389" d="M296 135T325 148L373 22Q339 2 294 -9T211 -20Q130 -20 88 23T45 148Q45 162 49 198L78 400H15L33 534H105L137 649L309 669L290 534H410L370 400H272L244 198Q242 180 242 174Q242 153 250 144T274 135Q296
135 325 148Z" />
<glyph unicode="u" glyph-name="u" horiz-adv-x="554" d="M80 -20T48 15T16 112Q16 130 19 151L73 534H267L219 189Q217 175 217 170Q217 138 242 138Q256 138 274 154T309 197L356 534H550L476 0H307L309 67Q275 26 233 3T144 -20Q80 -20 48 15Z" />
<glyph unicode="v" glyph-name="v" horiz-adv-x="514" d="M568 534L341 0H108L22 534H230L245 143L366 534H568Z" />
<glyph unicode="w" glyph-name="w" horiz-adv-x="756" d="M797 534L620 0H400L393 358L289 0H66L35 534H231L209 151L331 534H512L514 151L611 534H797Z" />
<glyph unicode="x" glyph-name="x" horiz-adv-x="518" d="M545 534L379 282L499 0H290L246 178L155 0H-57L141 283L30 534H241L270 377L338 534H545Z" />
<glyph unicode="y" glyph-name="y" horiz-adv-x="520" d="M345 0Q250 -220 -17 -228L-21 -93Q56 -86 96 -66T165 0H97L22 534H224L235 122L371 534H574L345 0Z" />
<glyph unicode="z" glyph-name="z" horiz-adv-x="460" d="M482 534L464 397L229 146H435L398 0H-34L-16 138L222 390H40L60 534H482Z" />
<glyph unicode="{" glyph-name="braceleft" horiz-adv-x="313" d="M363 708Q324 708 311 696T292 653L271 499Q261 429 228 396T132 348Q182 340 207 315T233 237Q233 220 230 199L208 45Q206 31 206 26Q206 7 217 0T261 -8L245 -142Q126 -142 75 -107T23 -1Q23
21 25 33L46 186Q49 207 49 222Q49 247 37 258T-4 269L19 431Q55 431 71 450T93 516L114 669Q123 729 147 766T226 822T381 842L363 708Z" />
<glyph unicode="|" glyph-name="bar" horiz-adv-x="348" d="M341 812L213 -107H31L159 812H341Z" />
<glyph unicode="}" glyph-name="braceright" horiz-adv-x="314" d="M-26 -8Q13 -8 26 4T45 47L66 201Q76 271 109 304T205 352Q155 360 130 385T104 463Q104 480 107 501L129 655Q131 669 131 674Q131 693 120 700T76 708L92 842Q211 842 262 807T314 701Q314
679 312 667L291 514Q288 493 288 478Q288 453 300 442T341 431L318 269Q282 269 266 250T244 184L223 31Q214 -29 190 -66T111 -122T-44 -142L-26 -8Z" />
<glyph unicode="~" glyph-name="asciitilde" horiz-adv-x="518" d="M300 221T277 230T227 258Q208 270 198 275T172 281Q147 281 133 268T100 225L6 282Q46 348 91 387T197 426Q234 426 256 417T306 389Q323 377 334 372T360 366Q385 366 399 379T433 422L528
365Q488 299 443 260T337 221Q300 221 277 230Z" />
<glyph unicode="&#xa0;" glyph-name="uni00A0" horiz-adv-x="208" />
<glyph unicode="&#xa1;" glyph-name="exclamdown" horiz-adv-x="225" d="M85 312T60 338T35 405Q35 451 68 484T150 518Q189 518 214 493T239 427Q239 380 206 346T125 312Q85 312 60 338ZM185 228L149 -207H-55L33 228H185Z" />
<glyph unicode="&#xa2;" glyph-name="cent" horiz-adv-x="469" d="M449 44Q379 -7 297 -18L276 -165H143L166 -8Q92 14 52 73T12 217Q12 282 36 349T113 470T243 544L265 696H396L376 550Q453 535 507 480L414 369Q375 405 328 405Q266 405 241 347T215 212Q215
167 233 150T284 133Q307 133 328 141T379 168L449 44Z" />
<glyph unicode="&#xa3;" glyph-name="sterling" horiz-adv-x="539" d="M285 220T269 193T211 145H504L462 0H-18L1 139Q40 149 60 164T88 199T99 251L106 304H39L53 399H120L132 487Q145 585 208 640T380 696Q452 696 502 669T584 586L460 505Q447 532 432 542T392
552Q359 552 343 536T322 483L311 399H478L464 304H298L292 262Q285 220 269 193Z" />
<glyph unicode="&#xa4;" glyph-name="currency" horiz-adv-x="560" d="M507 277T476 226L551 151L472 72L394 148Q343 120 281 120Q219 120 168 148L89 72L10 151L86 226Q55 279 55 342Q55 404 86 457L10 534L89 613L167 536Q218 564 281 564Q345 564 395 535L472
613L551 534L476 458Q507 405 507 342Q507 277 476 226ZM321 247T341 271T362 342Q362 387 342 411T281 435Q240 435 219 411T198 342Q198 296 219 272T281 247Q321 247 341 271Z" />
<glyph unicode="&#xa5;" glyph-name="yen" horiz-adv-x="576" d="M649 680L438 356H525L512 261H385L376 201H504L490 106H363L348 0H156L171 106H44L58 201H184L192 261H66L79 356H164L43 680H243L308 407L446 680H649Z" />
<glyph unicode="&#xa6;" glyph-name="brokenbar" horiz-adv-x="348" d="M341 812L290 443H107L159 812H341ZM265 262L213 -107H31L82 262H265Z" />
<glyph unicode="&#xa7;" glyph-name="section" horiz-adv-x="548" d="M449 449T482 417T516 329Q516 277 488 242T411 181Q436 160 447 137T459 84Q459 9 398 -41T208 -91Q149 -91 98 -74T8 -28L82 83Q144 41 202 41Q242 41 258 50T274 77Q274 89 267 97T238 115T172
140Q109 159 76 191T42 278Q42 326 70 359T147 419Q100 462 100 522Q100 601 164 648T342 696Q398 696 453 678T548 632L470 526Q442 545 411 554T350 564Q285 564 285 527Q285 516 292 508T321 491T385 468Q449 449 482 417ZM320 235Q347 267 347 291Q347 327
277 350Q257 356 232 367Q212 340 212 315Q212 280 266 258L320 235Z" />
<glyph unicode="&#xa8;" glyph-name="dieresis" horiz-adv-x="491" d="M140 634T117 656T94 715Q94 759 125 788T201 818Q240 818 263 796T286 737Q286 693 255 664T179 634Q140 634 117 656ZM380 634T357 656T334 715Q334 759 365 788T441 818Q480 818 503 796T526
737Q526 693 495 664T419 634Q380 634 357 656Z" />
<glyph unicode="&#xa9;" glyph-name="copyright" horiz-adv-x="810" d="M527 777T607 733T734 610T781 431Q781 331 735 253T608 130T429 86Q331 86 250 130T122 252T75 431Q75 531 122 610T250 733T429 777Q527 777 607 733ZM359 681T304 650T218 562T186 431Q186
357 217 301T304 213T429 182Q498 182 553 213T639 300T671 431Q671 505 640 561T553 649T429 681Q359 681 304 650ZM469 633T506 618T570 576L514 507Q496 521 482 525T447 530Q418 530 400 507T382 432Q382 333 444 333Q487 333 523 362L574 287Q545 260 509
245T432 230Q345 230 296 282T246 432Q246 523 297 578T431 633Q469 633 506 618Z" />
<glyph unicode="&#xaa;" glyph-name="ordfeminine" horiz-adv-x="473" d="M115 260T80 295T45 381Q45 446 98 488T271 530H296L297 539Q299 559 291 567T258 576Q208 576 137 555L114 663Q155 679 204 687T297 696Q379 696 420 664T461 559Q461 538 458 514L445
417Q443 405 443 400Q443 380 463 374L415 264Q374 266 348 279T303 318Q254 260 173 260Q115 260 80 295ZM261 381T277 395L284 442H276Q247 442 234 433T220 402Q220 381 240 381Q261 381 277 395ZM-12 0L8 150H428L408 0H-12Z" />
<glyph unicode="&#xab;" glyph-name="guillemotleft" horiz-adv-x="648" d="M258 569L368 488L217 283L310 78L179 -3L16 222L33 344L258 569ZM547 569L657 488L506 283L599 78L468 -3L305 222L322 344L547 569Z" />
<glyph unicode="&#xac;" glyph-name="logicalnot" horiz-adv-x="536" d="M518 407L474 97H308L331 257H37L58 407H518Z" />
<glyph unicode="&#xad;" glyph-name="uni00AD" horiz-adv-x="399" d="M29 238L49 388H383L363 238H29Z" />
<glyph unicode="&#xae;" glyph-name="registered" horiz-adv-x="635" d="M431 764T496 728T598 627T635 479Q635 396 598 332T496 232T349 196Q267 196 201 232T98 332T60 479Q60 562 97 627T201 728T349 764Q431 764 496 728ZM436 274T489 329T543 479Q543 541
519 588T450 660T349 686Q292 686 247 661T177 588T152 479Q152 417 177 371T247 299T349 274Q436 274 489 329ZM465 517T451 497T411 465L484 347H393L337 448H317V347H237V633H325Q465 633 465 543Q465 517 451 497ZM317 514H346Q362 514 372 522T383 546Q383
560 373 567T345 574H317V514Z" />
<glyph unicode="&#xaf;" glyph-name="overscore" horiz-adv-x="380" d="M403 648H84L103 782H422L403 648Z" />
<glyph unicode="&#xb0;" glyph-name="degree" horiz-adv-x="507" d="M156 362T111 404T65 517Q65 577 93 622T167 691T269 716Q341 716 386 674T432 561Q432 501 404 456T330 387T228 362Q156 362 111 404ZM269 470T288 493T307 553Q307 579 295 593T260 608Q228
608 209 585T190 525Q190 499 202 485T237 470Q269 470 288 493Z" />
<glyph unicode="&#xb1;" glyph-name="plusminus" horiz-adv-x="536" d="M11 0L32 150H474L453 0H11ZM402 670L380 510H532L511 360H359L336 200H180L203 360H51L72 510H224L245 670H402Z" />
<glyph unicode="&#xb2;" glyph-name="uni00B2" horiz-adv-x="388" d="M328 755T367 721T407 637Q407 596 386 563T330 502T225 426H387L359 320H50L63 418L98 445Q184 513 222 551T261 621Q261 635 252 643T227 651Q207 651 190 642T153 610L78 673Q153 755 256
755Q328 755 367 721Z" />
<glyph unicode="&#xb3;" glyph-name="uni00B3" horiz-adv-x="388" d="M330 755T369 727T409 651Q409 610 379 583T297 543Q342 540 368 518T394 453Q394 386 336 346T193 306Q85 306 35 379L116 448Q149 410 194 410Q219 410 235 423T252 461Q252 494 201 494H160L189
588H215Q268 588 268 626Q268 652 232 652Q187 652 144 617L84 693Q163 755 261 755Q330 755 369 727Z" />
<glyph unicode="&#xb4;" glyph-name="acute" horiz-adv-x="358" d="M331 856L391 712L131 613L87 712L331 856Z" />
<glyph unicode="&#xb5;" glyph-name="uni00B5" horiz-adv-x="568" d="M498 117T498 76Q498 41 504 -1L324 -19Q314 14 313 58Q292 21 270 6T217 -9Q184 -9 164 9Q165 4 169 -15T173 -58Q173 -82 167 -124L155 -207L-28 -225L78 534H272L221 166Q220 162 220 155Q220
127 245 127Q260 127 277 138T310 170L361 534H555L506 183Q498 117 498 76Z" />
<glyph unicode="&#xb6;" glyph-name="paragraph" horiz-adv-x="808" d="M767 696L640 -207L470 -228L580 563H503L395 -207L225 -228L292 252Q187 253 132 304T77 442Q77 522 116 579T225 666T387 696H767Z" />
<glyph unicode="&#xb7;" glyph-name="middot" horiz-adv-x="240" d="M73 203T48 229T23 296Q23 342 56 375T138 409Q177 409 202 384T227 318Q227 271 194 237T113 203Q73 203 48 229Z" />
<glyph unicode="&#xb8;" glyph-name="cedilla" horiz-adv-x="344" d="M160 -43Q207 -49 231 -73T256 -139Q256 -170 239 -201T182 -253T78 -275Q10 -275 -41 -240L12 -156Q41 -173 72 -173Q121 -173 121 -145Q121 -131 101 -126T33 -120L67 16H170L160 -43Z" />
<glyph unicode="&#xb9;" glyph-name="uni00B9" horiz-adv-x="388" d="M373 744L314 320H177L218 614L125 558L75 651L246 744H373Z" />
<glyph unicode="&#xba;" glyph-name="ordmasculine" horiz-adv-x="488" d="M394 696T446 650T498 517Q498 442 467 384T378 293T246 260Q154 260 102 305T50 437Q50 513 81 572T170 663T302 696Q394 696 446 650ZM254 574T239 532T223 435Q223 407 231 395T259
382Q294 382 309 425T325 523Q325 550 316 562T289 574Q254 574 239 532ZM-15 0L6 150H448L427 0H-15Z" />
<glyph unicode="&#xbb;" glyph-name="guillemotright" horiz-adv-x="648" d="M185 569L348 344L331 222L106 -3L-5 78L148 283L53 488L185 569ZM474 569L637 344L620 222L395 -3L284 78L437 283L342 488L474 569Z" />
<glyph unicode="&#xbc;" glyph-name="onequarter" horiz-adv-x="955" d="M366 696L307 272H170L211 566L118 510L68 603L239 696H366ZM695 764L797 709L280 -90L177 -35L695 764ZM930 179L915 77H874L863 0H733L743 77H552L565 170L716 435L827 392L709 179H759L800
267H900L888 179H930Z" />
<glyph unicode="&#xbd;" glyph-name="onehalf" horiz-adv-x="955" d="M366 696L307 272H170L211 566L118 510L68 603L239 696H366ZM695 764L797 709L280 -90L177 -35L695 764ZM850 435T889 401T929 317Q929 276 908 243T852 182T747 106H909L881 0H572L585 98L620
125Q706 193 744 231T783 301Q783 315 774 323T749 331Q729 331 712 322T675 290L600 353Q675 435 778 435Q850 435 889 401Z" />
<glyph unicode="&#xbe;" glyph-name="threequarters" horiz-adv-x="955" d="M323 707T362 679T402 603Q402 562 372 535T290 495Q335 492 361 470T387 405Q387 338 329 298T186 258Q78 258 28 331L109 400Q142 362 187 362Q212 362 228 375T245 413Q245 446 194
446H153L182 540H208Q261 540 261 578Q261 604 225 604Q180 604 137 569L77 645Q156 707 254 707Q323 707 362 679ZM695 764L797 709L280 -90L177 -35L695 764ZM930 179L915 77H874L863 0H733L743 77H552L565 170L716 435L827 392L709 179H759L800 267H900L888
179H930Z" />
<glyph unicode="&#xbf;" glyph-name="questiondown" horiz-adv-x="481" d="M319 509T344 483T369 416Q369 370 336 337T254 303Q215 303 190 328T165 394Q165 441 198 475T279 509Q319 509 344 483ZM65 -227T11 -185T-43 -75Q-43 -22 -24 13T22 68T91 111Q135
135 156 154T177 205Q177 213 175 223L346 248Q352 224 352 200Q352 155 335 124T294 73T234 33Q198 12 181 -3T164 -43Q164 -73 207 -73Q257 -73 318 -18L425 -116Q317 -227 167 -227Q65 -227 11 -185Z" />
<glyph unicode="&#xc0;" glyph-name="Agrave" horiz-adv-x="589" d="M362 0L355 135H192L148 0H-63L233 696H475L576 0H362ZM238 279H347L331 567L238 279ZM318 974L526 838L477 744L238 830L318 974Z" />
<glyph unicode="&#xc1;" glyph-name="Aacute" horiz-adv-x="589" d="M362 0L355 135H192L148 0H-63L233 696H475L576 0H362ZM238 279H347L331 567L238 279ZM480 975L540 831L280 742L238 838L480 975Z" />
<glyph unicode="&#xc2;" glyph-name="Acircumflex" horiz-adv-x="589" d="M362 0L355 135H192L148 0H-63L233 696H475L576 0H362ZM238 279H347L331 567L238 279ZM224 752L165 829L327 970H443L565 829L492 752L370 839L224 752Z" />
<glyph unicode="&#xc3;" glyph-name="Atilde" horiz-adv-x="589" d="M362 0L355 135H192L148 0H-63L233 696H475L576 0H362ZM238 279H347L331 567L238 279ZM394 748T357 773Q343 782 334 786T316 791Q298 791 286 781T256 747L171 794Q199 853 240 891T326 929Q348
929 364 922T398 902Q421 886 434 886Q451 886 463 896T493 930L578 883Q550 824 509 786T423 748Q394 748 357 773Z" />
<glyph unicode="&#xc4;" glyph-name="Adieresis" horiz-adv-x="589" d="M362 0L355 135H192L148 0H-63L233 696H475L576 0H362ZM238 279H347L331 567L238 279ZM202 760T179 782T156 841Q156 885 187 914T263 944Q302 944 325 922T348 863Q348 819 317 790T241
760Q202 760 179 782ZM442 760T419 782T396 841Q396 885 427 914T503 944Q542 944 565 922T588 863Q588 819 557 790T481 760Q442 760 419 782Z" />
<glyph unicode="&#xc5;" glyph-name="Aring" horiz-adv-x="589" d="M362 0L355 135H192L148 0H-63L233 696H475L576 0H362ZM238 279H347L331 567L238 279ZM461 1012T496 976T531 880Q531 838 510 801T450 742T359 719Q296 719 261 755T226 851Q226 892 247 929T308
989T397 1012Q461 1012 496 976ZM363 914T349 896T335 856Q335 837 344 828T369 819Q393 819 407 835T421 875Q421 894 412 904T387 914Q363 914 349 896Z" />
<glyph unicode="&#xc6;" glyph-name="AE" horiz-adv-x="847" d="M814 553H571L575 421H806L788 282H579L583 144H811L791 0H401L400 135H215L155 0H-64L288 696H854L814 553ZM278 279H399L397 549L278 279Z" />
<glyph unicode="&#xc7;" glyph-name="Ccedilla" horiz-adv-x="571" d="M457 -3T348 -17L344 -43Q391 -49 415 -73T440 -139Q440 -170 423 -201T366 -253T262 -275Q194 -275 143 -240L196 -156Q225 -173 256 -173Q305 -173 305 -145Q305 -131 285 -126T217 -120L243
-15Q142 1 84 74T25 270Q25 377 63 479T184 648T395 716Q537 716 613 626L506 523Q481 545 455 556T397 568Q338 568 302 520T250 403T234 274Q234 135 337 135Q370 135 400 150T469 193L545 76Q457 -3 348 -17Z" />
<glyph unicode="&#xc8;" glyph-name="Egrave" horiz-adv-x="510" d="M552 696L511 553H285L267 423H464L446 284H248L228 144H470L450 0H6L103 696H552ZM292 974L500 838L451 744L212 830L292 974Z" />
<glyph unicode="&#xc9;" glyph-name="Eacute" horiz-adv-x="510" d="M552 696L511 553H285L267 423H464L446 284H248L228 144H470L450 0H6L103 696H552ZM454 975L514 831L254 742L212 838L454 975Z" />
<glyph unicode="&#xca;" glyph-name="Ecircumflex" horiz-adv-x="510" d="M552 696L511 553H285L267 423H464L446 284H248L228 144H470L450 0H6L103 696H552ZM198 752L139 829L301 970H417L539 829L466 752L344 839L198 752Z" />
<glyph unicode="&#xcb;" glyph-name="Edieresis" horiz-adv-x="510" d="M552 696L511 553H285L267 423H464L446 284H248L228 144H470L450 0H6L103 696H552ZM176 760T153 782T130 841Q130 885 161 914T237 944Q276 944 299 922T322 863Q322 819 291 790T215 760Q176
760 153 782ZM416 760T393 782T370 841Q370 885 401 914T477 944Q516 944 539 922T562 863Q562 819 531 790T455 760Q416 760 393 782Z" />
<glyph unicode="&#xcc;" glyph-name="Igrave" horiz-adv-x="289" d="M305 696L208 0H6L103 696H305ZM168 974L376 838L327 744L88 830L168 974Z" />
<glyph unicode="&#xcd;" glyph-name="Iacute" horiz-adv-x="289" d="M305 696L208 0H6L103 696H305ZM330 975L390 831L130 742L88 838L330 975Z" />
<glyph unicode="&#xce;" glyph-name="Icircumflex" horiz-adv-x="289" d="M305 696L208 0H6L103 696H305ZM74 752L15 829L177 970H293L415 829L342 752L220 839L74 752Z" />
<glyph unicode="&#xcf;" glyph-name="Idieresis" horiz-adv-x="289" d="M305 696L208 0H6L103 696H305ZM52 760T29 782T6 841Q6 885 37 914T113 944Q152 944 175 922T198 863Q198 819 167 790T91 760Q52 760 29 782ZM292 760T269 782T246 841Q246 885 277 914T353
944Q392 944 415 922T438 863Q438 819 407 790T331 760Q292 760 269 782Z" />
<glyph unicode="&#xd0;" glyph-name="Eth" horiz-adv-x="653" d="M475 696T563 638T651 432Q651 239 557 120T246 0H15L56 295H8L24 411H72L112 696H329Q475 696 563 638ZM370 145T406 230T443 430Q443 498 417 524T336 551H294L274 411H392L376 295H258L237 145H276Q370
145 406 230Z" />
<glyph unicode="&#xd1;" glyph-name="Ntilde" horiz-adv-x="640" d="M559 0H305L220 527L221 500Q225 438 225 399Q225 311 211 205L182 0H6L103 696H353L442 169Q436 261 436 301Q436 382 450 484L480 696H656L559 0ZM420 748T383 773Q369 782 360 786T342 791Q324
791 312 781T282 747L197 794Q225 853 266 891T352 929Q374 929 390 922T424 902Q447 886 460 886Q477 886 489 896T519 930L604 883Q576 824 535 786T449 748Q420 748 383 773Z" />
<glyph unicode="&#xd2;" glyph-name="Ograve" horiz-adv-x="678" d="M534 716T605 641T676 429Q676 322 640 220T520 49T301 -20Q168 -20 97 56T25 268Q25 375 61 477T181 647T400 716Q534 716 605 641ZM325 570T292 515T246 388T233 251Q233 184 253 155T317
126Q376 126 409 180T455 308T468 447Q468 513 448 541T384 570Q325 570 292 515ZM363 974L571 838L522 744L283 830L363 974Z" />
<glyph unicode="&#xd3;" glyph-name="Oacute" horiz-adv-x="678" d="M534 716T605 641T676 429Q676 322 640 220T520 49T301 -20Q168 -20 97 56T25 268Q25 375 61 477T181 647T400 716Q534 716 605 641ZM325 570T292 515T246 388T233 251Q233 184 253 155T317
126Q376 126 409 180T455 308T468 447Q468 513 448 541T384 570Q325 570 292 515ZM525 975L585 831L325 742L283 838L525 975Z" />
<glyph unicode="&#xd4;" glyph-name="Ocircumflex" horiz-adv-x="678" d="M534 716T605 641T676 429Q676 322 640 220T520 49T301 -20Q168 -20 97 56T25 268Q25 375 61 477T181 647T400 716Q534 716 605 641ZM325 570T292 515T246 388T233 251Q233 184 253 155T317
126Q376 126 409 180T455 308T468 447Q468 513 448 541T384 570Q325 570 292 515ZM269 752L210 829L372 970H488L610 829L537 752L415 839L269 752Z" />
<glyph unicode="&#xd5;" glyph-name="Otilde" horiz-adv-x="678" d="M534 716T605 641T676 429Q676 322 640 220T520 49T301 -20Q168 -20 97 56T25 268Q25 375 61 477T181 647T400 716Q534 716 605 641ZM325 570T292 515T246 388T233 251Q233 184 253 155T317
126Q376 126 409 180T455 308T468 447Q468 513 448 541T384 570Q325 570 292 515ZM439 748T402 773Q388 782 379 786T361 791Q343 791 331 781T301 747L216 794Q244 853 285 891T371 929Q393 929 409 922T443 902Q466 886 479 886Q496 886 508 896T538 930L623
883Q595 824 554 786T468 748Q439 748 402 773Z" />
<glyph unicode="&#xd6;" glyph-name="Odieresis" horiz-adv-x="678" d="M534 716T605 641T676 429Q676 322 640 220T520 49T301 -20Q168 -20 97 56T25 268Q25 375 61 477T181 647T400 716Q534 716 605 641ZM325 570T292 515T246 388T233 251Q233 184 253 155T317
126Q376 126 409 180T455 308T468 447Q468 513 448 541T384 570Q325 570 292 515ZM247 760T224 782T201 841Q201 885 232 914T308 944Q347 944 370 922T393 863Q393 819 362 790T286 760Q247 760 224 782ZM487 760T464 782T441 841Q441 885 472 914T548 944Q587
944 610 922T633 863Q633 819 602 790T526 760Q487 760 464 782Z" />
<glyph unicode="&#xd7;" glyph-name="multiply" horiz-adv-x="519" d="M404 525L496 419L368 309L465 189L349 87L256 206L127 87L34 193L161 305L65 423L182 525L274 408L404 525Z" />
<glyph unicode="&#xd8;" glyph-name="Oslash" horiz-adv-x="678" d="M626 629T651 569T676 429Q676 322 640 220T520 49T301 -20Q287 -20 261 -18L208 -139L65 -99L124 31Q75 68 50 128T25 268Q25 375 61 477T181 647T400 716Q414 716 438 714L493 833L635 793L577
666Q626 629 651 569ZM325 570T290 515T242 385T228 246Q228 207 232 187L398 570H384Q325 570 290 515ZM376 126T410 181T458 310T472 452Q472 484 469 506L305 126H317Q376 126 410 181Z" />
<glyph unicode="&#xd9;" glyph-name="Ugrave" horiz-adv-x="632" d="M595 235Q585 162 546 105T438 14T278 -20Q152 -20 89 36T26 190Q26 213 29 237L93 696H295L231 241Q228 219 228 201Q228 163 243 146T294 128Q338 128 361 156T393 243L457 696H659L595 235ZM340
974L548 838L499 744L260 830L340 974Z" />
<glyph unicode="&#xda;" glyph-name="Uacute" horiz-adv-x="632" d="M595 235Q585 162 546 105T438 14T278 -20Q152 -20 89 36T26 190Q26 213 29 237L93 696H295L231 241Q228 219 228 201Q228 163 243 146T294 128Q338 128 361 156T393 243L457 696H659L595 235ZM502
975L562 831L302 742L260 838L502 975Z" />
<glyph unicode="&#xdb;" glyph-name="Ucircumflex" horiz-adv-x="632" d="M595 235Q585 162 546 105T438 14T278 -20Q152 -20 89 36T26 190Q26 213 29 237L93 696H295L231 241Q228 219 228 201Q228 163 243 146T294 128Q338 128 361 156T393 243L457 696H659L595
235ZM246 752L187 829L349 970H465L587 829L514 752L392 839L246 752Z" />
<glyph unicode="&#xdc;" glyph-name="Udieresis" horiz-adv-x="632" d="M595 235Q585 162 546 105T438 14T278 -20Q152 -20 89 36T26 190Q26 213 29 237L93 696H295L231 241Q228 219 228 201Q228 163 243 146T294 128Q338 128 361 156T393 243L457 696H659L595
235ZM224 760T201 782T178 841Q178 885 209 914T285 944Q324 944 347 922T370 863Q370 819 339 790T263 760Q224 760 201 782ZM464 760T441 782T418 841Q418 885 449 914T525 944Q564 944 587 922T610 863Q610 819 579 790T503 760Q464 760 441 782Z" />
<glyph unicode="&#xdd;" glyph-name="Yacute" horiz-adv-x="608" d="M683 696L404 257L368 0H166L202 256L45 696H262L325 412L467 696H683ZM490 975L550 831L290 742L248 838L490 975Z" />
<glyph unicode="&#xde;" glyph-name="Thorn" horiz-adv-x="600" d="M462 593T532 542T602 386Q602 320 573 257T474 150T290 106H223L208 0H6L103 696H305L291 593H334Q462 593 532 542ZM346 251T370 291T394 380Q394 450 313 450H271L243 251H288Q346 251 370 291Z" />
<glyph unicode="&#xdf;" glyph-name="germandbls" horiz-adv-x="599" d="M-117 -86Q-59 -66 -29 -37T9 44L77 531Q92 641 165 702T359 764Q456 764 507 722T559 613Q559 573 541 548T490 494Q465 472 454 458T442 424Q442 407 453 394T490 359Q518 336 537 317T569
266T583 193Q583 141 559 92T481 12T346 -20Q312 -20 279 -12T221 10L294 139Q311 130 330 130Q359 130 370 146T382 181Q382 206 370 222T332 262Q302 289 286 313T270 375Q270 421 285 448T329 507Q352 533 362 551T373 595Q373 611 365 620T340 629Q311 629
295 606T272 536L208 76Q190 -54 119 -122T-70 -227L-117 -86Z" />
<glyph unicode="&#xe0;" glyph-name="agrave" horiz-adv-x="574" d="M389 554T451 539T566 491L520 172Q518 152 518 147Q518 133 523 125T542 110L486 -16Q436 -13 398 9T345 72Q316 29 278 5T186 -20Q102 -20 57 38T11 197Q11 283 43 364T147 500T330 554Q389
554 451 539ZM264 418T237 351T210 198Q210 153 221 138T253 122Q295 122 330 182L364 412Q342 418 322 418Q264 418 237 351ZM317 856L529 709L476 616L237 712L317 856Z" />
<glyph unicode="&#xe1;" glyph-name="aacute" horiz-adv-x="574" d="M389 554T451 539T566 491L520 172Q518 152 518 147Q518 133 523 125T542 110L486 -16Q436 -13 398 9T345 72Q316 29 278 5T186 -20Q102 -20 57 38T11 197Q11 283 43 364T147 500T330 554Q389
554 451 539ZM264 418T237 351T210 198Q210 153 221 138T253 122Q295 122 330 182L364 412Q342 418 322 418Q264 418 237 351ZM464 856L524 712L264 613L220 712L464 856Z" />
<glyph unicode="&#xe2;" glyph-name="acircumflex" horiz-adv-x="574" d="M389 554T451 539T566 491L520 172Q518 152 518 147Q518 133 523 125T542 110L486 -16Q436 -13 398 9T345 72Q316 29 278 5T186 -20Q102 -20 57 38T11 197Q11 283 43 364T147 500T330 554Q389
554 451 539ZM264 418T237 351T210 198Q210 153 221 138T253 122Q295 122 330 182L364 412Q342 418 322 418Q264 418 237 351ZM224 612L166 689L329 840H445L566 689L491 612L371 708L224 612Z" />
<glyph unicode="&#xe3;" glyph-name="atilde" horiz-adv-x="574" d="M389 554T451 539T566 491L520 172Q518 152 518 147Q518 133 523 125T542 110L486 -16Q436 -13 398 9T345 72Q316 29 278 5T186 -20Q102 -20 57 38T11 197Q11 283 43 364T147 500T330 554Q389
554 451 539ZM264 418T237 351T210 198Q210 153 221 138T253 122Q295 122 330 182L364 412Q342 418 322 418Q264 418 237 351ZM392 622T355 647Q341 656 332 660T314 665Q297 665 284 655T254 621L169 668Q197 727 238 765T324 803Q346 803 362 796T396 776Q419
760 432 760Q449 760 461 770T491 804L576 757Q548 698 507 660T421 622Q392 622 355 647Z" />
<glyph unicode="&#xe4;" glyph-name="adieresis" horiz-adv-x="574" d="M389 554T451 539T566 491L520 172Q518 152 518 147Q518 133 523 125T542 110L486 -16Q436 -13 398 9T345 72Q316 29 278 5T186 -20Q102 -20 57 38T11 197Q11 283 43 364T147 500T330 554Q389
554 451 539ZM264 418T237 351T210 198Q210 153 221 138T253 122Q295 122 330 182L364 412Q342 418 322 418Q264 418 237 351ZM204 634T181 656T158 715Q158 759 189 788T265 818Q304 818 327 796T350 737Q350 693 319 664T243 634Q204 634 181 656ZM444 634T421
656T398 715Q398 759 429 788T505 818Q544 818 567 796T590 737Q590 693 559 664T483 634Q444 634 421 656Z" />
<glyph unicode="&#xe5;" glyph-name="aring" horiz-adv-x="574" d="M389 554T451 539T566 491L520 172Q518 152 518 147Q518 133 523 125T542 110L486 -16Q436 -13 398 9T345 72Q316 29 278 5T186 -20Q102 -20 57 38T11 197Q11 283 43 364T147 500T330 554Q389
554 451 539ZM264 418T237 351T210 198Q210 153 221 138T253 122Q295 122 330 182L364 412Q342 418 322 418Q264 418 237 351ZM458 886T493 850T528 754Q528 712 507 675T447 616T356 593Q293 593 258 629T223 725Q223 766 244 803T305 863T394 886Q458 886 493
850ZM360 788T346 770T332 730Q332 711 341 702T366 693Q390 693 404 709T418 749Q418 768 409 778T384 788Q360 788 346 770Z" />
<glyph unicode="&#xe6;" glyph-name="ae" horiz-adv-x="843" d="M350 554T387 538T452 489Q482 519 530 536T632 554Q733 554 789 512T846 401Q846 300 748 252T507 191Q510 149 530 135T588 120Q620 120 650 132T720 169L787 56Q683 -20 562 -20Q419 -20 359
65Q316 19 268 0T164 -20Q88 -20 43 20T-3 127Q-3 214 62 272T285 330H331Q335 344 347 370Q341 391 319 401T263 412Q194 412 118 387L90 513Q196 554 290 554Q350 554 387 538ZM572 429T549 393T515 302Q570 305 600 321T641 357T652 389Q652 408 642 418T609
429Q572 429 549 393ZM286 222Q246 222 224 206T201 159Q201 141 210 130T241 119Q260 119 277 129T319 162Q315 183 315 222H286Z" />
<glyph unicode="&#xe7;" glyph-name="ccedilla" horiz-adv-x="469" d="M373 -11T286 -19L282 -43Q329 -49 353 -73T378 -139Q378 -170 361 -201T304 -253T200 -275Q132 -275 81 -240L134 -156Q163 -173 194 -173Q243 -173 243 -145Q243 -131 223 -126T155 -120L182
-12Q101 7 57 67T12 217Q12 293 45 371T149 501T327 554Q381 554 427 535T507 480L414 369Q375 405 328 405Q266 405 241 347T215 212Q215 167 233 150T284 133Q307 133 328 141T379 168L449 44Q373 -11 286 -19Z" />
<glyph unicode="&#xe8;" glyph-name="egrave" horiz-adv-x="542" d="M545 300T448 252T206 191Q213 120 287 120Q319 120 349 132T419 169L486 56Q382 -20 261 -20Q137 -20 75 42T12 211Q12 291 44 370T148 501T331 554Q432 554 488 512T545 401Q545 300 448 252ZM293
307T322 335T351 392Q351 429 312 429Q273 429 249 394T214 302Q293 307 322 335ZM286 856L498 709L445 616L206 712L286 856Z" />
<glyph unicode="&#xe9;" glyph-name="eacute" horiz-adv-x="542" d="M545 300T448 252T206 191Q213 120 287 120Q319 120 349 132T419 169L486 56Q382 -20 261 -20Q137 -20 75 42T12 211Q12 291 44 370T148 501T331 554Q432 554 488 512T545 401Q545 300 448 252ZM293
307T322 335T351 392Q351 429 312 429Q273 429 249 394T214 302Q293 307 322 335ZM433 856L493 712L233 613L189 712L433 856Z" />
<glyph unicode="&#xea;" glyph-name="ecircumflex" horiz-adv-x="542" d="M545 300T448 252T206 191Q213 120 287 120Q319 120 349 132T419 169L486 56Q382 -20 261 -20Q137 -20 75 42T12 211Q12 291 44 370T148 501T331 554Q432 554 488 512T545 401Q545 300
448 252ZM293 307T322 335T351 392Q351 429 312 429Q273 429 249 394T214 302Q293 307 322 335ZM193 612L135 689L298 840H414L535 689L460 612L340 708L193 612Z" />
<glyph unicode="&#xeb;" glyph-name="edieresis" horiz-adv-x="542" d="M545 300T448 252T206 191Q213 120 287 120Q319 120 349 132T419 169L486 56Q382 -20 261 -20Q137 -20 75 42T12 211Q12 291 44 370T148 501T331 554Q432 554 488 512T545 401Q545 300 448
252ZM293 307T322 335T351 392Q351 429 312 429Q273 429 249 394T214 302Q293 307 322 335ZM173 634T150 656T127 715Q127 759 158 788T234 818Q273 818 296 796T319 737Q319 693 288 664T212 634Q173 634 150 656ZM413 634T390 656T367 715Q367 759 398 788T474
818Q513 818 536 796T559 737Q559 693 528 664T452 634Q413 634 390 656Z" />
<glyph unicode="&#xec;" glyph-name="igrave" horiz-adv-x="276" d="M272 534L198 0H4L78 534H272ZM145 856L357 709L304 616L65 712L145 856Z" />
<glyph unicode="&#xed;" glyph-name="iacute" horiz-adv-x="276" d="M272 534L198 0H4L78 534H272ZM292 856L352 712L92 613L48 712L292 856Z" />
<glyph unicode="&#xee;" glyph-name="icircumflex" horiz-adv-x="276" d="M272 534L198 0H4L78 534H272ZM52 612L-6 689L157 840H273L394 689L319 612L199 708L52 612Z" />
<glyph unicode="&#xef;" glyph-name="idieresis" horiz-adv-x="276" d="M272 534L198 0H4L78 534H272ZM32 634T9 656T-14 715Q-14 759 17 788T93 818Q132 818 155 796T178 737Q178 693 147 664T71 634Q32 634 9 656ZM272 634T249 656T226 715Q226 759 257 788T333
818Q372 818 395 796T418 737Q418 693 387 664T311 634Q272 634 249 656Z" />
<glyph unicode="&#xf0;" glyph-name="eth" horiz-adv-x="574" d="M492 613T526 540T561 373Q561 261 524 172T415 31T247 -20Q178 -20 124 5T40 80T9 197Q9 267 38 332T122 440T254 482Q291 482 319 473T373 444Q364 482 347 511T300 568L248 521L136 576L187
624Q148 634 115 639L168 763Q235 753 303 730L389 811L474 726L416 672Q492 613 526 540ZM299 121T318 145T345 208T364 326Q336 348 297 348Q249 348 228 301T207 191Q207 154 221 138T263 121Q299 121 318 145Z" />
<glyph unicode="&#xf1;" glyph-name="ntilde" horiz-adv-x="560" d="M482 554T513 521T544 428Q544 405 542 393L487 0H293L341 341Q343 359 343 364Q343 393 325 393Q307 393 286 365T238 278L198 0H4L78 534H247L248 446Q280 495 328 524T427 554Q482 554 513
521ZM367 622T330 647Q316 656 307 660T289 665Q272 665 259 655T229 621L144 668Q172 727 213 765T299 803Q321 803 337 796T371 776Q394 760 407 760Q424 760 436 770T466 804L551 757Q523 698 482 660T396 622Q367 622 330 647Z" />
<glyph unicode="&#xf2;" glyph-name="ograve" horiz-adv-x="572" d="M137 -20T75 41T13 211Q13 298 43 376T143 504T323 554Q433 554 495 493T558 325Q558 238 528 160T428 31T247 -20Q137 -20 75 41ZM320 122T340 190T360 338Q360 377 347 394T307 412Q251 412
231 346T211 201Q211 159 223 141T263 122Q320 122 340 190ZM284 856L496 709L443 616L204 712L284 856Z" />
<glyph unicode="&#xf3;" glyph-name="oacute" horiz-adv-x="572" d="M137 -20T75 41T13 211Q13 298 43 376T143 504T323 554Q433 554 495 493T558 325Q558 238 528 160T428 31T247 -20Q137 -20 75 41ZM320 122T340 190T360 338Q360 377 347 394T307 412Q251 412
231 346T211 201Q211 159 223 141T263 122Q320 122 340 190ZM431 856L491 712L231 613L187 712L431 856Z" />
<glyph unicode="&#xf4;" glyph-name="ocircumflex" horiz-adv-x="572" d="M137 -20T75 41T13 211Q13 298 43 376T143 504T323 554Q433 554 495 493T558 325Q558 238 528 160T428 31T247 -20Q137 -20 75 41ZM320 122T340 190T360 338Q360 377 347 394T307 412Q251
412 231 346T211 201Q211 159 223 141T263 122Q320 122 340 190ZM191 612L133 689L296 840H412L533 689L458 612L338 708L191 612Z" />
<glyph unicode="&#xf5;" glyph-name="otilde" horiz-adv-x="572" d="M137 -20T75 41T13 211Q13 298 43 376T143 504T323 554Q433 554 495 493T558 325Q558 238 528 160T428 31T247 -20Q137 -20 75 41ZM320 122T340 190T360 338Q360 377 347 394T307 412Q251 412
231 346T211 201Q211 159 223 141T263 122Q320 122 340 190ZM359 622T322 647Q308 656 299 660T281 665Q264 665 251 655T221 621L136 668Q164 727 205 765T291 803Q313 803 329 796T363 776Q386 760 399 760Q416 760 428 770T458 804L543 757Q515 698 474 660T388
622Q359 622 322 647Z" />
<glyph unicode="&#xf6;" glyph-name="odieresis" horiz-adv-x="572" d="M137 -20T75 41T13 211Q13 298 43 376T143 504T323 554Q433 554 495 493T558 325Q558 238 528 160T428 31T247 -20Q137 -20 75 41ZM320 122T340 190T360 338Q360 377 347 394T307 412Q251
412 231 346T211 201Q211 159 223 141T263 122Q320 122 340 190ZM171 634T148 656T125 715Q125 759 156 788T232 818Q271 818 294 796T317 737Q317 693 286 664T210 634Q171 634 148 656ZM411 634T388 656T365 715Q365 759 396 788T472 818Q511 818 534 796T557
737Q557 693 526 664T450 634Q411 634 388 656Z" />
<glyph unicode="&#xf7;" glyph-name="divide" horiz-adv-x="518" d="M185 -20T160 6T135 73Q135 119 168 152T250 186Q289 186 314 161T339 95Q339 48 306 14T225 -20Q185 -20 160 6ZM254 478T229 504T204 571Q204 617 237 650T319 684Q358 684 383 659T408 593Q408
546 375 512T294 478Q254 478 229 504ZM37 257L58 407H500L479 257H37Z" />
<glyph unicode="&#xf8;" glyph-name="oslash" horiz-adv-x="572" d="M515 476T536 430T558 327Q558 239 528 161T428 31T247 -20Q231 -20 223 -19L172 -138L40 -97L96 27Q56 58 35 105T13 211Q13 298 43 376T143 504T323 554Q340 554 348 553L402 673L535 632L475
506Q515 476 536 430ZM265 412T238 377T200 294T189 206Q189 182 194 162L310 412Q265 412 238 377ZM306 122T332 157T370 239T381 324Q381 347 376 365L263 122Q306 122 332 157Z" />
<glyph unicode="&#xf9;" glyph-name="ugrave" horiz-adv-x="554" d="M80 -20T48 15T16 112Q16 130 19 151L73 534H267L219 189Q217 175 217 170Q217 138 242 138Q256 138 274 154T309 197L356 534H550L476 0H307L309 67Q275 26 233 3T144 -20Q80 -20 48 15ZM282
856L494 709L441 616L202 712L282 856Z" />
<glyph unicode="&#xfa;" glyph-name="uacute" horiz-adv-x="554" d="M80 -20T48 15T16 112Q16 130 19 151L73 534H267L219 189Q217 175 217 170Q217 138 242 138Q256 138 274 154T309 197L356 534H550L476 0H307L309 67Q275 26 233 3T144 -20Q80 -20 48 15ZM429
856L489 712L229 613L185 712L429 856Z" />
<glyph unicode="&#xfb;" glyph-name="ucircumflex" horiz-adv-x="554" d="M80 -20T48 15T16 112Q16 130 19 151L73 534H267L219 189Q217 175 217 170Q217 138 242 138Q256 138 274 154T309 197L356 534H550L476 0H307L309 67Q275 26 233 3T144 -20Q80 -20 48 15ZM189
612L131 689L294 840H410L531 689L456 612L336 708L189 612Z" />
<glyph unicode="&#xfc;" glyph-name="udieresis" horiz-adv-x="554" d="M80 -20T48 15T16 112Q16 130 19 151L73 534H267L219 189Q217 175 217 170Q217 138 242 138Q256 138 274 154T309 197L356 534H550L476 0H307L309 67Q275 26 233 3T144 -20Q80 -20 48 15ZM169
634T146 656T123 715Q123 759 154 788T230 818Q269 818 292 796T315 737Q315 693 284 664T208 634Q169 634 146 656ZM409 634T386 656T363 715Q363 759 394 788T470 818Q509 818 532 796T555 737Q555 693 524 664T448 634Q409 634 386 656Z" />
<glyph unicode="&#xfd;" glyph-name="yacute" horiz-adv-x="520" d="M345 0Q250 -220 -17 -228L-21 -93Q56 -86 96 -66T165 0H97L22 534H224L235 122L371 534H574L345 0ZM415 856L475 712L215 613L171 712L415 856Z" />
<glyph unicode="&#xfe;" glyph-name="thorn" horiz-adv-x="583" d="M488 554T529 501T571 347Q571 258 545 175T454 36T285 -20Q260 -20 235 -16T196 -8L167 -207L-29 -227L107 744L303 764L265 495Q291 521 330 537T405 554Q488 554 529 501ZM320 121T346 189T372
338Q372 381 360 396T326 412Q283 412 247 359L215 131Q241 121 266 121Q320 121 346 189Z" />
<glyph unicode="&#xff;" glyph-name="ydieresis" horiz-adv-x="520" d="M345 0Q250 -220 -17 -228L-21 -93Q56 -86 96 -66T165 0H97L22 534H224L235 122L371 534H574L345 0ZM155 634T132 656T109 715Q109 759 140 788T216 818Q255 818 278 796T301 737Q301 693
270 664T194 634Q155 634 132 656ZM395 634T372 656T349 715Q349 759 380 788T456 818Q495 818 518 796T541 737Q541 693 510 664T434 634Q395 634 372 656Z" />
<glyph unicode="&#x2013;" glyph-name="endash" horiz-adv-x="508" d="M10 238L31 388H511L490 238H10Z" />
<glyph unicode="&#x2014;" glyph-name="emdash" horiz-adv-x="782" d="M10 238L31 388H785L764 238H10Z" />
<glyph unicode="&#x2018;" glyph-name="quoteleft" horiz-adv-x="250" d="M120 443T96 465T72 524Q72 550 81 573T111 630L201 775H294L230 613Q263 585 263 544Q263 502 233 473T158 443Q120 443 96 465Z" />
<glyph unicode="&#x2019;" glyph-name="quoteright" horiz-adv-x="250" d="M226 774T250 752T274 693Q274 667 265 644T235 587L145 442H52L116 604Q83 632 83 673Q83 715 113 744T188 774Q226 774 250 752Z" />
<glyph unicode="&#x201a;" glyph-name="quotesinglbase" horiz-adv-x="250" d="M140 164T164 142T188 83Q188 57 179 34T149 -23L59 -168H-34L30 -6Q-3 22 -3 63Q-3 105 27 134T102 164Q140 164 164 142Z" />
<glyph unicode="&#x201c;" glyph-name="quotedblleft" horiz-adv-x="472" d="M120 443T96 465T72 524Q72 550 81 573T111 630L201 775H294L230 613Q263 585 263 544Q263 502 233 473T158 443Q120 443 96 465ZM342 443T318 465T294 524Q294 550 303 573T333 630L423
775H516L452 613Q485 585 485 544Q485 502 455 473T380 443Q342 443 318 465Z" />
<glyph unicode="&#x201d;" glyph-name="quotedblright" horiz-adv-x="472" d="M226 774T250 752T274 693Q274 667 265 644T235 587L145 442H52L116 604Q83 632 83 673Q83 715 113 744T188 774Q226 774 250 752ZM448 774T472 752T496 693Q496 667 487 644T457 587L367
442H274L338 604Q305 632 305 673Q305 715 335 744T410 774Q448 774 472 752Z" />
<glyph unicode="&#x201e;" glyph-name="quotedblbase" horiz-adv-x="472" d="M140 164T164 142T188 83Q188 57 179 34T149 -23L59 -168H-34L30 -6Q-3 22 -3 63Q-3 105 27 134T102 164Q140 164 164 142ZM362 164T386 142T410 83Q410 57 401 34T371 -23L281 -168H188L252
-6Q219 22 219 63Q219 105 249 134T324 164Q362 164 386 142Z" />
<glyph unicode="&#x2022;" glyph-name="bullet" horiz-adv-x="348" d="M263 495T300 458T337 363Q337 315 314 275T251 212T165 188Q106 188 69 225T32 321Q32 369 55 409T118 472T204 495Q263 495 300 458Z" />
<glyph unicode="&#x2039;" glyph-name="guilsinglleft" horiz-adv-x="359" d="M258 569L368 488L217 283L310 78L179 -3L16 222L33 344L258 569Z" />
<glyph unicode="&#x203a;" glyph-name="guilsinglright" horiz-adv-x="359" d="M185 569L348 344L331 222L106 -3L-5 78L148 283L53 488L185 569Z" />
</font>
</defs>
</svg>
