<?xml version="1.0" standalone="no"?>
<!DOCTYPE svg PUBLIC "-//W3C//DTD SVG 1.1//EN" "http://www.w3.org/Graphics/SVG/1.1/DTD/svg11.dtd">
<svg xmlns="http://www.w3.org/2000/svg">
<defs >
<font id="FiraSans" horiz-adv-x="565" ><font-face
    font-family="Fira Sans"
    units-per-em="1000"
    panose-1="2 11 8 3 5 0 0 2 0 4"
    ascent="935"
    descent="-265"
    alphabetic="0" />
<glyph unicode=" " glyph-name="space" horiz-adv-x="227" />
<glyph unicode="!" glyph-name="exclam" horiz-adv-x="231" d="M50 255L92 693H257L176 255H50ZM48 -17T26 6T4 65Q4 105 33 134T103 164Q137 164 159 141T182 83Q182 42 154 13T83 -17Q48 -17 26 6Z" />
<glyph unicode="&quot;" glyph-name="quotedbl" horiz-adv-x="430" d="M84 414L104 693H245L187 414H84ZM285 414L305 693H446L388 414H285Z" />
<glyph unicode="#" glyph-name="numbersign" horiz-adv-x="547" d="M558 440H488L437 248H494L479 143H409L370 0H241L280 143H181L142 0H14L52 143H-3L12 248H80L132 440H76L90 545H160L195 676H325L290 545H388L423 676H552L517 545H572L558 440ZM308 248L359
440H261L209 248H308Z" />
<glyph unicode="$" glyph-name="dollar" horiz-adv-x="539" d="M423 382T465 335T508 217Q508 137 454 74T291 -5L269 -161H156L178 -8Q115 -1 66 24T-15 88L74 172Q140 106 230 106Q282 106 314 130T346 197Q346 229 325 249T247 290Q157 323 116 368T74 478Q74
558 128 614T281 683L302 830H414L392 681Q487 663 553 599L472 517Q406 571 334 571Q288 571 262 553T236 499Q236 470 258 452T342 410Q423 382 465 335Z" />
<glyph unicode="%" glyph-name="percent" horiz-adv-x="849" d="M669 720L116 22L203 -40L757 658L669 720ZM150 330T107 372T63 483Q63 532 85 579T152 658T262 690Q330 690 373 649T417 538Q417 489 396 441T329 362T218 330Q150 330 107 372ZM269 425T287 459T306
536Q306 595 255 595Q210 595 192 560T174 485Q174 425 226 425Q269 425 287 459ZM539 -17T496 24T453 135Q453 184 475 231T542 310T652 342Q720 342 763 301T806 191Q806 142 785 94T718 15T607 -17Q539 -17 496 24ZM658 77T676 111T695 188Q695 248 644 248Q599
248 581 213T563 138Q563 77 615 77Q658 77 676 111Z" />
<glyph unicode="&amp;" glyph-name="ampersand" horiz-adv-x="755" d="M421 710T467 691T537 637T561 558Q561 501 524 457T402 361L518 234Q556 296 582 365L707 323Q658 227 594 150L691 47L561 -17L494 59Q443 20 389 2T271 -17Q204 -17 155 6T79 69T52 160Q52
228 87 277T208 377Q169 421 153 455T136 531Q136 575 159 616T232 683T359 710Q421 710 467 691ZM322 609T303 589T283 534Q283 511 293 491T325 444Q372 474 393 499T414 555Q414 580 398 594T356 609Q322 609 303 589ZM245 261T231 233T216 171Q216 135 238
115T302 95Q363 95 422 136L285 289Q245 261 231 233Z" />
<glyph unicode="&apos;" glyph-name="quotesingle" horiz-adv-x="229" d="M84 414L104 693H245L187 414H84Z" />
<glyph unicode="(" glyph-name="parenleft" horiz-adv-x="315" d="M380 789Q274 662 224 522T174 222Q174 129 193 54T254 -96L148 -157Q106 -85 80 -31T37 90T20 239Q20 366 50 469T137 662T286 860L380 789Z" />
<glyph unicode=")" glyph-name="parenright" horiz-adv-x="315" d="M233 783T259 730T302 608T319 459Q319 333 288 230T200 37T51 -160L-42 -89Q64 38 114 177T165 477Q165 570 145 645T83 796L191 857Q233 783 259 730Z" />
<glyph unicode="*" glyph-name="asterisk" horiz-adv-x="439" d="M471 536L328 511L413 410L295 330L246 456L165 329L67 409L180 511L43 535L100 659L220 598L216 742H357L315 599L446 662L471 536Z" />
<glyph unicode="+" glyph-name="plus" horiz-adv-x="520" d="M364 549L342 393H491L474 271H325L303 115H174L196 271H48L65 393H213L234 549H364Z" />
<glyph unicode="," glyph-name="comma" horiz-adv-x="241" d="M138 164T160 142T183 85Q183 61 174 37T137 -34L54 -177H-34L34 1Q5 22 5 62Q5 104 33 134T104 164Q138 164 160 142Z" />
<glyph unicode="-" glyph-name="hyphen" horiz-adv-x="398" d="M40 252L57 374H371L354 252H40Z" />
<glyph unicode="." glyph-name="period" horiz-adv-x="240" d="M48 -17T26 6T4 65Q4 105 33 134T103 164Q137 164 159 141T182 83Q182 42 154 13T83 -17Q48 -17 26 6Z" />
<glyph unicode="/" glyph-name="slash" horiz-adv-x="510" d="M379 817L512 785L155 -112L23 -79L379 817Z" />
<glyph unicode="0" glyph-name="zero" horiz-adv-x="576" d="M234 690T166 620T68 447T39 241Q39 116 93 50T251 -17Q361 -17 429 54T526 228T556 434Q556 558 502 624T344 690Q234 690 166 620ZM369 573T385 549T402 467Q402 387 387 302T340 159T260 100Q227
100 211 125T194 209Q194 289 209 373T256 515T336 573Q369 573 385 549Z" />
<glyph unicode="1" glyph-name="one" horiz-adv-x="454" d="M431 676L337 0H185L258 513L102 424L49 538L293 676H431Z" />
<glyph unicode="2" glyph-name="two" horiz-adv-x="507" d="M353 690T400 667T472 604T497 512Q497 460 475 411T384 291T184 120L457 121L423 0H-9L5 114Q155 245 222 310T312 415T336 496Q336 531 316 550T261 569Q226 569 196 552T130 499L44 580Q96 634 155
662T286 690Q353 690 400 667Z" />
<glyph unicode="3" glyph-name="three" horiz-adv-x="510" d="M387 690T439 645T492 528Q492 470 455 425T338 356Q396 350 432 315T469 218Q469 164 439 110T346 19T187 -17Q113 -17 59 10T-29 87L66 165Q93 132 122 118T190 103Q243 103 277 136T311 227Q311
265 288 281T215 298H158L191 407H228Q285 407 311 436T338 507Q338 539 319 556T263 573Q226 573 192 558T123 513L55 603Q109 647 166 668T290 690Q387 690 439 645Z" />
<glyph unicode="4" glyph-name="four" horiz-adv-x="555" d="M535 264L518 146H444L423 0H271L291 146H9L24 251L270 693L399 643L194 264H309L349 424H483L460 264H535Z" />
<glyph unicode="5" glyph-name="five" horiz-adv-x="526" d="M488 563H247L227 421Q274 443 327 443Q402 443 446 395T491 257Q491 195 461 132T365 26T199 -17Q125 -17 74 10T-14 84L81 165Q130 102 203 102Q265 102 299 145T333 250Q333 335 256 335Q234 335
214 330T169 311H63L113 676H522L488 563Z" />
<glyph unicode="6" glyph-name="six" horiz-adv-x="555" d="M438 455T483 407T529 272Q529 210 501 143T412 30T259 -17Q146 -17 92 47T37 227Q37 347 79 453T199 625T383 690Q471 690 530 643L462 552Q425 577 377 577Q321 577 279 530T216 396Q284 455 364 455Q438
455 483 407ZM322 96T347 150T373 268Q373 310 358 328T312 346Q284 346 256 332T202 291Q195 241 195 202Q195 145 211 121T265 96Q322 96 347 150Z" />
<glyph unicode="7" glyph-name="seven" horiz-adv-x="458" d="M499 676L484 569L161 -16L24 32L320 557H52L69 676H499Z" />
<glyph unicode="8" glyph-name="eight" horiz-adv-x="571" d="M533 301T533 204Q533 143 498 93T398 13T247 -17Q174 -17 122 6T43 71T15 166Q15 222 51 270T167 350Q88 401 88 487Q88 539 116 585T201 661T339 690Q434 690 493 647T553 530Q553 479 523 437T424
361Q533 301 533 204ZM281 583T259 556T237 493Q237 464 253 445T305 410L324 403Q371 432 387 461T403 520Q403 550 385 566T331 583Q281 583 259 556ZM315 96T346 127T377 206Q377 236 357 255T289 294L259 305Q211 281 192 247T172 175Q172 138 195 117T261
96Q315 96 346 127Z" />
<glyph unicode="9" glyph-name="nine" horiz-adv-x="550" d="M430 690T488 631T547 473Q547 298 442 159T68 -29L48 83Q181 115 253 163T359 297Q328 266 293 250T215 234Q168 234 131 256T73 321T51 419Q51 484 80 546T170 649T322 690Q430 690 488 631ZM301
345T329 361T382 409Q389 450 389 482Q389 533 371 555T315 577Q257 577 232 530T206 425Q206 384 223 365T271 345Q301 345 329 361Z" />
<glyph unicode=":" glyph-name="colon" horiz-adv-x="240" d="M48 -17T26 6T4 65Q4 105 33 134T103 164Q137 164 159 141T182 83Q182 42 154 13T83 -17Q48 -17 26 6ZM96 329T74 352T52 411Q52 451 81 480T151 510Q185 510 207 487T230 429Q230 388 202 359T131
329Q96 329 74 352Z" />
<glyph unicode=";" glyph-name="semicolon" horiz-adv-x="243" d="M139 164T161 142T184 85Q184 61 175 37T138 -34L55 -177H-33L35 1Q6 22 6 62Q6 104 34 134T105 164Q139 164 161 142ZM99 329T77 352T55 411Q55 451 84 480T154 510Q188 510 210 487T233 429Q233
388 205 359T134 329Q99 329 77 352Z" />
<glyph unicode="&lt;" glyph-name="less" horiz-adv-x="511" d="M470 576L509 458L174 332L468 205L403 90L33 263L53 402L470 576Z" />
<glyph unicode="=" glyph-name="equal" horiz-adv-x="509" d="M63 375L80 497H495L478 375H63ZM289 422L306 544H721L704 422H289Z" />
<glyph unicode="&gt;" glyph-name="greater" horiz-adv-x="509" d="M125 576L495 402L475 263L58 90L21 212L354 336L62 465L125 576Z" />
<glyph unicode="?" glyph-name="question" horiz-adv-x="472" d="M398 710T448 667T498 557Q498 507 479 473T433 419T362 376Q314 351 292 331T269 276Q269 261 271 254L134 233Q126 257 126 281Q126 327 143 358T185 407T250 448Q294 473 314 491T334 541Q334
563 319 574T276 586Q214 586 149 524L60 605Q163 710 303 710Q398 710 448 667ZM154 -17T132 6T110 65Q110 105 139 134T209 164Q243 164 265 141T288 83Q288 42 260 13T189 -17Q154 -17 132 6Z" />
<glyph unicode="@" glyph-name="at" horiz-adv-x="1010" d="M696 710T786 663T923 534T970 350Q970 271 943 191T860 58T722 4Q667 4 633 33T592 103Q537 8 441 8Q367 8 326 55T284 182Q284 255 310 328T397 452T552 503Q594 503 638 491T719 456L680 164Q679
157 679 144Q679 123 687 113T716 102Q753 102 779 141T819 238T832 353Q832 470 764 532T561 595Q426 595 341 532T220 374T183 182Q183 97 217 32T319 -69T482 -105Q526 -105 577 -95T670 -70L695 -181Q644 -200 585 -211T470 -222Q340 -222 243 -171T94 -27T41
183Q41 303 98 424T274 628T571 710Q696 710 786 663ZM515 107T546 161L580 395Q559 403 539 403Q477 403 450 334T423 177Q423 107 472 107Q515 107 546 161Z" />
<glyph unicode="A" glyph-name="A" horiz-adv-x="581" d="M387 0L373 149H172L117 0H-51L252 693H448L556 0H387ZM215 268H361L331 583L215 268Z" />
<glyph unicode="B" glyph-name="B" horiz-adv-x="607" d="M498 355T536 322T574 221Q574 121 498 61T248 0H27L124 693H327Q589 693 589 535Q589 466 546 424T437 366Q498 355 536 322ZM366 416T394 444T423 518Q423 550 400 563T329 577H268L246 416H306Q366
416 394 444ZM345 119T377 149T409 233Q409 307 304 307H230L204 119H262Q345 119 377 149Z" />
<glyph unicode="C" glyph-name="C" d="M526 710T600 628L513 543Q485 566 458 577T397 589Q329 589 286 538T225 413T206 269Q206 188 238 149T328 110Q365 110 397 125T468 168L531 71Q487 32 430 8T303 -17Q182 -17 111 57T39 269Q39 373 76 474T193 643T395
710Q526 710 600 628Z" />
<glyph unicode="D" glyph-name="D" horiz-adv-x="642" d="M455 693T540 636T626 430Q626 241 534 121T234 0H27L124 693H312Q455 693 540 636ZM269 574L205 118H258Q368 118 414 211T461 430Q461 513 425 543T322 574H269Z" />
<glyph unicode="E" glyph-name="E" horiz-adv-x="517" d="M543 693L509 576H269L245 410H455L440 295H230L205 118H462L446 0H27L124 693H543Z" />
<glyph unicode="F" glyph-name="F" horiz-adv-x="479" d="M531 693L498 576H269L243 392H443L427 275H227L188 0H27L124 693H531Z" />
<glyph unicode="G" glyph-name="G" horiz-adv-x="634" d="M553 710T636 622L546 541Q512 568 483 579T415 591Q338 591 291 539T224 408T204 245Q204 169 232 136T317 103Q366 103 414 126L436 283H348L349 399H609L562 56Q506 21 440 2T307 -17Q174 -17 106 53T38
259Q38 371 77 474T202 643T417 710Q553 710 636 622Z" />
<glyph unicode="H" glyph-name="H" horiz-adv-x="656" d="M188 0H27L124 693H285L247 425H452L490 693H651L554 0H393L434 297H230L188 0Z" />
<glyph unicode="I" glyph-name="I" horiz-adv-x="290" d="M285 693L188 0H27L124 693H285Z" />
<glyph unicode="J" glyph-name="J" horiz-adv-x="311" d="M227 104Q215 21 179 -33T91 -117T-30 -170L-59 -53Q-14 -36 11 -14T48 38T66 113L148 693H309L227 104Z" />
<glyph unicode="K" glyph-name="K" horiz-adv-x="623" d="M27 0L124 693H286L189 0H27ZM414 0L246 370L505 693H678L413 372L598 0H414Z" />
<glyph unicode="L" glyph-name="L" horiz-adv-x="506" d="M285 693L207 130H472L438 0H27L124 693H285Z" />
<glyph unicode="M" glyph-name="M" horiz-adv-x="775" d="M705 0H547L572 273Q588 442 610 567L437 73H282L236 565Q233 484 225 414T201 267L153 0H-5L144 693H341L378 212L540 693H750L705 0Z" />
<glyph unicode="N" glyph-name="N" horiz-adv-x="654" d="M552 0H348L220 557Q222 503 222 474Q222 368 205 246L170 0H27L124 693H326L457 136Q454 192 454 240Q454 328 467 420L506 693H649L552 0Z" />
<glyph unicode="O" glyph-name="O" horiz-adv-x="681" d="M527 710T596 636T665 426Q665 321 630 220T514 51T304 -17Q177 -17 108 57T39 267Q39 371 74 472T191 641T401 710Q527 710 596 636ZM320 590T279 534T221 402T205 255Q205 175 232 139T315 103Q384 103
425 159T483 291T499 440Q499 519 472 554T389 590Q320 590 279 534Z" />
<glyph unicode="P" glyph-name="P" horiz-adv-x="591" d="M467 693T534 644T601 500Q601 431 570 370T471 270T296 231H220L188 0H27L124 693H344Q467 693 534 644ZM372 349T403 391T434 492Q434 536 408 556T328 576H269L237 349H296Q372 349 403 391Z" />
<glyph unicode="Q" glyph-name="Q" horiz-adv-x="680" d="M665 306T618 200T469 43Q535 40 579 24T659 -22L546 -148Q499 -85 445 -51T304 -17Q177 -17 108 57T39 267Q39 371 74 472T191 641T401 710Q527 710 596 636T665 426Q665 306 618 200ZM205 173T232 138T315
103Q385 103 426 159T483 293T499 447Q499 521 472 555T389 590Q319 590 278 534T221 401T205 249Q205 173 232 138Z" />
<glyph unicode="R" glyph-name="R" horiz-adv-x="607" d="M601 438T566 383T443 291L573 0H397L292 264L225 265L188 0H27L124 693H347Q471 693 536 645T601 509Q601 438 566 383ZM241 378H312Q376 378 405 414T434 501Q434 541 409 559T330 578H269L241 378Z" />
<glyph unicode="S" glyph-name="S" horiz-adv-x="562" d="M480 710T569 619L483 533Q423 590 343 590Q295 590 267 570T238 513Q238 483 262 465T354 424Q443 395 487 349T532 227Q532 165 502 110T405 19T236 -17Q152 -17 90 10T-16 84L77 176Q143 108 240 108Q297
108 329 133T362 202Q362 236 339 257T253 300Q155 333 112 379T69 494Q69 549 99 598T189 679T338 710Q480 710 569 619Z" />
<glyph unicode="T" glyph-name="T" horiz-adv-x="530" d="M591 693L556 567H388L308 0H147L227 567H50L68 693H591Z" />
<glyph unicode="U" glyph-name="U" horiz-adv-x="641" d="M582 229Q572 157 535 102T433 15T283 -17Q166 -17 106 38T46 188Q46 210 49 232L114 693H275L211 235Q208 213 208 195Q208 149 229 127T295 105Q351 105 381 138T421 238L486 693H647L582 229Z" />
<glyph unicode="V" glyph-name="V" horiz-adv-x="561" d="M634 693L347 0H147L46 693H215L265 128L467 693H634Z" />
<glyph unicode="W" glyph-name="W" horiz-adv-x="837" d="M886 693L675 0H466L455 529L290 0H86L71 693H229L218 124L393 693H563L572 124L731 693H886Z" />
<glyph unicode="X" glyph-name="X" horiz-adv-x="571" d="M618 693L393 373L538 0H365L284 270L132 0H-42L201 368L70 693H243L308 465L445 693H618Z" />
<glyph unicode="Y" glyph-name="Y" horiz-adv-x="584" d="M652 693L372 260L336 0H174L211 259L53 693H225L309 388L478 693H652Z" />
<glyph unicode="Z" glyph-name="Z" horiz-adv-x="534" d="M-20 0L-4 123L360 566H90L108 693H563L546 569L186 130L489 131L455 0H-20Z" />
<glyph unicode="[" glyph-name="bracketleft" horiz-adv-x="314" d="M370 823L354 705H240L140 -6H254L237 -123H-24L110 823H370Z" />
<glyph unicode="\" glyph-name="backslash" horiz-adv-x="510" d="M283 816L390 -81L250 -112L145 785L283 816Z" />
<glyph unicode="]" glyph-name="bracketright" horiz-adv-x="314" d="M362 823L229 -123H-32L-15 -5H99L199 705H85L102 823H362Z" />
<glyph unicode="^" glyph-name="asciicircum" horiz-adv-x="549" d="M426 844L568 527H417L340 726L209 527H54L285 844H426Z" />
<glyph unicode="_" glyph-name="underscore" horiz-adv-x="510" d="M-53 -171L-36 -47H458L440 -171H-53Z" />
<glyph unicode="`" glyph-name="grave" horiz-adv-x="333" d="M161 835L362 701L318 624L94 717L161 835Z" />
<glyph unicode="a" glyph-name="a" horiz-adv-x="572" d="M445 548T547 492L498 152Q496 134 496 129Q496 113 502 104T524 88L479 -14Q433 -10 400 11T356 74Q292 -17 198 -17Q115 -17 71 39T26 194Q26 278 57 359T156 494T330 548Q445 548 547 492ZM278 436T247
399T201 307T187 195Q187 142 202 121T247 99Q300 99 348 173L385 426Q356 436 326 436Q278 436 247 399Z" />
<glyph unicode="b" glyph-name="b" horiz-adv-x="581" d="M471 548T513 494T555 341Q555 254 527 173T429 38T245 -17Q189 -17 136 -6T27 27L127 742L284 759L246 486Q276 515 314 531T392 548Q471 548 513 494ZM278 432T230 371L194 111Q228 98 261 98Q307 98
337 135T381 227T395 338Q395 390 378 411T332 432Q278 432 230 371Z" />
<glyph unicode="c" glyph-name="c" horiz-adv-x="470" d="M428 548T494 480L417 390Q377 427 325 427Q252 427 221 360T190 206Q190 153 211 131T273 108Q300 108 323 116T378 145L436 44Q353 -17 253 -17Q147 -17 87 44T27 212Q27 288 58 365T156 495T324 548Q428
548 494 480Z" />
<glyph unicode="d" glyph-name="d" horiz-adv-x="586" d="M592 742L488 0H350L351 76Q323 34 284 9T193 -17Q111 -17 69 39T26 197Q26 276 53 357T138 493T280 548Q356 548 402 497L438 758L592 742ZM268 433T240 395T199 302T187 196Q187 143 202 121T245 99Q276
99 303 125T360 197L388 395Q373 414 355 423T314 433Q268 433 240 395Z" />
<glyph unicode="e" glyph-name="e" horiz-adv-x="533" d="M524 302T430 255T183 193Q188 99 278 99Q311 99 343 111T413 148L469 54Q371 -17 258 -17Q145 -17 86 43T27 208Q27 288 57 366T156 496T328 548Q421 548 472 507T524 403Q524 302 430 255ZM283 295T325
324T367 396Q367 415 355 429T316 443Q264 443 233 399T190 289Q283 295 325 324Z" />
<glyph unicode="f" glyph-name="f" horiz-adv-x="346" d="M320 642T302 625T278 570L273 531H396L364 421H257L206 58Q195 -25 162 -78T80 -164T-41 -222L-80 -108Q-19 -85 11 -51T50 52L102 421H23L38 531H117L124 580Q135 660 192 709T342 759Q424 759 490 715L435
621Q402 642 355 642Q320 642 302 625Z" />
<glyph unicode="g" glyph-name="g" horiz-adv-x="577" d="M451 548T553 492L487 41Q467 -98 401 -160T208 -223Q159 -223 106 -207T8 -164L61 -61Q137 -103 205 -103Q257 -103 290 -78T334 18L341 69Q313 37 278 19T201 0Q117 0 72 56T27 206Q27 287 58 365T159
496T336 548Q451 548 553 492ZM281 436T249 401T203 314T188 210Q188 117 250 117Q304 117 354 191L391 426Q361 436 331 436Q281 436 249 401Z" />
<glyph unicode="h" glyph-name="h" horiz-adv-x="567" d="M466 548T498 514T530 419Q530 397 528 385L474 0H319L368 351Q370 371 370 377Q370 400 362 409T338 419Q283 419 219 292L178 0H23L127 742L284 758L240 442Q269 490 313 519T409 548Q466 548 498 514Z" />
<glyph unicode="i" glyph-name="i" horiz-adv-x="277" d="M253 531L179 0H24L98 531H253ZM155 631T132 653T109 711Q109 754 138 782T212 810Q249 810 272 788T295 731Q295 688 266 660T192 631Q155 631 132 653Z" />
<glyph unicode="j" glyph-name="j" horiz-adv-x="276" d="M-100 -110Q-39 -85 -9 -51T31 52L97 531H252L186 58Q175 -25 142 -78T60 -164T-61 -222L-100 -110ZM155 631T132 653T109 711Q109 754 138 782T212 810Q249 810 272 788T295 731Q295 688 266 660T192
631Q155 631 132 653Z" />
<glyph unicode="k" glyph-name="k" horiz-adv-x="566" d="M243 462Q318 548 419 548Q484 548 523 513T562 421Q562 359 526 312T417 236L516 0H346L249 256Q333 283 368 316T403 394Q403 438 358 438Q325 438 291 411T224 329L179 0H23L127 742L285 759L243 462Z" />
<glyph unicode="l" glyph-name="l" horiz-adv-x="288" d="M193 143Q191 124 196 116T214 108Q225 108 240 113L259 3Q214 -17 159 -17Q100 -17 68 13T35 103Q35 120 38 139L123 742L279 759L193 143Z" />
<glyph unicode="m" glyph-name="m" horiz-adv-x="831" d="M731 548T762 514T794 420Q794 398 792 386L738 0H583L633 351Q635 371 635 377Q635 401 627 410T603 419Q555 419 500 298L458 0H303L353 351Q355 371 355 376Q355 400 346 409T322 419Q297 419 270 385T220
294L179 0H24L98 531H233L230 444Q263 494 305 521T396 548Q443 548 474 522T512 449Q544 495 587 521T677 548Q731 548 762 514Z" />
<glyph unicode="n" glyph-name="n" horiz-adv-x="568" d="M467 548T499 514T531 420Q531 404 528 384L475 0H320L369 351Q371 371 371 376Q371 400 363 409T338 419Q284 419 221 292L179 0H24L98 531H233L230 438Q265 489 312 518T411 548Q467 548 499 514Z" />
<glyph unicode="o" glyph-name="o" horiz-adv-x="574" d="M145 -17T87 43T28 209Q28 291 57 368T152 497T324 548Q428 548 487 488T546 325Q546 243 517 165T422 35T250 -17Q145 -17 87 43ZM330 99T358 172T387 332Q387 384 369 408T313 432Q244 432 216 358T187
199Q187 147 205 123T261 99Q330 99 358 172Z" />
<glyph unicode="p" glyph-name="p" horiz-adv-x="581" d="M98 531H235V472Q307 548 391 548Q471 548 513 495T555 341Q555 256 527 174T435 38T273 -17Q219 -17 178 -2L148 -206L-7 -223L98 531ZM308 98T338 135T382 227T396 338Q396 390 379 411T332 432Q279
432 231 371L195 111Q228 98 262 98Q308 98 338 135Z" />
<glyph unicode="q" glyph-name="q" horiz-adv-x="575" d="M334 47Q316 22 279 3T197 -17Q115 -17 71 39T26 194Q26 280 57 361T158 495T332 548Q449 548 550 492L452 -206L296 -223L334 47ZM302 99T350 173L387 426Q358 436 328 436Q279 436 248 399T202 307T187
195Q187 142 203 121T249 99Q302 99 350 173Z" />
<glyph unicode="r" glyph-name="r" horiz-adv-x="392" d="M407 546T434 538L389 386Q361 393 345 393Q299 393 269 355T214 246L179 0H24L98 531H233L231 432Q258 487 297 516T381 546Q407 546 434 538Z" />
<glyph unicode="s" glyph-name="s" horiz-adv-x="473" d="M384 548T465 480L396 395Q367 415 335 425T271 436Q237 436 219 424T200 392Q200 378 208 369T237 352T303 329Q372 307 406 268T441 168Q441 117 415 75T335 8T203 -17Q134 -17 76 7T-18 70L61 152Q124
96 204 96Q244 96 265 111T286 149Q286 167 278 177T248 197T181 223Q111 247 79 283T46 377Q46 424 72 462T149 524T270 548Q384 548 465 480Z" />
<glyph unicode="t" glyph-name="t" horiz-adv-x="376" d="M217 176Q215 158 215 152Q215 129 224 119T253 108Q267 108 280 112T313 125L354 22Q322 3 283 -7T209 -17Q136 -17 97 22T58 134Q58 154 61 176L96 421H23L38 531H118L151 649L285 664L266 531H388L355
421H251L217 176Z" />
<glyph unicode="u" glyph-name="u" horiz-adv-x="562" d="M102 -17T69 18T36 115Q36 133 39 152L93 531H248L199 177Q197 157 197 152Q197 128 206 118T234 108Q281 108 336 192L383 531H538L464 0H330L333 79Q259 -17 165 -17Q102 -17 69 18Z" />
<glyph unicode="v" glyph-name="v" horiz-adv-x="503" d="M548 531L311 0H125L31 531H198L235 120L384 531H548Z" />
<glyph unicode="w" glyph-name="w" horiz-adv-x="739" d="M771 531L589 0H405L390 391L266 0H81L44 531H200L197 118L336 531H487L501 118L622 531H771Z" />
<glyph unicode="x" glyph-name="x" horiz-adv-x="504" d="M525 531L348 279L476 0H307L242 195L125 0H-48L159 283L43 531H212L262 360L357 531H525Z" />
<glyph unicode="y" glyph-name="y" horiz-adv-x="507" d="M317 -2Q226 -209 -12 -222L-16 -111Q61 -101 100 -77T171 0H116L31 531H193L228 102L389 531H551L317 -2Z" />
<glyph unicode="z" glyph-name="z" horiz-adv-x="449" d="M465 531L450 420L184 120H413L382 0H-26L-11 112L256 412H52L69 531H465Z" />
<glyph unicode="{" glyph-name="braceleft" horiz-adv-x="314" d="M356 730Q313 730 295 716T272 669L246 482Q238 419 210 391T126 348Q169 338 191 317T213 248Q213 232 210 214L183 28Q182 22 182 11Q182 -12 196 -21T247 -30L235 -140Q130 -140 83 -107T35
-6Q35 15 37 27L62 206Q65 224 65 238Q65 264 52 274T8 285L26 414Q63 414 80 433T104 498L129 677Q137 735 160 770T233 822T370 840L356 730Z" />
<glyph unicode="|" glyph-name="bar" horiz-adv-x="367" d="M332 810L204 -105H59L187 810H332Z" />
<glyph unicode="}" glyph-name="braceright" horiz-adv-x="314" d="M-18 -30Q25 -30 43 -16T66 31L92 218Q100 281 128 309T212 352Q169 362 148 383T126 450Q126 467 129 486L155 672Q156 678 156 689Q156 712 142 721T91 730L103 840Q208 840 255 807T303 706Q303
685 301 673L276 494Q273 476 273 462Q273 436 286 426T330 415L312 286Q275 286 258 267T234 202L209 23Q201 -35 178 -70T105 -122T-32 -140L-18 -30Z" />
<glyph unicode="~" glyph-name="asciitilde" horiz-adv-x="504" d="M297 232T275 241T228 269Q211 281 199 287T173 293Q148 293 132 279T97 237L18 285Q53 341 94 375T192 410Q224 410 245 401T291 374Q308 362 320 356T347 350Q372 350 389 363T423 403L502
355Q468 300 427 266T329 232Q297 232 275 241Z" />
<glyph unicode="&#xa0;" glyph-name="uni00A0" horiz-adv-x="227" />
<glyph unicode="&#xa1;" glyph-name="exclamdown" horiz-adv-x="229" d="M94 329T72 352T50 411Q50 451 79 480T149 510Q183 510 205 487T228 429Q228 388 200 359T129 329Q94 329 72 352ZM176 235L133 -205H-32L50 235H176Z" />
<glyph unicode="&#xa2;" glyph-name="cent" horiz-adv-x="470" d="M436 44Q366 -7 288 -15L267 -161H154L176 -7Q105 13 66 70T27 212Q27 278 51 347T126 469T254 540L275 691H386L366 545Q441 533 494 480L417 390Q377 427 325 427Q252 427 221 360T190 206Q190
153 211 131T273 108Q300 108 323 116T378 145L436 44Z" />
<glyph unicode="&#xa3;" glyph-name="sterling" horiz-adv-x="530" d="M252 194T235 167T179 119H480L446 0H-10L4 114Q42 125 62 140T91 177T104 235L115 311H48L60 393H126L140 490Q153 583 213 636T373 690Q501 690 564 589L463 522Q448 550 429 561T381 572Q304
572 292 486L279 393H461L449 311H268L258 239Q252 194 235 167Z" />
<glyph unicode="&#xa4;" glyph-name="currency" horiz-adv-x="560" d="M501 276T468 223L543 148L474 78L396 154Q343 125 280 125Q217 125 165 155L87 78L17 148L94 224Q61 277 61 342Q61 406 94 459L17 536L87 606L165 528Q217 558 280 558Q344 558 396 528L474
606L543 536L468 460Q501 407 501 342Q501 276 468 223ZM328 231T353 260T378 342Q378 394 353 423T281 452Q233 452 208 423T183 342Q183 289 208 260T281 231Q328 231 353 260Z" />
<glyph unicode="&#xa5;" glyph-name="yen" horiz-adv-x="559" d="M624 676L405 352H500L489 270H359L348 198H479L467 116H337L320 0H165L182 116H51L63 198H193L204 270H73L84 352H180L50 676H212L298 395L461 676H624Z" />
<glyph unicode="&#xa6;" glyph-name="brokenbar" horiz-adv-x="367" d="M332 810L281 443H135L187 810H332ZM256 262L204 -105H59L110 262H256Z" />
<glyph unicode="&#xa7;" glyph-name="section" horiz-adv-x="540" d="M429 438T462 405T496 320Q496 272 470 238T395 177Q440 139 440 82Q440 38 416 1T340 -60T206 -83Q151 -83 103 -67T19 -25L80 67Q139 26 205 26Q291 26 291 76Q291 92 283 103T253 123T187
148Q120 169 87 201T54 285Q54 372 157 425Q111 467 111 523Q111 600 172 644T336 689Q390 689 440 672T529 628L465 541Q409 580 341 580Q260 580 260 529Q260 507 280 493T362 459Q429 438 462 405ZM279 239T318 222Q358 259 358 292Q358 313 341 330T280 361Q254
369 227 381Q194 348 194 313Q194 291 208 276T257 247Q279 239 318 222Z" />
<glyph unicode="&#xa8;" glyph-name="dieresis" horiz-adv-x="450" d="M134 642T114 661T94 711Q94 749 120 774T184 799Q217 799 237 779T257 729Q257 692 231 667T167 642Q134 642 114 661ZM361 642T342 661T322 711Q322 749 348 774T412 799Q445 799 465 779T485
729Q485 692 459 667T394 642Q361 642 342 661Z" />
<glyph unicode="&#xa9;" glyph-name="copyright" horiz-adv-x="810" d="M522 766T599 724T721 605T766 432Q766 336 722 260T600 142T429 99Q336 99 259 141T136 260T91 432Q91 528 136 604T258 723T429 766Q522 766 599 724ZM359 687T303 655T215 565T183 432Q183
358 214 301T302 211T429 179Q499 179 555 211T643 300T675 432Q675 507 643 565T555 655T429 687Q359 687 303 655ZM506 630T562 579L514 519Q495 533 479 538T443 543Q409 543 389 517T368 433Q368 324 441 324Q464 324 483 331T522 353L566 289Q508 236 432
236Q350 236 303 287T255 433Q255 493 277 537T340 606T431 630Q506 630 562 579Z" />
<glyph unicode="&#xaa;" glyph-name="ordfeminine" horiz-adv-x="481" d="M126 264T92 298T58 383Q58 445 108 486T276 528H314L316 541Q317 546 317 555Q317 576 306 584T266 593Q215 593 146 571L126 663Q166 678 211 685T297 693Q374 693 413 663T452 566Q452
548 449 528L433 403Q431 391 431 386Q431 376 436 369T453 358L413 267Q376 269 352 282T314 323Q266 264 184 264Q126 264 92 298ZM269 364T295 395L304 453H279Q201 453 201 397Q201 364 234 364Q269 364 295 395ZM3 0L19 122H421L405 0H3Z" />
<glyph unicode="&#xab;" glyph-name="guillemotleft" horiz-adv-x="618" d="M258 556L348 491L192 285L289 78L186 13L30 234L43 334L258 556ZM527 556L617 491L461 285L558 78L455 13L299 234L312 334L527 556Z" />
<glyph unicode="&#xac;" glyph-name="logicalnot" horiz-adv-x="520" d="M491 390L452 114H316L338 267H47L64 390H491Z" />
<glyph unicode="&#xad;" glyph-name="uni00AD" horiz-adv-x="398" d="M40 252L57 374H371L354 252H40Z" />
<glyph unicode="&#xae;" glyph-name="registered" horiz-adv-x="637" d="M428 759T490 724T588 625T624 484Q624 406 589 344T491 247T350 212Q273 212 210 247T111 344T75 484Q75 562 111 625T210 723T350 759Q428 759 490 724ZM408 279T452 304T521 376T546
484Q546 546 522 593T453 666T350 692Q293 692 249 666T179 593T153 484Q153 423 178 377T248 305T350 279Q408 279 452 304ZM463 519T448 499T405 469L479 352H397L339 454H317V352H246V634H330Q397 634 430 613T463 546Q463 519 448 499ZM317 512H347Q390 512
390 548Q390 580 345 580H317V512Z" />
<glyph unicode="&#xaf;" glyph-name="overscore" horiz-adv-x="361" d="M386 655H85L100 765H401L386 655Z" />
<glyph unicode="&#xb0;" glyph-name="degree" horiz-adv-x="511" d="M162 369T119 409T75 518Q75 574 101 618T172 686T270 710Q338 710 381 670T425 562Q425 506 399 462T328 394T231 369Q162 369 119 409ZM275 460T297 487T319 557Q319 619 263 619Q225 619
203 592T181 522Q181 492 195 476T237 460Q275 460 297 487Z" />
<glyph unicode="&#xb1;" glyph-name="plusminus" horiz-adv-x="520" d="M16 0L33 122H448L431 0H16ZM374 622L352 466H501L484 344H335L313 188H184L206 344H58L75 466H223L244 622H374Z" />
<glyph unicode="&#xb2;" glyph-name="uni00B2" horiz-adv-x="390" d="M324 752T361 719T398 638Q398 596 375 561T316 496T205 410H376L352 321H59L70 405Q94 425 106 434Q197 509 237 550T277 627Q277 645 266 654T236 664Q213 664 195 654T155 620L90 676Q163
752 257 752Q324 752 361 719Z" />
<glyph unicode="&#xb3;" glyph-name="uni00B3" horiz-adv-x="390" d="M326 752T362 724T399 650Q399 609 371 582T292 543Q334 539 359 518T385 455Q385 412 360 379T291 327T196 309Q96 309 47 378L116 435Q149 397 197 397Q227 397 247 413T267 461Q267 482
253 491T209 501H169L194 581H218Q247 581 264 594T282 632Q282 665 239 665Q194 665 149 630L98 694Q171 752 261 752Q326 752 362 724Z" />
<glyph unicode="&#xb4;" glyph-name="acute" horiz-adv-x="334" d="M320 835L368 717L123 622L88 703L320 835Z" />
<glyph unicode="&#xb5;" glyph-name="uni00B5" horiz-adv-x="573" d="M485 128T485 80Q485 32 491 -1L347 -16Q341 5 339 23T337 68Q313 30 284 10T217 -10Q177 -10 154 14Q160 -10 160 -40Q160 -77 154 -115L141 -205L-7 -220L98 531H253L201 161Q200 156 200
146Q200 103 240 103Q264 103 289 118T336 167L386 531H541L492 181Q485 128 485 80Z" />
<glyph unicode="&#xb6;" glyph-name="paragraph" horiz-adv-x="778" d="M722 693L596 -205L459 -223L572 583H479L369 -205L232 -223L300 263Q198 266 146 315T93 447Q93 524 130 579T234 664T389 693H722Z" />
<glyph unicode="&#xb7;" glyph-name="middot" horiz-adv-x="240" d="M81 217T59 240T37 299Q37 339 66 368T136 398Q170 398 192 375T215 317Q215 276 187 247T116 217Q81 217 59 240Z" />
<glyph unicode="&#xb8;" glyph-name="cedilla" horiz-adv-x="317" d="M138 -48Q183 -53 206 -76T229 -138Q229 -168 213 -196T160 -243T70 -262Q4 -262 -39 -230L5 -159Q33 -176 66 -176Q89 -176 102 -168T117 -143Q117 -126 98 -119T31 -112L63 16H149L138 -48Z" />
<glyph unicode="&#xb9;" glyph-name="uni00B9" horiz-adv-x="390" d="M359 742L300 321H186L230 632L133 575L91 653L254 742H359Z" />
<glyph unicode="&#xba;" glyph-name="ordmasculine" horiz-adv-x="490" d="M391 693T439 648T488 518Q488 444 458 387T374 297T248 264Q160 264 111 310T62 439Q62 513 92 570T176 660T303 693Q391 693 439 648ZM248 591T227 545T205 435Q205 366 257 366Q302
366 323 413T345 524Q345 591 294 591Q248 591 227 545ZM0 0L17 122H432L415 0H0Z" />
<glyph unicode="&#xbb;" glyph-name="guillemotright" horiz-adv-x="618" d="M168 556L325 334L312 234L96 13L7 78L164 285L65 491L168 556ZM437 556L594 334L581 234L365 13L276 78L433 285L334 491L437 556Z" />
<glyph unicode="&#xbc;" glyph-name="onequarter" horiz-adv-x="939" d="M352 693L293 272H179L223 583L126 526L84 604L247 693H352ZM695 759L780 714L264 -85L179 -40L695 759ZM903 170L890 84H845L833 0H724L735 84H546L557 162L714 431L806 395L678 170H749L782
265H870L857 170H903Z" />
<glyph unicode="&#xbd;" glyph-name="onehalf" horiz-adv-x="939" d="M352 693L293 272H179L223 583L126 526L84 604L247 693H352ZM695 759L780 714L264 -85L179 -40L695 759ZM828 431T865 398T902 317Q902 275 879 240T820 175T709 89H880L856 0H563L574 84Q598
104 610 113Q701 188 741 229T781 306Q781 324 770 333T740 343Q717 343 699 333T659 299L594 355Q667 431 761 431Q828 431 865 398Z" />
<glyph unicode="&#xbe;" glyph-name="threequarters" horiz-adv-x="939" d="M319 703T355 675T392 601Q392 560 364 533T285 494Q327 490 352 469T378 406Q378 363 353 330T284 278T189 260Q89 260 40 329L109 386Q142 348 190 348Q220 348 240 364T260 412Q260
433 246 442T202 452H162L187 532H211Q240 532 257 545T275 583Q275 616 232 616Q187 616 142 581L91 645Q164 703 254 703Q319 703 355 675ZM695 759L780 714L264 -85L179 -40L695 759ZM903 170L890 84H845L833 0H724L735 84H546L557 162L714 431L806 395L678
170H749L782 265H870L857 170H903Z" />
<glyph unicode="&#xbf;" glyph-name="questiondown" horiz-adv-x="471" d="M311 508T333 485T355 426Q355 386 326 357T256 327Q222 327 200 350T177 408Q177 449 205 478T276 508Q311 508 333 485ZM67 -223T17 -181T-33 -75Q-33 -23 -14 11T32 65T102 108Q135
126 153 138T184 168T196 212Q196 226 194 234L331 255Q339 229 339 206Q339 161 322 131T280 81T216 41Q171 15 151 -4T131 -54Q131 -76 146 -87T190 -98Q252 -98 316 -36L405 -117Q302 -223 162 -223Q67 -223 17 -181Z" />
<glyph unicode="&#xc0;" glyph-name="Agrave" horiz-adv-x="581" d="M387 0L373 149H172L117 0H-51L252 693H448L556 0H387ZM215 268H361L331 583L215 268ZM309 949L509 825L467 748L243 830L309 949Z" />
<glyph unicode="&#xc1;" glyph-name="Aacute" horiz-adv-x="581" d="M387 0L373 149H172L117 0H-51L252 693H448L556 0H387ZM215 268H361L331 583L215 268ZM469 950L518 831L273 747L239 825L469 950Z" />
<glyph unicode="&#xc2;" glyph-name="Acircumflex" horiz-adv-x="581" d="M387 0L373 149H172L117 0H-51L252 693H448L556 0H387ZM215 268H361L331 583L215 268ZM226 755L175 820L332 949H427L548 820L487 755L367 839L226 755Z" />
<glyph unicode="&#xc3;" glyph-name="Atilde" horiz-adv-x="581" d="M387 0L373 149H172L117 0H-51L252 693H448L556 0H387ZM215 268H361L331 583L215 268ZM403 761T389 767T353 788Q340 797 332 801T314 806Q296 806 283 795T253 760L181 802Q208 854 244 886T321
918Q343 918 358 911T393 890Q404 881 412 877T429 873Q445 873 458 883T489 918L562 877Q534 824 498 793T423 761Q403 761 389 767Z" />
<glyph unicode="&#xc4;" glyph-name="Adieresis" horiz-adv-x="581" d="M387 0L373 149H172L117 0H-51L252 693H448L556 0H387ZM215 268H361L331 583L215 268ZM215 768T195 787T175 837Q175 875 201 900T265 925Q298 925 318 905T338 855Q338 818 312 793T248
768Q215 768 195 787ZM442 768T423 787T403 837Q403 875 429 900T493 925Q526 925 546 905T566 855Q566 818 540 793T475 768Q442 768 423 787Z" />
<glyph unicode="&#xc5;" glyph-name="Aring" horiz-adv-x="581" d="M387 0L373 149H172L117 0H-51L252 693H448L556 0H387ZM215 268H361L331 583L215 268ZM447 993T480 960T513 875Q513 837 494 804T439 751T359 731Q303 731 271 764T238 849Q238 886 257 919T312
973T391 993Q447 993 480 960ZM358 913T343 895T328 853Q328 833 338 823T366 812Q392 812 407 829T422 872Q422 892 412 902T384 913Q358 913 343 895Z" />
<glyph unicode="&#xc6;" glyph-name="AE" horiz-adv-x="832" d="M791 576H524L535 408H775L760 293H542L553 118H780L763 0H409L403 149H186L116 0H-58L299 693H824L791 576ZM242 268H398L385 573L242 268Z" />
<glyph unicode="&#xc7;" glyph-name="Ccedilla" d="M447 -2T344 -15L338 -48Q383 -53 406 -76T429 -138Q429 -168 413 -196T360 -243T270 -262Q204 -262 161 -230L205 -159Q233 -176 266 -176Q289 -176 302 -168T317 -143Q317 -126 298 -119T231 -112L256 -14Q155
1 97 73T39 269Q39 373 76 474T193 643T395 710Q526 710 600 628L513 543Q485 566 458 577T397 589Q329 589 286 538T225 413T206 269Q206 188 238 149T328 110Q365 110 397 125T468 168L531 71Q447 -2 344 -15Z" />
<glyph unicode="&#xc8;" glyph-name="Egrave" horiz-adv-x="517" d="M543 693L509 576H269L245 410H455L440 295H230L205 118H462L446 0H27L124 693H543ZM294 949L494 825L452 748L228 830L294 949Z" />
<glyph unicode="&#xc9;" glyph-name="Eacute" horiz-adv-x="517" d="M543 693L509 576H269L245 410H455L440 295H230L205 118H462L446 0H27L124 693H543ZM454 950L503 831L258 747L224 825L454 950Z" />
<glyph unicode="&#xca;" glyph-name="Ecircumflex" horiz-adv-x="517" d="M543 693L509 576H269L245 410H455L440 295H230L205 118H462L446 0H27L124 693H543ZM211 755L160 820L317 949H412L533 820L472 755L352 839L211 755Z" />
<glyph unicode="&#xcb;" glyph-name="Edieresis" horiz-adv-x="517" d="M543 693L509 576H269L245 410H455L440 295H230L205 118H462L446 0H27L124 693H543ZM200 768T180 787T160 837Q160 875 186 900T250 925Q283 925 303 905T323 855Q323 818 297 793T233 768Q200
768 180 787ZM427 768T408 787T388 837Q388 875 414 900T478 925Q511 925 531 905T551 855Q551 818 525 793T460 768Q427 768 408 787Z" />
<glyph unicode="&#xcc;" glyph-name="Igrave" horiz-adv-x="290" d="M285 693L188 0H27L124 693H285ZM164 949L364 825L322 748L98 830L164 949Z" />
<glyph unicode="&#xcd;" glyph-name="Iacute" horiz-adv-x="290" d="M285 693L188 0H27L124 693H285ZM324 950L373 831L128 747L94 825L324 950Z" />
<glyph unicode="&#xce;" glyph-name="Icircumflex" horiz-adv-x="290" d="M285 693L188 0H27L124 693H285ZM81 755L30 820L187 949H282L403 820L342 755L222 839L81 755Z" />
<glyph unicode="&#xcf;" glyph-name="Idieresis" horiz-adv-x="290" d="M285 693L188 0H27L124 693H285ZM70 768T50 787T30 837Q30 875 56 900T120 925Q153 925 173 905T193 855Q193 818 167 793T103 768Q70 768 50 787ZM297 768T278 787T258 837Q258 875 284
900T348 925Q381 925 401 905T421 855Q421 818 395 793T330 768Q297 768 278 787Z" />
<glyph unicode="&#xd0;" glyph-name="Eth" horiz-adv-x="651" d="M464 693T549 636T635 430Q635 241 543 121T243 0H36L79 304H16L29 402H92L133 693H321Q464 693 549 636ZM377 118T423 211T470 430Q470 513 434 543T331 574H278L254 402H387L373 304H240L214
118H267Q377 118 423 211Z" />
<glyph unicode="&#xd1;" glyph-name="Ntilde" horiz-adv-x="654" d="M552 0H348L220 557Q222 503 222 474Q222 368 205 246L170 0H27L124 693H326L457 136Q454 192 454 240Q454 328 467 420L506 693H649L552 0ZM444 761T430 767T394 788Q381 797 373 801T355 806Q337
806 324 795T294 760L222 802Q249 854 285 886T362 918Q384 918 399 911T434 890Q445 881 453 877T470 873Q486 873 499 883T530 918L603 877Q575 824 539 793T464 761Q444 761 430 767Z" />
<glyph unicode="&#xd2;" glyph-name="Ograve" horiz-adv-x="681" d="M527 710T596 636T665 426Q665 321 630 220T514 51T304 -17Q177 -17 108 57T39 267Q39 371 74 472T191 641T401 710Q527 710 596 636ZM320 590T279 534T221 402T205 255Q205 175 232 139T315
103Q384 103 425 159T483 291T499 440Q499 519 472 554T389 590Q320 590 279 534ZM361 949L561 825L519 748L295 830L361 949Z" />
<glyph unicode="&#xd3;" glyph-name="Oacute" horiz-adv-x="681" d="M527 710T596 636T665 426Q665 321 630 220T514 51T304 -17Q177 -17 108 57T39 267Q39 371 74 472T191 641T401 710Q527 710 596 636ZM320 590T279 534T221 402T205 255Q205 175 232 139T315
103Q384 103 425 159T483 291T499 440Q499 519 472 554T389 590Q320 590 279 534ZM521 950L570 831L325 747L291 825L521 950Z" />
<glyph unicode="&#xd4;" glyph-name="Ocircumflex" horiz-adv-x="681" d="M527 710T596 636T665 426Q665 321 630 220T514 51T304 -17Q177 -17 108 57T39 267Q39 371 74 472T191 641T401 710Q527 710 596 636ZM320 590T279 534T221 402T205 255Q205 175 232 139T315
103Q384 103 425 159T483 291T499 440Q499 519 472 554T389 590Q320 590 279 534ZM278 755L227 820L384 949H479L600 820L539 755L419 839L278 755Z" />
<glyph unicode="&#xd5;" glyph-name="Otilde" horiz-adv-x="681" d="M527 710T596 636T665 426Q665 321 630 220T514 51T304 -17Q177 -17 108 57T39 267Q39 371 74 472T191 641T401 710Q527 710 596 636ZM320 590T279 534T221 402T205 255Q205 175 232 139T315
103Q384 103 425 159T483 291T499 440Q499 519 472 554T389 590Q320 590 279 534ZM455 761T441 767T405 788Q392 797 384 801T366 806Q348 806 335 795T305 760L233 802Q260 854 296 886T373 918Q395 918 410 911T445 890Q456 881 464 877T481 873Q497 873 510
883T541 918L614 877Q586 824 550 793T475 761Q455 761 441 767Z" />
<glyph unicode="&#xd6;" glyph-name="Odieresis" horiz-adv-x="681" d="M527 710T596 636T665 426Q665 321 630 220T514 51T304 -17Q177 -17 108 57T39 267Q39 371 74 472T191 641T401 710Q527 710 596 636ZM320 590T279 534T221 402T205 255Q205 175 232 139T315
103Q384 103 425 159T483 291T499 440Q499 519 472 554T389 590Q320 590 279 534ZM267 768T247 787T227 837Q227 875 253 900T317 925Q350 925 370 905T390 855Q390 818 364 793T300 768Q267 768 247 787ZM494 768T475 787T455 837Q455 875 481 900T545 925Q578
925 598 905T618 855Q618 818 592 793T527 768Q494 768 475 787Z" />
<glyph unicode="&#xd7;" glyph-name="multiply" horiz-adv-x="510" d="M401 510L477 423L346 309L446 187L350 103L254 223L121 103L44 190L175 305L76 426L172 510L268 391L401 510Z" />
<glyph unicode="&#xd8;" glyph-name="Oslash" horiz-adv-x="681" d="M612 630T638 570T665 426Q665 321 630 220T514 51T304 -17Q277 -17 253 -14L200 -134L82 -102L141 29Q91 64 65 124T39 267Q39 371 74 472T191 641T401 710Q426 710 450 707L504 828L621 795L562
665Q612 630 638 570ZM319 590T278 534T219 400T202 249Q202 179 221 144L414 589Q406 590 389 590Q319 590 278 534ZM385 103T426 159T485 294T502 447Q502 518 483 550L290 104Q298 103 315 103Q385 103 426 159Z" />
<glyph unicode="&#xd9;" glyph-name="Ugrave" horiz-adv-x="641" d="M582 229Q572 157 535 102T433 15T283 -17Q166 -17 106 38T46 188Q46 210 49 232L114 693H275L211 235Q208 213 208 195Q208 149 229 127T295 105Q351 105 381 138T421 238L486 693H647L582
229ZM340 949L540 825L498 748L274 830L340 949Z" />
<glyph unicode="&#xda;" glyph-name="Uacute" horiz-adv-x="641" d="M582 229Q572 157 535 102T433 15T283 -17Q166 -17 106 38T46 188Q46 210 49 232L114 693H275L211 235Q208 213 208 195Q208 149 229 127T295 105Q351 105 381 138T421 238L486 693H647L582
229ZM500 950L549 831L304 747L270 825L500 950Z" />
<glyph unicode="&#xdb;" glyph-name="Ucircumflex" horiz-adv-x="641" d="M582 229Q572 157 535 102T433 15T283 -17Q166 -17 106 38T46 188Q46 210 49 232L114 693H275L211 235Q208 213 208 195Q208 149 229 127T295 105Q351 105 381 138T421 238L486 693H647L582
229ZM257 755L206 820L363 949H458L579 820L518 755L398 839L257 755Z" />
<glyph unicode="&#xdc;" glyph-name="Udieresis" horiz-adv-x="641" d="M582 229Q572 157 535 102T433 15T283 -17Q166 -17 106 38T46 188Q46 210 49 232L114 693H275L211 235Q208 213 208 195Q208 149 229 127T295 105Q351 105 381 138T421 238L486 693H647L582
229ZM246 768T226 787T206 837Q206 875 232 900T296 925Q329 925 349 905T369 855Q369 818 343 793T279 768Q246 768 226 787ZM473 768T454 787T434 837Q434 875 460 900T524 925Q557 925 577 905T597 855Q597 818 571 793T506 768Q473 768 454 787Z" />
<glyph unicode="&#xdd;" glyph-name="Yacute" horiz-adv-x="584" d="M652 693L372 260L336 0H174L211 259L53 693H225L309 388L478 693H652ZM472 950L521 831L276 747L242 825L472 950Z" />
<glyph unicode="&#xde;" glyph-name="Thorn" horiz-adv-x="591" d="M452 585T519 536T586 386Q586 320 557 258T459 155T279 114H204L188 0H27L124 693H285L270 585H328Q452 585 519 536ZM355 232T387 277T419 382Q419 468 313 468H254L220 232H279Q355 232 387 277Z" />
<glyph unicode="&#xdf;" glyph-name="germandbls" horiz-adv-x="594" d="M-100 -108Q-40 -85 -10 -55T29 38L98 535Q112 641 179 700T358 759Q447 759 495 719T544 616Q544 574 525 548T470 493Q444 472 432 458T420 423Q420 404 432 390T471 354Q500 330 519
311T551 260T565 186Q565 137 541 90T467 13T342 -17Q307 -17 275 -9T218 13L276 117Q302 104 329 104Q370 104 387 127T405 178Q405 208 390 229T345 276Q313 304 297 328T280 388Q280 431 296 458T344 514Q371 539 383 557T396 604Q396 625 383 636T346 648Q268
648 253 536L187 58Q176 -25 143 -78T60 -164T-61 -222L-100 -108Z" />
<glyph unicode="&#xe0;" glyph-name="agrave" horiz-adv-x="572" d="M445 548T547 492L498 152Q496 134 496 129Q496 113 502 104T524 88L479 -14Q433 -10 400 11T356 74Q292 -17 198 -17Q115 -17 71 39T26 194Q26 278 57 359T156 494T330 548Q445 548 547 492ZM278
436T247 399T201 307T187 195Q187 142 202 121T247 99Q300 99 348 173L385 426Q356 436 326 436Q278 436 247 399ZM313 835L514 701L470 624L246 717L313 835Z" />
<glyph unicode="&#xe1;" glyph-name="aacute" horiz-adv-x="572" d="M445 548T547 492L498 152Q496 134 496 129Q496 113 502 104T524 88L479 -14Q433 -10 400 11T356 74Q292 -17 198 -17Q115 -17 71 39T26 194Q26 278 57 359T156 494T330 548Q445 548 547 492ZM278
436T247 399T201 307T187 195Q187 142 202 121T247 99Q300 99 348 173L385 426Q356 436 326 436Q278 436 247 399ZM462 835L510 717L265 622L230 703L462 835Z" />
<glyph unicode="&#xe2;" glyph-name="acircumflex" horiz-adv-x="572" d="M445 548T547 492L498 152Q496 134 496 129Q496 113 502 104T524 88L479 -14Q433 -10 400 11T356 74Q292 -17 198 -17Q115 -17 71 39T26 194Q26 278 57 359T156 494T330 548Q445 548 547
492ZM278 436T247 399T201 307T187 195Q187 142 202 121T247 99Q300 99 348 173L385 426Q356 436 326 436Q278 436 247 399ZM227 620L177 685L334 822H429L549 685L486 620L369 712L227 620Z" />
<glyph unicode="&#xe3;" glyph-name="atilde" horiz-adv-x="572" d="M445 548T547 492L498 152Q496 134 496 129Q496 113 502 104T524 88L479 -14Q433 -10 400 11T356 74Q292 -17 198 -17Q115 -17 71 39T26 194Q26 278 57 359T156 494T330 548Q445 548 547 492ZM278
436T247 399T201 307T187 195Q187 142 202 121T247 99Q300 99 348 173L385 426Q356 436 326 436Q278 436 247 399ZM402 635T388 641T352 662Q339 671 331 675T313 680Q295 680 282 669T252 634L180 676Q207 728 243 760T320 792Q342 792 357 785T392 764Q403 755
411 751T428 747Q444 747 457 757T488 792L561 751Q533 698 497 667T422 635Q402 635 388 641Z" />
<glyph unicode="&#xe4;" glyph-name="adieresis" horiz-adv-x="572" d="M445 548T547 492L498 152Q496 134 496 129Q496 113 502 104T524 88L479 -14Q433 -10 400 11T356 74Q292 -17 198 -17Q115 -17 71 39T26 194Q26 278 57 359T156 494T330 548Q445 548 547
492ZM278 436T247 399T201 307T187 195Q187 142 202 121T247 99Q300 99 348 173L385 426Q356 436 326 436Q278 436 247 399ZM215 642T195 661T175 711Q175 749 201 774T265 799Q298 799 318 779T338 729Q338 692 312 667T248 642Q215 642 195 661ZM442 642T423
661T403 711Q403 749 429 774T493 799Q526 799 546 779T566 729Q566 692 540 667T475 642Q442 642 423 661Z" />
<glyph unicode="&#xe5;" glyph-name="aring" horiz-adv-x="572" d="M445 548T547 492L498 152Q496 134 496 129Q496 113 502 104T524 88L479 -14Q433 -10 400 11T356 74Q292 -17 198 -17Q115 -17 71 39T26 194Q26 278 57 359T156 494T330 548Q445 548 547 492ZM278
436T247 399T201 307T187 195Q187 142 202 121T247 99Q300 99 348 173L385 426Q356 436 326 436Q278 436 247 399ZM444 867T477 834T510 749Q510 711 491 678T436 625T356 605Q300 605 268 638T235 723Q235 760 254 793T309 847T388 867Q444 867 477 834ZM355 787T340
769T325 727Q325 707 335 697T363 686Q389 686 404 703T419 746Q419 766 409 776T381 787Q355 787 340 769Z" />
<glyph unicode="&#xe6;" glyph-name="ae" horiz-adv-x="833" d="M349 548T387 530T449 477Q479 509 526 528T629 548Q691 548 735 529T802 477T825 403Q825 301 730 255T483 194Q485 142 510 121T578 99Q612 99 643 111T714 148L770 54Q672 -17 559 -17Q490 -17
442 5T367 71Q324 23 277 3T172 -17Q97 -17 53 22T9 127Q9 210 72 266T285 322H344Q349 344 354 358T361 375Q357 402 331 417T266 432Q202 432 123 406L99 511Q198 548 288 548Q349 548 387 530ZM562 443T532 399T490 290Q583 298 625 327T668 394Q668 415 656
429T614 443Q562 443 532 399ZM288 231Q233 231 203 211T173 147Q173 96 226 96Q255 96 280 111T333 158Q329 180 331 231H288Z" />
<glyph unicode="&#xe7;" glyph-name="ccedilla" horiz-adv-x="470" d="M361 -11T277 -16L272 -48Q317 -53 340 -76T363 -138Q363 -168 347 -196T294 -243T204 -262Q138 -262 95 -230L139 -159Q167 -176 200 -176Q223 -176 236 -168T251 -143Q251 -126 232 -119T165
-112L190 -11Q112 6 70 64T27 212Q27 288 58 365T156 495T324 548Q428 548 494 480L417 390Q377 427 325 427Q252 427 221 360T190 206Q190 153 211 131T273 108Q300 108 323 116T378 145L436 44Q361 -11 277 -16Z" />
<glyph unicode="&#xe8;" glyph-name="egrave" horiz-adv-x="533" d="M524 302T430 255T183 193Q188 99 278 99Q311 99 343 111T413 148L469 54Q371 -17 258 -17Q145 -17 86 43T27 208Q27 288 57 366T156 496T328 548Q421 548 472 507T524 403Q524 302 430 255ZM283
295T325 324T367 396Q367 415 355 429T316 443Q264 443 233 399T190 289Q283 295 325 324ZM284 835L485 701L441 624L217 717L284 835Z" />
<glyph unicode="&#xe9;" glyph-name="eacute" horiz-adv-x="533" d="M524 302T430 255T183 193Q188 99 278 99Q311 99 343 111T413 148L469 54Q371 -17 258 -17Q145 -17 86 43T27 208Q27 288 57 366T156 496T328 548Q421 548 472 507T524 403Q524 302 430 255ZM283
295T325 324T367 396Q367 415 355 429T316 443Q264 443 233 399T190 289Q283 295 325 324ZM433 835L481 717L236 622L201 703L433 835Z" />
<glyph unicode="&#xea;" glyph-name="ecircumflex" horiz-adv-x="533" d="M524 302T430 255T183 193Q188 99 278 99Q311 99 343 111T413 148L469 54Q371 -17 258 -17Q145 -17 86 43T27 208Q27 288 57 366T156 496T328 548Q421 548 472 507T524 403Q524 302 430
255ZM283 295T325 324T367 396Q367 415 355 429T316 443Q264 443 233 399T190 289Q283 295 325 324ZM198 620L148 685L305 822H400L520 685L457 620L340 712L198 620Z" />
<glyph unicode="&#xeb;" glyph-name="edieresis" horiz-adv-x="533" d="M524 302T430 255T183 193Q188 99 278 99Q311 99 343 111T413 148L469 54Q371 -17 258 -17Q145 -17 86 43T27 208Q27 288 57 366T156 496T328 548Q421 548 472 507T524 403Q524 302 430 255ZM283
295T325 324T367 396Q367 415 355 429T316 443Q264 443 233 399T190 289Q283 295 325 324ZM186 642T166 661T146 711Q146 749 172 774T236 799Q269 799 289 779T309 729Q309 692 283 667T219 642Q186 642 166 661ZM413 642T394 661T374 711Q374 749 400 774T464
799Q497 799 517 779T537 729Q537 692 511 667T446 642Q413 642 394 661Z" />
<glyph unicode="&#xec;" glyph-name="igrave" horiz-adv-x="277" d="M253 531L179 0H24L98 531H253ZM144 835L345 701L301 624L77 717L144 835Z" />
<glyph unicode="&#xed;" glyph-name="iacute" horiz-adv-x="277" d="M253 531L179 0H24L98 531H253ZM293 835L341 717L96 622L61 703L293 835Z" />
<glyph unicode="&#xee;" glyph-name="icircumflex" horiz-adv-x="277" d="M253 531L179 0H24L98 531H253ZM58 620L8 685L165 822H260L380 685L317 620L200 712L58 620Z" />
<glyph unicode="&#xef;" glyph-name="idieresis" horiz-adv-x="277" d="M253 531L179 0H24L98 531H253ZM46 642T26 661T6 711Q6 749 32 774T96 799Q129 799 149 779T169 729Q169 692 143 667T79 642Q46 642 26 661ZM273 642T254 661T234 711Q234 749 260 774T324
799Q357 799 377 779T397 729Q397 692 371 667T306 642Q273 642 254 661Z" />
<glyph unicode="&#xf0;" glyph-name="eth" horiz-adv-x="574" d="M477 612T509 540T542 375Q542 263 508 174T406 34T244 -17Q180 -17 131 8T53 80T24 194Q24 262 51 328T133 436T264 479Q305 479 336 467T392 432Q384 480 366 515T312 584L250 528L157 574L222
634Q185 646 136 655L179 758Q252 745 316 719L400 798L471 727L406 668Q477 612 509 540ZM318 98T345 157T384 328Q352 369 295 369Q235 369 209 315T182 190Q182 98 255 98Q318 98 345 157Z" />
<glyph unicode="&#xf1;" glyph-name="ntilde" horiz-adv-x="568" d="M467 548T499 514T531 420Q531 404 528 384L475 0H320L369 351Q371 371 371 376Q371 400 363 409T338 419Q284 419 221 292L179 0H24L98 531H233L230 438Q265 489 312 518T411 548Q467 548 499
514ZM382 635T368 641T332 662Q319 671 311 675T293 680Q275 680 262 669T232 634L160 676Q187 728 223 760T300 792Q322 792 337 785T372 764Q383 755 391 751T408 747Q424 747 437 757T468 792L541 751Q513 698 477 667T402 635Q382 635 368 641Z" />
<glyph unicode="&#xf2;" glyph-name="ograve" horiz-adv-x="574" d="M145 -17T87 43T28 209Q28 291 57 368T152 497T324 548Q428 548 487 488T546 325Q546 243 517 165T422 35T250 -17Q145 -17 87 43ZM330 99T358 172T387 332Q387 384 369 408T313 432Q244 432
216 358T187 199Q187 147 205 123T261 99Q330 99 358 172ZM288 835L489 701L445 624L221 717L288 835Z" />
<glyph unicode="&#xf3;" glyph-name="oacute" horiz-adv-x="574" d="M145 -17T87 43T28 209Q28 291 57 368T152 497T324 548Q428 548 487 488T546 325Q546 243 517 165T422 35T250 -17Q145 -17 87 43ZM330 99T358 172T387 332Q387 384 369 408T313 432Q244 432
216 358T187 199Q187 147 205 123T261 99Q330 99 358 172ZM437 835L485 717L240 622L205 703L437 835Z" />
<glyph unicode="&#xf4;" glyph-name="ocircumflex" horiz-adv-x="574" d="M145 -17T87 43T28 209Q28 291 57 368T152 497T324 548Q428 548 487 488T546 325Q546 243 517 165T422 35T250 -17Q145 -17 87 43ZM330 99T358 172T387 332Q387 384 369 408T313 432Q244
432 216 358T187 199Q187 147 205 123T261 99Q330 99 358 172ZM202 620L152 685L309 822H404L524 685L461 620L344 712L202 620Z" />
<glyph unicode="&#xf5;" glyph-name="otilde" horiz-adv-x="574" d="M145 -17T87 43T28 209Q28 291 57 368T152 497T324 548Q428 548 487 488T546 325Q546 243 517 165T422 35T250 -17Q145 -17 87 43ZM330 99T358 172T387 332Q387 384 369 408T313 432Q244 432
216 358T187 199Q187 147 205 123T261 99Q330 99 358 172ZM377 635T363 641T327 662Q314 671 306 675T288 680Q270 680 257 669T227 634L155 676Q182 728 218 760T295 792Q317 792 332 785T367 764Q378 755 386 751T403 747Q419 747 432 757T463 792L536 751Q508
698 472 667T397 635Q377 635 363 641Z" />
<glyph unicode="&#xf6;" glyph-name="odieresis" horiz-adv-x="574" d="M145 -17T87 43T28 209Q28 291 57 368T152 497T324 548Q428 548 487 488T546 325Q546 243 517 165T422 35T250 -17Q145 -17 87 43ZM330 99T358 172T387 332Q387 384 369 408T313 432Q244
432 216 358T187 199Q187 147 205 123T261 99Q330 99 358 172ZM190 642T170 661T150 711Q150 749 176 774T240 799Q273 799 293 779T313 729Q313 692 287 667T223 642Q190 642 170 661ZM417 642T398 661T378 711Q378 749 404 774T468 799Q501 799 521 779T541 729Q541
692 515 667T450 642Q417 642 398 661Z" />
<glyph unicode="&#xf7;" glyph-name="divide" horiz-adv-x="509" d="M189 1T167 24T145 83Q145 123 174 152T244 182Q278 182 300 159T323 101Q323 60 295 31T224 1Q189 1 167 24ZM256 483T234 506T212 565Q212 605 241 634T311 664Q345 664 367 641T390 583Q390
542 362 513T291 483Q256 483 234 506ZM48 271L65 393H480L463 271H48Z" />
<glyph unicode="&#xf8;" glyph-name="oslash" horiz-adv-x="574" d="M504 478T525 431T546 326Q546 244 517 166T422 35T250 -17Q237 -17 215 -15L162 -135L52 -101L110 25Q70 54 49 101T28 209Q28 291 57 368T152 497T324 548Q337 548 359 546L414 667L524 633L464
506Q504 478 525 431ZM263 432T231 394T186 302T173 202Q173 157 187 132L326 432H315Q263 432 231 394ZM312 99T343 137T387 228T400 327Q400 371 387 394L249 99H260Q312 99 343 137Z" />
<glyph unicode="&#xf9;" glyph-name="ugrave" horiz-adv-x="562" d="M102 -17T69 18T36 115Q36 133 39 152L93 531H248L199 177Q197 157 197 152Q197 128 206 118T234 108Q281 108 336 192L383 531H538L464 0H330L333 79Q259 -17 165 -17Q102 -17 69 18ZM285 835L486
701L442 624L218 717L285 835Z" />
<glyph unicode="&#xfa;" glyph-name="uacute" horiz-adv-x="562" d="M102 -17T69 18T36 115Q36 133 39 152L93 531H248L199 177Q197 157 197 152Q197 128 206 118T234 108Q281 108 336 192L383 531H538L464 0H330L333 79Q259 -17 165 -17Q102 -17 69 18ZM434 835L482
717L237 622L202 703L434 835Z" />
<glyph unicode="&#xfb;" glyph-name="ucircumflex" horiz-adv-x="562" d="M102 -17T69 18T36 115Q36 133 39 152L93 531H248L199 177Q197 157 197 152Q197 128 206 118T234 108Q281 108 336 192L383 531H538L464 0H330L333 79Q259 -17 165 -17Q102 -17 69 18ZM199
620L149 685L306 822H401L521 685L458 620L341 712L199 620Z" />
<glyph unicode="&#xfc;" glyph-name="udieresis" horiz-adv-x="562" d="M102 -17T69 18T36 115Q36 133 39 152L93 531H248L199 177Q197 157 197 152Q197 128 206 118T234 108Q281 108 336 192L383 531H538L464 0H330L333 79Q259 -17 165 -17Q102 -17 69 18ZM187
642T167 661T147 711Q147 749 173 774T237 799Q270 799 290 779T310 729Q310 692 284 667T220 642Q187 642 167 661ZM414 642T395 661T375 711Q375 749 401 774T465 799Q498 799 518 779T538 729Q538 692 512 667T447 642Q414 642 395 661Z" />
<glyph unicode="&#xfd;" glyph-name="yacute" horiz-adv-x="507" d="M317 -2Q226 -209 -12 -222L-16 -111Q61 -101 100 -77T171 0H116L31 531H193L228 102L389 531H551L317 -2ZM409 835L457 717L212 622L177 703L409 835Z" />
<glyph unicode="&#xfe;" glyph-name="thorn" horiz-adv-x="581" d="M471 548T513 495T555 341Q555 255 528 174T436 38T270 -17Q219 -17 178 -2L149 -206L-8 -223L127 742L284 759L246 487Q276 515 314 531T391 548Q471 548 513 495ZM307 98T337 135T381 227T395
338Q395 390 378 411T331 432Q278 432 230 371L194 111Q228 98 261 98Q307 98 337 135Z" />
<glyph unicode="&#xff;" glyph-name="ydieresis" horiz-adv-x="507" d="M317 -2Q226 -209 -12 -222L-16 -111Q61 -101 100 -77T171 0H116L31 531H193L228 102L389 531H551L317 -2ZM162 642T142 661T122 711Q122 749 148 774T212 799Q245 799 265 779T285 729Q285
692 259 667T195 642Q162 642 142 661ZM389 642T370 661T350 711Q350 749 376 774T440 799Q473 799 493 779T513 729Q513 692 487 667T422 642Q389 642 370 661Z" />
<glyph unicode="&#x2013;" glyph-name="endash" horiz-adv-x="510" d="M18 252L36 374H505L488 252H18Z" />
<glyph unicode="&#x2014;" glyph-name="emdash" horiz-adv-x="781" d="M18 252L36 374H776L759 252H18Z" />
<glyph unicode="&#x2018;" glyph-name="quoteleft" horiz-adv-x="239" d="M117 461T96 480T75 532Q75 555 82 574T108 623L197 766H278L213 607Q242 585 242 547Q242 511 216 486T151 461Q117 461 96 480Z" />
<glyph unicode="&#x2019;" glyph-name="quoteright" horiz-adv-x="239" d="M220 766T241 747T262 695Q262 672 255 653T229 604L140 461H59L124 620Q95 642 95 680Q95 716 121 741T186 766Q220 766 241 747Z" />
<glyph unicode="&#x201a;" glyph-name="quotesinglbase" horiz-adv-x="240" d="M132 142T153 123T174 71Q174 48 167 29T141 -20L52 -163H-29L36 -4Q7 18 7 56Q7 92 33 117T98 142Q132 142 153 123Z" />
<glyph unicode="&#x201c;" glyph-name="quotedblleft" horiz-adv-x="445" d="M118 461T97 480T76 532Q76 555 83 574T109 623L198 766H279L214 607Q243 585 243 547Q243 511 217 486T152 461Q118 461 97 480ZM323 461T302 480T281 532Q281 555 288 574T314 623L403
766H484L419 607Q448 585 448 547Q448 511 422 486T357 461Q323 461 302 480Z" />
<glyph unicode="&#x201d;" glyph-name="quotedblright" horiz-adv-x="445" d="M220 766T241 747T262 695Q262 672 255 653T229 604L140 461H59L124 620Q95 642 95 680Q95 716 121 741T186 766Q220 766 241 747ZM425 766T446 747T467 695Q467 672 460 653T434 604L345
461H264L329 620Q300 642 300 680Q300 716 326 741T391 766Q425 766 446 747Z" />
<glyph unicode="&#x201e;" glyph-name="quotedblbase" horiz-adv-x="445" d="M132 142T153 123T174 71Q174 48 167 29T141 -20L52 -163H-29L36 -4Q7 18 7 56Q7 92 33 117T98 142Q132 142 153 123ZM337 142T358 123T379 71Q379 48 372 29T346 -20L257 -163H176L241
-4Q212 18 212 56Q212 92 238 117T303 142Q337 142 358 123Z" />
<glyph unicode="&#x2022;" glyph-name="bullet" horiz-adv-x="337" d="M249 479T282 446T316 360Q316 317 295 281T239 225T162 204Q109 204 76 237T42 324Q42 367 63 402T119 458T196 479Q249 479 282 446Z" />
<glyph unicode="&#x2039;" glyph-name="guilsinglleft" horiz-adv-x="350" d="M258 556L348 491L192 285L289 78L186 13L30 234L43 334L258 556Z" />
<glyph unicode="&#x203a;" glyph-name="guilsinglright" horiz-adv-x="350" d="M168 556L325 334L312 234L96 13L7 78L164 285L65 491L168 556Z" />
</font>
</defs>
</svg>
