<?xml version="1.0" standalone="no"?>
<!DOCTYPE svg PUBLIC "-//W3C//DTD SVG 1.1//EN" "http://www.w3.org/Graphics/SVG/1.1/DTD/svg11.dtd">
<svg xmlns="http://www.w3.org/2000/svg">
<defs >
<font id="FiraSans" horiz-adv-x="542" ><font-face
    font-family="Fira Sans Light"
    units-per-em="1000"
    panose-1="2 11 4 3 5 0 0 2 0 4"
    ascent="935"
    descent="-265"
    alphabetic="0" />
<glyph unicode=" " glyph-name="space" horiz-adv-x="276" />
<glyph unicode="!" glyph-name="exclam" horiz-adv-x="238" d="M86 218L147 685H209L138 218H86ZM67 -11T55 1T43 33Q43 55 57 70T94 85Q114 85 126 73T138 41Q138 19 123 4T86 -11Q67 -11 55 1Z" />
<glyph unicode="&quot;" glyph-name="quotedbl" horiz-adv-x="360" d="M103 433L129 685H192L147 433H103ZM261 433L287 685H350L305 433H261Z" />
<glyph unicode="#" glyph-name="numbersign" horiz-adv-x="501" d="M513 452H434L373 227H445L438 180H360L311 0H257L306 180H128L79 0H26L75 180H3L10 227H88L149 452H79L85 499H162L207 665H261L216 499H394L439 665H492L447 499H519L513 452ZM319 227L381
452H203L141 227H319Z" />
<glyph unicode="$" glyph-name="dollar" horiz-adv-x="522" d="M374 352T417 311T461 202Q461 151 439 105T368 28T247 -10L227 -151H176L196 -11Q140 -7 94 15T12 73L49 108Q116 39 218 39Q306 39 353 84T401 198Q401 245 370 275T266 330Q178 359 138 398T98
499Q98 576 150 623T293 675L312 819H363L342 673Q388 668 425 650T496 600L460 564Q395 626 307 626Q239 626 198 594T157 502Q157 457 187 429T291 378Q374 352 417 311Z" />
<glyph unicode="%" glyph-name="percent" horiz-adv-x="791" d="M669 703L110 4L150 -24L709 675L669 703ZM159 351T123 388T87 486Q87 529 105 573T161 646T257 676Q317 676 352 640T388 543Q388 499 371 455T315 381T218 351Q159 351 123 388ZM262 393T288 418T324
479T335 544Q335 585 317 609T258 634Q214 634 188 609T151 550T140 484Q140 443 159 418T218 393Q262 393 288 418ZM494 -11T458 26T422 124Q422 168 440 212T496 285T593 315Q652 315 688 279T724 181Q724 138 707 94T651 19T553 -11Q494 -11 458 26ZM597 32T623
57T660 117T671 182Q671 223 653 247T593 272Q549 272 523 247T486 188T475 122Q475 81 494 57T553 32Q597 32 623 57Z" />
<glyph unicode="&amp;" glyph-name="ampersand" horiz-adv-x="720" d="M420 696T464 658T509 562Q509 500 468 458T327 364L504 172Q556 259 592 345L644 326Q596 218 537 136L641 23L594 -10L500 95Q452 43 396 16T268 -11Q183 -11 133 35T82 155Q82 221 118
272T247 373Q208 417 189 454T170 533Q170 576 191 613T252 673T349 696Q420 696 464 658ZM290 650T259 616T228 533Q228 501 243 469T294 397Q382 442 416 478T451 562Q451 602 423 626T349 650Q290 650 259 616ZM199 297T170 254T141 155Q141 102 175 70T272
38Q331 38 378 61T467 131L278 339Q199 297 170 254Z" />
<glyph unicode="&apos;" glyph-name="quotesingle" horiz-adv-x="202" d="M103 433L129 685H192L147 433H103Z" />
<glyph unicode="(" glyph-name="parenleft" horiz-adv-x="321" d="M346 811Q266 712 217 626T142 445T116 232Q116 131 140 55T216 -115L176 -136Q136 -66 112 -16T73 98T57 237Q57 362 85 461T168 646T311 839L346 811Z" />
<glyph unicode=")" glyph-name="parenright" horiz-adv-x="321" d="M210 766T234 716T273 603T289 464Q289 339 261 240T178 54T35 -139L0 -111Q81 -11 130 75T205 257T231 470Q231 570 206 646T131 815L170 836Q210 766 234 716Z" />
<glyph unicode="*" glyph-name="asterisk" horiz-adv-x="433" d="M445 582L287 542L369 420L320 386L253 517L150 386L107 419L224 541L78 582L100 632L241 577L254 736H313L282 577L434 635L445 582Z" />
<glyph unicode="+" glyph-name="plus" horiz-adv-x="490" d="M308 508L286 356H435L428 305H279L257 154H202L224 305H75L82 356H231L252 508H308Z" />
<glyph unicode="," glyph-name="comma" horiz-adv-x="207" d="M95 85T107 73T119 41Q119 28 114 15T98 -19L23 -151H-20L42 -3Q24 8 24 33Q24 54 39 69T75 85Q95 85 107 73Z" />
<glyph unicode="-" glyph-name="hyphen" horiz-adv-x="398" d="M70 288L78 338H341L334 288H70Z" />
<glyph unicode="." glyph-name="period" horiz-adv-x="208" d="M49 -11T37 1T25 33Q25 55 39 70T76 85Q96 85 108 73T120 41Q120 19 105 4T68 -11Q49 -11 37 1Z" />
<glyph unicode="/" glyph-name="slash" horiz-adv-x="517" d="M424 804L474 791L118 -100L68 -86L424 804Z" />
<glyph unicode="0" glyph-name="zero" horiz-adv-x="547" d="M240 676T181 606T94 431T67 224Q67 109 110 49T236 -11Q327 -11 386 59T473 233T500 442Q500 557 457 616T331 676Q240 676 181 606ZM441 628T441 451Q441 355 420 260T352 101T238 38Q126 38 126
215Q126 311 148 406T216 564T330 628Q441 628 441 451Z" />
<glyph unicode="1" glyph-name="one" horiz-adv-x="410" d="M347 665L253 0H195L279 596L102 494L81 542L297 665H347Z" />
<glyph unicode="2" glyph-name="two" horiz-adv-x="476" d="M354 676T399 633T444 519Q444 462 416 408T312 272T82 50L395 52L378 0H5L12 51Q178 206 255 287T358 417T384 517Q384 569 354 597T272 626Q226 626 189 607T115 549L76 584Q122 632 170 654T276 676Q354
676 399 633Z" />
<glyph unicode="3" glyph-name="three" horiz-adv-x="484" d="M353 676T396 635T439 526Q439 465 399 416T283 353Q340 351 376 314T412 211Q412 159 387 108T307 23T174 -11Q58 -11 -6 77L34 109Q63 71 97 55T176 39Q236 39 275 65T334 132T353 217Q353 327 223
327H177L191 374H223Q273 374 308 395T362 451T380 525Q380 574 351 601T272 628Q229 628 192 613T113 563L84 601Q130 639 176 657T276 676Q353 676 396 635Z" />
<glyph unicode="4" glyph-name="four" horiz-adv-x="516" d="M475 223L468 175H380L355 0H297L322 175H33L39 219L302 676L352 656L103 223H329L363 418H414L386 223H475Z" />
<glyph unicode="5" glyph-name="five" horiz-adv-x="484" d="M454 617H185L152 390Q206 421 267 421Q343 421 386 374T430 244Q430 187 405 128T324 29T186 -11Q126 -11 83 10T7 71L47 104Q74 71 107 55T187 39Q251 39 292 72T351 152T370 245Q370 309 339 341T254
374Q221 374 195 367T137 342H90L135 665H469L454 617Z" />
<glyph unicode="6" glyph-name="six" horiz-adv-x="521" d="M383 434T426 390T469 264Q469 203 445 140T369 33T241 -11Q149 -11 107 48T64 212Q64 326 99 433T201 608T360 676Q397 676 425 666T480 636L451 597Q409 628 358 628Q276 628 216 547T132 334Q209
434 315 434Q383 434 426 390ZM301 38T339 75T394 165T411 264Q411 325 383 355T306 385Q254 385 208 355T125 270Q122 236 122 205Q122 122 150 80T242 38Q301 38 339 75Z" />
<glyph unicode="7" glyph-name="seven" horiz-adv-x="434" d="M456 665L450 620L103 -8L49 10L387 616H80L86 665H456Z" />
<glyph unicode="8" glyph-name="eight" horiz-adv-x="535" d="M411 324T441 287T472 197Q472 136 441 89T355 15T231 -11Q142 -11 91 35T39 155Q39 295 209 358Q115 404 115 496Q115 549 143 590T218 653T321 676Q392 676 441 638T491 530Q491 469 458 428T348
352Q411 324 441 287ZM172 454T196 428T277 380L307 369Q377 405 405 442T434 530Q434 578 404 604T320 630Q253 630 213 592T172 497Q172 454 196 428ZM312 38T362 81T412 200Q412 244 383 271T285 326L253 338Q165 304 132 258T98 155Q98 100 134 69T233 38Q312
38 362 81Z" />
<glyph unicode="9" glyph-name="nine" horiz-adv-x="515" d="M392 676T436 623T480 473Q480 297 396 168T84 -20L73 26Q217 69 300 142T410 343Q375 298 330 273T234 248Q164 248 121 297T77 426Q77 486 101 543T177 638T304 676Q392 676 436 623ZM293 297T335
323T417 401Q422 449 422 473Q422 551 393 589T303 628Q243 628 206 596T152 517T135 424Q135 364 164 331T244 297Q293 297 335 323Z" />
<glyph unicode=":" glyph-name="colon" horiz-adv-x="208" d="M49 -11T37 1T25 33Q25 55 39 70T76 85Q96 85 108 73T120 41Q120 19 105 4T68 -11Q49 -11 37 1ZM104 379T92 391T80 423Q80 445 94 460T131 475Q151 475 163 463T175 431Q175 409 160 394T123 379Q104
379 92 391Z" />
<glyph unicode=";" glyph-name="semicolon" horiz-adv-x="209" d="M95 85T107 73T119 41Q119 28 114 15T98 -19L23 -151H-20L42 -3Q24 8 24 33Q24 54 39 69T75 85Q95 85 107 73ZM106 379T94 391T82 423Q82 445 96 460T133 475Q153 475 165 463T177 431Q177 409
162 394T125 379Q106 379 94 391Z" />
<glyph unicode="&lt;" glyph-name="less" horiz-adv-x="494" d="M446 529L463 478L125 332L420 183L392 135L69 305L77 361L446 529Z" />
<glyph unicode="=" glyph-name="equal" horiz-adv-x="492" d="M88 393L95 444H449L441 393H88ZM319 474L326 525H680L672 474H319Z" />
<glyph unicode="&gt;" glyph-name="greater" horiz-adv-x="494" d="M122 529L445 361L437 305L67 135L51 184L389 336L94 480L122 529Z" />
<glyph unicode="?" glyph-name="question" horiz-adv-x="445" d="M365 696T405 660T446 568Q446 523 428 491T384 438T316 393Q280 372 260 357T225 319T211 267Q211 247 216 227L164 216Q154 244 154 271Q154 310 170 338T210 384T274 427Q311 450 333 466T370
507T385 566Q385 604 359 625T287 647Q242 647 204 629T125 570L88 605Q135 652 184 674T291 696Q365 696 405 660ZM160 -12T148 0T136 32Q136 54 150 69T187 84Q207 84 219 72T231 40Q231 18 216 3T179 -12Q160 -12 148 0Z" />
<glyph unicode="@" glyph-name="at" horiz-adv-x="1017" d="M690 696T773 652T899 530T942 355Q942 276 919 197T846 65T719 12Q669 12 641 42T610 120Q550 14 452 14Q388 14 348 59T307 185Q307 255 332 323T413 438T552 484Q625 484 693 447L657 178Q654 159
654 139Q654 59 718 59Q775 59 812 105T867 220T884 357Q884 444 848 509T742 610T571 646Q421 646 323 574T180 394T135 179Q135 80 176 5T294 -113T472 -155Q574 -155 666 -121L678 -170Q623 -188 577 -196T470 -205Q355 -205 266 -157T126 -22T76 179Q76 297
127 416T290 615T572 696Q690 696 773 652ZM507 60T544 93T602 171L637 419Q597 439 553 439Q485 439 443 399T382 299T364 181Q364 122 389 91T459 60Q507 60 544 93Z" />
<glyph unicode="A" glyph-name="A" horiz-adv-x="562" d="M447 0L414 187H127L41 0H-21L303 685H378L509 0H447ZM151 238H405L334 635L151 238Z" />
<glyph unicode="B" glyph-name="B" horiz-adv-x="595" d="M457 354T495 320T534 218Q534 125 470 63T261 0H73L170 685H340Q436 685 491 647T547 534Q547 465 505 420T394 362Q457 354 495 320ZM223 635L188 385H319Q397 385 441 425T486 533Q486 635 342 635H223ZM378
51T425 98T472 219Q472 279 432 307T324 336H181L141 51H265Q378 51 425 98Z" />
<glyph unicode="C" glyph-name="C" horiz-adv-x="547" d="M454 696T494 680T569 632L534 596Q502 622 472 633T401 645Q308 645 248 586T161 438T133 260Q133 152 181 97T309 42Q358 42 394 56T469 100L498 58Q411 -11 305 -11Q199 -11 135 60T71 263Q71 363 105
463T214 629T399 696Q454 696 494 680Z" />
<glyph unicode="D" glyph-name="D" horiz-adv-x="630" d="M429 685T505 630T582 429Q582 314 546 217T429 60T222 0H73L170 685H304Q429 685 505 630ZM223 635L141 50H230Q334 50 399 105T492 246T521 430Q521 551 463 593T308 635H223Z" />
<glyph unicode="E" glyph-name="E" horiz-adv-x="510" d="M516 685L502 635H223L187 380H429L422 330H180L140 51H434L427 0H73L170 685H516Z" />
<glyph unicode="F" glyph-name="F" horiz-adv-x="478" d="M510 685L496 635H223L185 368H422L415 318H178L133 0H73L170 685H510Z" />
<glyph unicode="G" glyph-name="G" horiz-adv-x="615" d="M462 696T506 679T589 627L551 593Q517 621 484 633T406 645Q316 645 255 587T164 439T134 253Q134 146 181 94T316 41Q394 41 463 77L498 319H366L365 370H564L520 47Q422 -11 310 -11Q198 -11 135 58T71
260Q71 366 108 466T222 631T406 696Q462 696 506 679Z" />
<glyph unicode="H" glyph-name="H" horiz-adv-x="668" d="M133 0H73L170 685H230L188 386H515L557 685H617L520 0H460L507 335H180L133 0Z" />
<glyph unicode="I" glyph-name="I" horiz-adv-x="281" d="M230 685L133 0H73L170 685H230Z" />
<glyph unicode="J" glyph-name="J" horiz-adv-x="289" d="M160 90Q152 29 131 -9T74 -72T-23 -120L-36 -74Q13 -54 40 -33T80 19T100 97L183 685H243L160 90Z" />
<glyph unicode="K" glyph-name="K" horiz-adv-x="545" d="M73 0L170 685H230L134 0H73ZM437 0L189 367L516 685H588L258 365L508 0H437Z" />
<glyph unicode="L" glyph-name="L" horiz-adv-x="472" d="M230 685L141 54H426L410 0H73L170 685H230Z" />
<glyph unicode="M" glyph-name="M" horiz-adv-x="768" d="M662 0H604L619 330Q625 495 635 627L387 81H330L229 626Q218 557 165 328L90 0H32L193 685H272L368 152L605 685H692L662 0Z" />
<glyph unicode="N" glyph-name="N" horiz-adv-x="670" d="M523 0H446L210 631Q207 537 184 380L130 0H73L170 685H248L484 56Q487 157 504 271L562 685H619L523 0Z" />
<glyph unicode="O" glyph-name="O" horiz-adv-x="688" d="M514 696T577 626T640 424Q640 324 607 224T500 57T309 -11Q199 -11 135 60T71 262Q71 359 105 459T214 627T404 696Q514 696 577 626ZM305 645T246 584T160 434T134 260Q134 150 180 96T310 41Q408 41
468 102T553 252T578 427Q578 536 532 590T401 645Q305 645 246 584Z" />
<glyph unicode="P" glyph-name="P" horiz-adv-x="567" d="M439 685T498 642T557 512Q557 407 490 337T271 267H171L133 0H73L170 685H328Q439 685 498 642ZM394 317T443 371T493 512Q493 578 451 607T324 636H223L178 317H274Q394 317 443 371Z" />
<glyph unicode="Q" glyph-name="Q" horiz-adv-x="678" d="M640 344T619 262T549 115T426 22Q480 20 525 3T605 -45L561 -93Q514 -46 459 -29T309 -11Q199 -11 135 60T71 262Q71 359 105 459T214 627T404 696Q514 696 577 626T640 424Q640 344 619 262ZM134 149T180
95T310 41Q408 41 468 102T553 253T578 432Q578 538 532 591T401 645Q305 645 246 584T160 433T134 256Q134 149 180 95Z" />
<glyph unicode="R" glyph-name="R" horiz-adv-x="587" d="M554 453T510 395T373 316L517 0H450L314 307H176L133 0H73L170 685H338Q554 685 554 524Q554 453 510 395ZM302 356Q402 356 446 406T491 524Q491 582 454 609T334 636H223L183 356H302Z" />
<glyph unicode="S" glyph-name="S" horiz-adv-x="536" d="M384 696T429 677T511 619L473 582Q441 616 406 630T324 645Q252 645 207 610T162 516Q162 469 192 442T301 389Q388 362 431 321T475 205Q475 151 448 102T364 21T221 -11Q153 -11 103 12T13 77L51 113Q85
77 126 59T222 41Q285 41 328 64T392 123T413 202Q413 254 382 284T274 341Q182 372 142 410T102 514Q102 560 128 602T204 670T324 696Q384 696 429 677Z" />
<glyph unicode="T" glyph-name="T" horiz-adv-x="493" d="M543 685L528 632H328L239 0H179L268 632H66L74 685H543Z" />
<glyph unicode="U" glyph-name="U" horiz-adv-x="649" d="M542 212Q528 110 463 50T289 -11Q191 -11 141 38T91 171Q91 192 94 216L160 685H220L154 217Q151 195 151 174Q151 41 291 41Q375 41 423 88T483 221L548 685H608L542 212Z" />
<glyph unicode="V" glyph-name="V" horiz-adv-x="544" d="M587 685L268 0H201L75 685H138L242 63L524 685H587Z" />
<glyph unicode="W" glyph-name="W" horiz-adv-x="807" d="M836 685L590 0H515L453 617L217 0H144L90 685H149L190 57L428 685H496L559 56L779 685H836Z" />
<glyph unicode="X" glyph-name="X" horiz-adv-x="512" d="M533 685L304 370L464 0H399L265 327L40 0H-27L233 369L90 685H156L271 409L467 685H533Z" />
<glyph unicode="Y" glyph-name="Y" horiz-adv-x="520" d="M567 685L292 268L254 0H193L231 267L73 685H136L267 323L500 685H567Z" />
<glyph unicode="Z" glyph-name="Z" horiz-adv-x="513" d="M-2 0L5 50L450 633H124L131 685H526L519 635L76 53H430L415 0H-2Z" />
<glyph unicode="[" glyph-name="bracketleft" horiz-adv-x="314" d="M326 807L319 759H207L91 -65H203L197 -112H31L160 807H326Z" />
<glyph unicode="\" glyph-name="backslash" horiz-adv-x="517" d="M243 802L349 -88L298 -100L193 791L243 802Z" />
<glyph unicode="]" glyph-name="bracketright" horiz-adv-x="314" d="M308 807L179 -112H13L19 -65H131L248 759H136L142 807H308Z" />
<glyph unicode="^" glyph-name="asciicircum" horiz-adv-x="528" d="M369 832L510 527H446L338 775L159 527H93L320 832H369Z" />
<glyph unicode="_" glyph-name="underscore" horiz-adv-x="517" d="M-26 -122L-19 -71H443L436 -122H-26Z" />
<glyph unicode="`" glyph-name="grave" horiz-adv-x="270" d="M126 783L299 678L279 645L96 730L126 783Z" />
<glyph unicode="a" glyph-name="a" horiz-adv-x="560" d="M376 534T415 523T495 491L440 114Q438 103 438 84Q438 63 445 51T471 30L454 -11Q419 -3 401 18T384 84Q354 40 313 15T223 -11Q145 -11 102 43T58 192Q58 270 86 349T174 481T327 534Q376 534 415 523ZM258
487T211 441T142 327T120 192Q120 116 149 77T232 38Q279 38 316 66T388 148L433 463Q385 487 329 487Q258 487 211 441Z" />
<glyph unicode="b" glyph-name="b" horiz-adv-x="572" d="M431 534T472 483T514 336Q514 256 487 177T400 43T244 -11Q201 -11 163 -4T72 23L173 736L231 744L192 458Q268 534 356 534Q431 534 472 483ZM297 485T260 463T183 398L136 59Q163 48 188 43T247 38Q320
38 366 85T433 202T454 339Q454 413 426 449T344 485Q297 485 260 463Z" />
<glyph unicode="c" glyph-name="c" horiz-adv-x="467" d="M407 534T461 480L428 443Q405 464 379 474T319 485Q249 485 205 440T140 329T120 197Q120 118 154 79T251 40Q287 40 317 51T380 84L405 43Q334 -11 248 -11Q160 -11 110 44T60 200Q60 276 87 353T172
482T320 534Q407 534 461 480Z" />
<glyph unicode="d" glyph-name="d" horiz-adv-x="578" d="M539 736L435 0H385L393 106Q362 53 319 21T220 -11Q144 -11 102 44T59 195Q59 271 84 349T164 480T304 534Q393 534 442 462L482 743L539 736ZM245 486T202 440T139 326T120 192Q120 117 148 78T228 38Q282
38 322 74T403 181L436 409Q414 445 385 465T312 486Q245 486 202 440Z" />
<glyph unicode="e" glyph-name="e" horiz-adv-x="513" d="M481 312T387 266T120 206V200Q120 118 155 79T253 40Q294 40 328 52T401 92L427 51Q385 20 342 5T249 -11Q159 -11 109 44T59 199Q59 278 87 355T176 483T326 534Q399 534 440 499T481 408Q481 312 387
266ZM236 486T186 417T123 252Q273 264 347 300T421 406Q421 440 397 463T326 486Q236 486 186 417Z" />
<glyph unicode="f" glyph-name="f" horiz-adv-x="319" d="M229 695T217 606L205 523H342L329 476H199L135 17Q125 -51 105 -91T54 -155T-34 -204L-52 -159Q-11 -140 13 -121T53 -70T77 19L141 476H50L57 523H148L160 610Q168 672 211 708T321 744Q354 744 382
735T439 708L416 668Q370 695 323 695Q229 695 217 606Z" />
<glyph unicode="g" glyph-name="g" horiz-adv-x="568" d="M380 534T419 523T499 491L428 4Q397 -207 209 -207Q119 -207 36 -158L59 -114Q135 -156 207 -156Q348 -156 371 3L383 90Q353 49 312 25T225 0Q148 0 104 54T59 200Q59 278 87 355T177 483T331 534Q380
534 419 523ZM259 487T212 443T142 333T121 200Q121 127 151 88T234 49Q280 49 319 77T393 158L437 463Q389 487 331 487Q259 487 212 443Z" />
<glyph unicode="h" glyph-name="h" horiz-adv-x="582" d="M435 534T467 501T499 408Q499 391 496 371L444 0H386L438 367Q440 379 440 401Q440 445 422 465T365 485Q263 485 170 313L126 0H68L172 736L231 743L182 396Q219 462 268 498T375 534Q435 534 467 501Z" />
<glyph unicode="i" glyph-name="i" horiz-adv-x="269" d="M200 523L126 0H68L142 523H200ZM176 669T165 679T154 707Q154 727 167 740T201 753Q219 753 230 743T241 715Q241 695 228 682T194 669Q176 669 165 679Z" />
<glyph unicode="j" glyph-name="j" horiz-adv-x="269" d="M-56 -160Q-15 -141 8 -122T48 -70T72 19L143 523H201L129 17Q120 -51 100 -91T48 -155T-40 -204L-56 -160ZM177 669T166 679T155 707Q155 727 168 740T202 753Q220 753 231 743T242 715Q242 695 229 682T195
669Q177 669 166 679Z" />
<glyph unicode="k" glyph-name="k" horiz-adv-x="523" d="M182 395Q223 466 272 500T377 534Q431 534 464 504T497 422Q497 358 453 311T325 236L444 0H379L254 254Q346 280 391 320T436 417Q436 450 418 468T364 487Q310 487 260 440T169 305L126 0H68L172 736L231
744L182 395Z" />
<glyph unicode="l" glyph-name="l" horiz-adv-x="282" d="M134 88Q133 83 133 74Q133 56 141 48T167 39Q183 39 205 47L218 3Q187 -11 158 -11Q119 -11 98 9T76 70Q76 77 78 97L168 736L226 744L134 88Z" />
<glyph unicode="m" glyph-name="m" horiz-adv-x="849" d="M708 534T737 501T767 408Q767 392 764 372L711 0H653L705 367Q708 387 708 403Q708 485 639 485Q593 485 550 440T463 316L418 0H360L412 367Q415 387 415 403Q415 485 346 485Q299 485 257 440T170 313L126
0H68L142 523H192L178 394Q262 534 363 534Q414 534 444 500T474 404Q555 534 656 534Q708 534 737 501Z" />
<glyph unicode="n" glyph-name="n" horiz-adv-x="581" d="M435 534T467 501T499 407Q499 389 496 369L444 0H386L438 367Q440 379 440 400Q440 485 364 485Q263 485 170 313L126 0H68L142 523H192L178 393Q219 461 269 497T376 534Q435 534 467 501Z" />
<glyph unicode="o" glyph-name="o" horiz-adv-x="569" d="M159 -11T110 45T60 201Q60 276 86 352T170 481T321 534Q412 534 461 479T510 324Q510 250 485 173T400 43T249 -11Q159 -11 110 45ZM322 38T366 84T430 196T449 328Q449 406 416 446T320 486Q248 486
203 440T139 326T120 196Q120 118 154 78T251 38Q322 38 366 84Z" />
<glyph unicode="p" glyph-name="p" horiz-adv-x="571" d="M142 523H192L187 452Q263 534 355 534Q430 534 471 483T513 336Q513 256 487 177T400 43T244 -11Q186 -11 127 10L97 -199L39 -207L142 523ZM319 38T366 85T433 202T454 339Q454 413 425 449T343 485Q296
485 259 463T183 398L136 59Q163 48 188 43T246 38Q319 38 366 85Z" />
<glyph unicode="q" glyph-name="q" horiz-adv-x="567" d="M381 78Q354 38 313 14T223 -11Q145 -11 102 43T58 192Q58 270 86 349T174 481T327 534Q376 534 415 524T498 491L400 -199L342 -207L381 78ZM279 38T317 66T390 148L436 463Q388 487 329 487Q258 487
211 441T142 327T120 192Q120 116 149 77T232 38Q279 38 317 66Z" />
<glyph unicode="r" glyph-name="r" horiz-adv-x="371" d="M374 534T395 527L379 472Q361 478 337 478Q282 478 243 433T169 298L126 0H68L142 523H192L179 396Q240 534 345 534Q374 534 395 527Z" />
<glyph unicode="s" glyph-name="s" horiz-adv-x="461" d="M353 534T421 475L390 440Q360 463 329 474T260 485Q204 485 170 462T136 397Q136 363 161 342T251 301Q328 277 362 242T397 150Q397 77 342 33T194 -11Q133 -11 89 8T9 60L42 94Q76 66 112 52T194 38Q262
38 299 67T337 145Q337 187 312 210T217 255Q140 279 109 311T77 394Q77 432 99 464T162 515T260 534Q353 534 421 475Z" />
<glyph unicode="t" glyph-name="t" horiz-adv-x="339" d="M144 129Q142 111 142 104Q142 39 204 39Q242 39 289 64L309 21Q255 -11 197 -11Q144 -11 114 17T84 99Q84 109 86 129L135 476H47L54 523H143L172 650L218 655L199 523H334L320 476H193L144 129Z" />
<glyph unicode="u" glyph-name="u" horiz-adv-x="577" d="M147 -11T115 22T82 115Q82 132 85 151L137 523H195L143 153Q141 141 141 121Q141 37 217 37Q272 37 319 82T405 203L450 523H508L434 0H386L400 133Q364 66 316 28T206 -11Q147 -11 115 22Z" />
<glyph unicode="v" glyph-name="v" horiz-adv-x="468" d="M490 523L235 0H164L52 523H115L206 52L425 523H490Z" />
<glyph unicode="w" glyph-name="w" horiz-adv-x="696" d="M707 523L507 0H429L380 469L197 0H120L63 523H120L166 45L353 523H421L472 45L650 523H707Z" />
<glyph unicode="x" glyph-name="x" horiz-adv-x="457" d="M461 523L266 276L409 0H344L226 241L42 0H-27L196 281L71 523H135L235 314L393 523H461Z" />
<glyph unicode="y" glyph-name="y" horiz-adv-x="465" d="M238 -4Q195 -94 142 -140T-5 -204L-8 -158Q45 -146 78 -127T132 -80T181 0H159L52 523H114L203 44L425 523H487L238 -4Z" />
<glyph unicode="z" glyph-name="z" horiz-adv-x="420" d="M423 523L417 478L70 50H354L341 0H-10L-3 45L343 472H81L88 523H423Z" />
<glyph unicode="{" glyph-name="braceleft" horiz-adv-x="323" d="M335 783Q288 783 265 764T235 703L200 450Q193 400 173 379T111 348Q142 340 157 324T173 273Q173 265 171 245L135 -8Q133 -22 133 -29Q133 -58 151 -71T210 -84L207 -130Q80 -130 80 -28Q80
-20 82 -2L118 253Q119 259 119 271Q119 300 103 312T50 324L57 374Q96 374 118 392T146 450L181 705Q191 771 227 799T338 828L335 783Z" />
<glyph unicode="|" glyph-name="bar" horiz-adv-x="404" d="M305 804L179 -100H124L251 804H305Z" />
<glyph unicode="}" glyph-name="braceright" horiz-adv-x="323" d="M13 -84Q60 -84 83 -65T112 -4L148 249Q155 299 175 320T237 351Q205 359 190 375T174 425Q174 433 176 453L213 706Q214 713 214 726Q214 756 197 769T138 783L141 828Q202 828 235 803T268
726Q268 719 266 701L230 446Q228 432 228 426Q228 398 244 387T297 375L291 325Q252 325 230 307T202 249L166 -6Q157 -72 120 -101T10 -130L13 -84Z" />
<glyph unicode="~" glyph-name="asciitilde" horiz-adv-x="469" d="M292 264T274 272T230 296Q212 309 198 315T170 322Q146 322 128 310T90 273L55 296Q82 331 109 351T174 371Q196 371 214 363T256 339Q274 326 288 320T317 313Q340 313 358 324T395 359L429
336Q405 302 378 283T314 264Q292 264 274 272Z" />
<glyph unicode="&#xa0;" glyph-name="uni00A0" horiz-adv-x="277" />
<glyph unicode="&#xa1;" glyph-name="exclamdown" horiz-adv-x="238" d="M123 379T111 391T99 423Q99 445 113 460T150 475Q170 475 182 463T194 431Q194 409 179 394T142 379Q123 379 111 391ZM148 249L89 -197H27L95 249H148Z" />
<glyph unicode="&#xa2;" glyph-name="cent" horiz-adv-x="467" d="M249 485T205 440T140 329T120 197Q120 118 154 79T251 40Q287 40 317 51T380 84L405 43Q339 -8 258 -11L239 -150H188L208 -8Q138 4 99 58T60 200Q60 270 83 342T157 468T285 532L306 680H356L336
534Q412 529 461 480L428 443Q405 464 379 474T319 485Q249 485 205 440Z" />
<glyph unicode="&#xa3;" glyph-name="sterling" horiz-adv-x="506" d="M411 676T448 657T513 599L472 570Q451 600 425 613T361 627Q304 627 268 592T224 497L207 374H419L413 331H201L178 170Q171 121 154 96T97 51H422L407 0H13L19 49Q71 71 92 96T121 173L143
331H78L84 374H149L167 501Q178 579 228 627T359 676Q411 676 448 657Z" />
<glyph unicode="&#xa4;" glyph-name="currency" horiz-adv-x="560" d="M473 268T432 216L511 138L475 102L395 180Q346 146 280 146Q213 146 166 182L85 102L49 138L129 217Q89 269 89 341Q89 410 128 463L49 543L85 579L165 499Q214 535 280 535Q346 535 396
501L475 579L511 543L433 465Q473 413 473 341Q473 268 432 216ZM347 194T381 233T416 341Q416 409 382 449T281 489Q216 489 181 449T146 341Q146 273 181 234T281 194Q347 194 381 233Z" />
<glyph unicode="&#xa5;" glyph-name="yen" horiz-adv-x="509" d="M553 665L315 338H431L424 295H290L276 192H410L404 149H269L248 0H189L210 149H75L81 192H217L231 295H95L102 338H219L70 665H135L268 352L490 665H553Z" />
<glyph unicode="&#xa6;" glyph-name="brokenbar" horiz-adv-x="404" d="M305 804L255 443H200L251 804H305ZM229 262L179 -100H124L175 262H229Z" />
<glyph unicode="&#xa7;" glyph-name="section" horiz-adv-x="530" d="M263 628T234 603T205 538Q205 503 228 482T317 437Q389 411 420 380T452 302Q452 259 429 227T354 163Q398 129 398 74Q398 37 378 5T315 -48T208 -68Q119 -68 49 -21L76 19Q132 -20 211 -20Q279
-20 309 6T339 72Q339 106 316 126T229 170Q153 197 122 226T90 305Q90 348 114 382T191 445Q168 463 158 484T147 535Q147 597 196 636T326 675Q375 675 412 662T483 625L456 588Q425 608 395 618T326 628Q263 628 234 603ZM394 328T373 350T294 394Q256 407 225
423Q183 396 166 370T148 310Q148 277 169 256T248 214Q289 200 318 185Q362 213 378 238T394 296Q394 328 373 350Z" />
<glyph unicode="&#xa8;" glyph-name="dieresis" horiz-adv-x="329" d="M113 663T103 673T92 698Q92 717 104 729T136 742Q152 742 162 732T173 706Q173 688 161 676T129 663Q113 663 103 673ZM301 663T291 673T280 698Q280 717 293 729T325 742Q341 742 351 732T361
706Q361 688 349 676T317 663Q301 663 291 673Z" />
<glyph unicode="&#xa9;" glyph-name="copyright" horiz-adv-x="810" d="M513 736T580 698T687 591T726 435Q726 349 687 280T581 172T430 133Q347 133 279 171T172 279T133 435Q133 521 172 590T279 697T430 736Q513 736 580 698ZM358 697T301 664T211 571T178
435Q178 358 210 299T300 206T431 173Q502 173 559 206T649 299T682 435Q682 512 650 571T560 664T431 697Q358 697 301 664ZM463 616T487 607T533 581L509 548Q491 561 474 567T433 573Q393 573 364 540T335 436Q335 368 362 333T434 298Q459 298 478 305T517
328L540 294Q493 254 432 254Q366 254 325 303T283 436Q283 494 304 534T359 595T431 616Q463 616 487 607Z" />
<glyph unicode="&#xaa;" glyph-name="ordfeminine" horiz-adv-x="502" d="M157 274T126 304T95 383Q95 443 142 482T287 521H364L369 554Q371 570 371 577Q371 610 353 624T293 638Q241 638 175 616L163 659Q236 685 302 685Q427 685 427 581Q427 565 426 557L401
373Q400 368 399 362T398 350Q398 337 404 328T424 313L408 274Q380 280 366 294T347 337Q294 274 212 274Q157 274 126 304ZM260 319T291 337T346 388L359 481H287Q218 481 186 455T154 385Q154 354 171 337T222 319Q260 319 291 337ZM38 0L45 51H399L391 0H38Z"
/>
<glyph unicode="&#xab;" glyph-name="guillemotleft" horiz-adv-x="553" d="M267 520L302 495L136 288L244 80L206 56L72 267L76 307L267 520ZM480 520L515 495L349 288L457 80L419 56L285 267L289 307L480 520Z" />
<glyph unicode="&#xac;" glyph-name="logicalnot" horiz-adv-x="497" d="M439 346L415 168H358L376 295H74L80 346H439Z" />
<glyph unicode="&#xad;" glyph-name="uni00AD" horiz-adv-x="398" d="M70 288L78 338H341L334 288H70Z" />
<glyph unicode="&#xae;" glyph-name="registered" horiz-adv-x="639" d="M420 737T474 706T561 619T593 497Q593 431 561 376T474 289T353 256Q287 256 232 287T145 374T113 495Q113 561 145 616T232 704T353 737Q420 737 474 706ZM409 293T454 320T526 393T553
497Q553 555 527 601T456 674T353 700Q298 700 252 673T180 599T153 495Q153 438 179 392T252 319T353 293Q409 293 454 320ZM452 526T436 508T389 481L463 364H412L348 475H312V364H270V636H339Q452 636 452 555Q452 526 436 508ZM312 510H351Q409 510 409 555Q409
580 394 590T345 601H312V510Z" />
<glyph unicode="&#xaf;" glyph-name="overscore" horiz-adv-x="300" d="M328 676H88L95 723H335L328 676Z" />
<glyph unicode="&#xb0;" glyph-name="degree" horiz-adv-x="518" d="M180 395T144 429T107 524Q107 573 130 612T191 674T273 696Q331 696 367 662T404 567Q404 518 381 479T320 417T238 395Q180 395 144 429ZM289 439T321 474T353 568Q353 609 332 630T272 652Q222
652 190 617T158 523Q158 483 179 461T239 439Q289 439 321 474Z" />
<glyph unicode="&#xb1;" glyph-name="plusminus" horiz-adv-x="491" d="M32 0L39 51H393L385 0H32ZM310 519L288 367H437L430 316H281L259 165H204L226 316H77L84 367H233L254 519H310Z" />
<glyph unicode="&#xb2;" glyph-name="uni00B2" horiz-adv-x="397" d="M314 743T343 715T373 640Q373 598 349 559T286 483T176 389L150 367H347L333 323H83L88 366L125 398Q196 458 234 494T296 567T320 640Q320 668 303 684T256 700Q228 700 204 688T155 652L123
682Q157 713 190 728T261 743Q314 743 343 715Z" />
<glyph unicode="&#xb3;" glyph-name="uni00B3" horiz-adv-x="397" d="M317 744T347 718T377 651Q377 609 350 580T277 542Q313 540 336 518T360 457Q360 395 315 355T201 315Q122 315 77 373L111 398Q131 376 152 367T201 358Q251 358 279 385T308 459Q308 492
288 506T229 521H197L209 560H228Q269 560 297 585T325 648Q325 675 308 689T259 703Q231 703 208 694T158 666L133 697Q194 744 264 744Q317 744 347 718Z" />
<glyph unicode="&#xb4;" glyph-name="acute" horiz-adv-x="273" d="M289 783L309 730L103 645L88 678L289 783Z" />
<glyph unicode="&#xb5;" glyph-name="uni00B5" horiz-adv-x="582" d="M451 126T451 83Q451 39 459 -1L406 -8Q395 33 395 72Q395 90 396 100Q317 -11 220 -11Q151 -11 124 40Q127 -2 115 -82L98 -197L40 -203L142 523H200L147 148Q145 128 145 121Q145 78 167
59T228 39Q275 39 317 69T397 159L449 523H507L458 175Q451 126 451 83Z" />
<glyph unicode="&#xb6;" glyph-name="paragraph" horiz-adv-x="706" d="M615 685L491 -197L437 -206L555 636H424L308 -197L254 -206L325 294Q224 298 177 342T130 459Q130 565 200 625T389 685H615Z" />
<glyph unicode="&#xb7;" glyph-name="middot" horiz-adv-x="207" d="M88 271T76 283T64 315Q64 337 78 352T115 367Q135 367 147 355T159 323Q159 301 144 286T107 271Q88 271 76 283Z" />
<glyph unicode="&#xb8;" glyph-name="cedilla" horiz-adv-x="245" d="M75 -64Q117 -68 137 -86T158 -137Q158 -177 127 -202T45 -227Q-4 -227 -35 -205L-14 -170Q14 -185 45 -185Q72 -185 89 -173T107 -138Q107 -115 89 -106T25 -96L50 16H89L75 -64Z" />
<glyph unicode="&#xb9;" glyph-name="uni00B9" horiz-adv-x="397" d="M323 737L264 323H214L264 682L155 622L135 658L279 737H323Z" />
<glyph unicode="&#xba;" glyph-name="ordmasculine" horiz-adv-x="497" d="M381 685T422 643T463 522Q463 453 438 397T365 307T253 274Q178 274 137 317T96 438Q96 507 121 563T194 652T306 685Q381 685 422 643ZM232 638T194 580T155 435Q155 379 180 350T254
321Q327 321 365 380T403 526Q403 638 305 638Q232 638 194 580ZM35 0L42 51H396L388 0H35Z" />
<glyph unicode="&#xbb;" glyph-name="guillemotright" horiz-adv-x="553" d="M140 520L275 307L270 267L79 56L44 80L210 288L103 495L140 520ZM353 520L488 307L483 267L292 56L257 80L423 288L316 495L353 520Z" />
<glyph unicode="&#xbc;" glyph-name="onequarter" horiz-adv-x="906" d="M316 685L257 271H207L257 630L148 570L128 606L272 685H316ZM703 747L741 727L224 -71L186 -51L703 747ZM838 145L832 103H777L762 0H712L726 103H539L544 140L712 421L754 404L599 145H732L754
260H799L783 145H838Z" />
<glyph unicode="&#xbd;" glyph-name="onehalf" horiz-adv-x="906" d="M316 685L257 271H207L257 630L148 570L128 606L272 685H316ZM703 747L741 727L224 -71L186 -51L703 747ZM778 420T807 392T837 317Q837 275 813 236T750 160T640 66L614 44H811L797 0H547L552
43L589 75Q660 135 698 171T760 244T784 317Q784 345 767 361T720 377Q692 377 668 365T619 329L587 359Q621 390 654 405T725 420Q778 420 807 392Z" />
<glyph unicode="&#xbe;" glyph-name="threequarters" horiz-adv-x="906" d="M310 692T340 666T370 599Q370 557 343 528T270 490Q306 488 329 466T353 405Q353 343 308 303T194 263Q115 263 70 321L104 346Q124 324 145 315T194 306Q244 306 272 333T301 407Q301
440 281 454T222 469H190L202 508H221Q262 508 290 533T318 596Q318 623 301 637T252 651Q224 651 201 642T151 614L126 645Q187 692 257 692Q310 692 340 666ZM703 747L741 727L224 -71L186 -51L703 747ZM838 145L832 103H777L762 0H712L726 103H539L544 140L712
421L754 404L599 145H732L754 260H799L783 145H838Z" />
<glyph unicode="&#xbf;" glyph-name="questiondown" horiz-adv-x="445" d="M280 505T292 493T304 461Q304 439 290 424T253 409Q233 409 221 421T209 453Q209 475 224 490T261 505Q280 505 292 493ZM75 -207T35 -171T-6 -78Q-6 -33 12 -1T56 51T124 96Q160 117
180 132T215 170T229 222Q229 241 224 263L276 273Q286 245 286 219Q286 180 270 152T230 105T166 62Q129 40 107 23T70 -19T55 -77Q55 -114 81 -135T153 -157Q198 -157 236 -139T315 -81L352 -116Q304 -163 255 -185T149 -207Q75 -207 35 -171Z" />
<glyph unicode="&#xc0;" glyph-name="Agrave" horiz-adv-x="562" d="M447 0L414 187H127L41 0H-21L303 685H378L509 0H447ZM151 238H405L334 635L151 238ZM288 885L464 791L444 758L261 833L288 885Z" />
<glyph unicode="&#xc1;" glyph-name="Aacute" horiz-adv-x="562" d="M447 0L414 187H127L41 0H-21L303 685H378L509 0H447ZM151 238H405L334 635L151 238ZM441 886L461 833L255 758L241 792L441 886Z" />
<glyph unicode="&#xc2;" glyph-name="Acircumflex" horiz-adv-x="562" d="M447 0L414 187H127L41 0H-21L303 685H378L509 0H447ZM151 238H405L334 635L151 238ZM228 762L204 793L346 894H383L497 792L470 762L360 842L228 762Z" />
<glyph unicode="&#xc3;" glyph-name="Atilde" horiz-adv-x="562" d="M447 0L414 187H127L41 0H-21L303 685H378L509 0H447ZM151 238H405L334 635L151 238ZM400 792T386 798T352 818Q339 828 329 833T307 838Q289 838 276 829T244 796L211 818Q256 884 308 884Q326
884 339 878T372 859Q390 848 399 844T419 839Q435 839 449 849T481 883L517 862Q473 792 420 792Q400 792 386 798Z" />
<glyph unicode="&#xc4;" glyph-name="Adieresis" horiz-adv-x="562" d="M447 0L414 187H127L41 0H-21L303 685H378L509 0H447ZM151 238H405L334 635L151 238ZM249 789T239 799T228 824Q228 843 240 855T272 868Q288 868 298 858T309 832Q309 814 297 802T265 789Q249
789 239 799ZM437 789T427 799T416 824Q416 843 429 855T461 868Q477 868 487 858T497 832Q497 814 485 802T453 789Q437 789 427 799Z" />
<glyph unicode="&#xc5;" glyph-name="Aring" horiz-adv-x="562" d="M447 0L414 187H127L41 0H-21L303 685H378L509 0H447ZM151 238H405L334 635L151 238ZM416 947T440 924T465 864Q465 819 434 789T356 759Q316 759 292 782T267 842Q267 887 299 917T376 947Q416
947 440 924ZM345 911T328 892T311 843Q311 820 323 808T357 795Q387 795 404 815T422 863Q422 886 410 898T375 911Q345 911 328 892Z" />
<glyph unicode="&#xc6;" glyph-name="AE" horiz-adv-x="780" d="M732 635H409L439 379H696L689 329H445L477 51H705L697 0H425L405 184H121L26 0H-38L325 685H747L732 635ZM147 234H400L356 637L147 234Z" />
<glyph unicode="&#xc7;" glyph-name="Ccedilla" horiz-adv-x="547" d="M308 645T248 586T161 438T133 260Q133 152 181 97T309 42Q358 42 394 56T469 100L498 58Q416 -6 322 -11L313 -64Q355 -68 375 -86T396 -137Q396 -177 365 -202T283 -227Q234 -227 203 -205L224
-170Q252 -185 283 -185Q310 -185 327 -173T345 -138Q345 -115 327 -106T263 -96L282 -10Q186 -2 129 68T71 263Q71 363 105 463T214 629T399 696Q454 696 494 680T569 632L534 596Q502 622 472 633T401 645Q308 645 248 586Z" />
<glyph unicode="&#xc8;" glyph-name="Egrave" horiz-adv-x="510" d="M516 685L502 635H223L187 380H429L422 330H180L140 51H434L427 0H73L170 685H516ZM294 885L470 791L450 758L267 833L294 885Z" />
<glyph unicode="&#xc9;" glyph-name="Eacute" horiz-adv-x="510" d="M516 685L502 635H223L187 380H429L422 330H180L140 51H434L427 0H73L170 685H516ZM447 886L467 833L261 758L247 792L447 886Z" />
<glyph unicode="&#xca;" glyph-name="Ecircumflex" horiz-adv-x="510" d="M516 685L502 635H223L187 380H429L422 330H180L140 51H434L427 0H73L170 685H516ZM234 762L210 793L352 894H389L503 792L476 762L366 842L234 762Z" />
<glyph unicode="&#xcb;" glyph-name="Edieresis" horiz-adv-x="510" d="M516 685L502 635H223L187 380H429L422 330H180L140 51H434L427 0H73L170 685H516ZM255 789T245 799T234 824Q234 843 246 855T278 868Q294 868 304 858T315 832Q315 814 303 802T271 789Q255
789 245 799ZM443 789T433 799T422 824Q422 843 435 855T467 868Q483 868 493 858T503 832Q503 814 491 802T459 789Q443 789 433 799Z" />
<glyph unicode="&#xcc;" glyph-name="Igrave" horiz-adv-x="281" d="M230 685L133 0H73L170 685H230ZM147 885L323 791L303 758L120 833L147 885Z" />
<glyph unicode="&#xcd;" glyph-name="Iacute" horiz-adv-x="281" d="M230 685L133 0H73L170 685H230ZM300 886L320 833L114 758L100 792L300 886Z" />
<glyph unicode="&#xce;" glyph-name="Icircumflex" horiz-adv-x="281" d="M230 685L133 0H73L170 685H230ZM87 762L63 793L205 894H242L356 792L329 762L219 842L87 762Z" />
<glyph unicode="&#xcf;" glyph-name="Idieresis" horiz-adv-x="281" d="M230 685L133 0H73L170 685H230ZM108 789T98 799T87 824Q87 843 99 855T131 868Q147 868 157 858T168 832Q168 814 156 802T124 789Q108 789 98 799ZM296 789T286 799T275 824Q275 843 288
855T320 868Q336 868 346 858T356 832Q356 814 344 802T312 789Q296 789 286 799Z" />
<glyph unicode="&#xd0;" glyph-name="Eth" horiz-adv-x="635" d="M434 685T510 630T587 429Q587 314 551 217T434 60T227 0H78L125 329H38L44 377H131L175 685H309Q434 685 510 630ZM339 50T404 105T497 246T526 430Q526 551 468 593T313 635H228L192 377H369L363
329H185L146 50H235Q339 50 404 105Z" />
<glyph unicode="&#xd1;" glyph-name="Ntilde" horiz-adv-x="670" d="M523 0H446L210 631Q207 537 184 380L130 0H73L170 685H248L484 56Q487 157 504 271L562 685H619L523 0ZM463 792T449 798T415 818Q402 828 392 833T370 838Q352 838 339 829T307 796L274 818Q319
884 371 884Q389 884 402 878T435 859Q453 848 462 844T482 839Q498 839 512 849T544 883L580 862Q536 792 483 792Q463 792 449 798Z" />
<glyph unicode="&#xd2;" glyph-name="Ograve" horiz-adv-x="688" d="M514 696T577 626T640 424Q640 324 607 224T500 57T309 -11Q199 -11 135 60T71 262Q71 359 105 459T214 627T404 696Q514 696 577 626ZM305 645T246 584T160 434T134 260Q134 150 180 96T310
41Q408 41 468 102T553 252T578 427Q578 536 532 590T401 645Q305 645 246 584ZM352 885L528 791L508 758L325 833L352 885Z" />
<glyph unicode="&#xd3;" glyph-name="Oacute" horiz-adv-x="688" d="M514 696T577 626T640 424Q640 324 607 224T500 57T309 -11Q199 -11 135 60T71 262Q71 359 105 459T214 627T404 696Q514 696 577 626ZM305 645T246 584T160 434T134 260Q134 150 180 96T310
41Q408 41 468 102T553 252T578 427Q578 536 532 590T401 645Q305 645 246 584ZM505 886L525 833L319 758L305 792L505 886Z" />
<glyph unicode="&#xd4;" glyph-name="Ocircumflex" horiz-adv-x="688" d="M514 696T577 626T640 424Q640 324 607 224T500 57T309 -11Q199 -11 135 60T71 262Q71 359 105 459T214 627T404 696Q514 696 577 626ZM305 645T246 584T160 434T134 260Q134 150 180 96T310
41Q408 41 468 102T553 252T578 427Q578 536 532 590T401 645Q305 645 246 584ZM292 762L268 793L410 894H447L561 792L534 762L424 842L292 762Z" />
<glyph unicode="&#xd5;" glyph-name="Otilde" horiz-adv-x="688" d="M514 696T577 626T640 424Q640 324 607 224T500 57T309 -11Q199 -11 135 60T71 262Q71 359 105 459T214 627T404 696Q514 696 577 626ZM305 645T246 584T160 434T134 260Q134 150 180 96T310
41Q408 41 468 102T553 252T578 427Q578 536 532 590T401 645Q305 645 246 584ZM464 792T450 798T416 818Q403 828 393 833T371 838Q353 838 340 829T308 796L275 818Q320 884 372 884Q390 884 403 878T436 859Q454 848 463 844T483 839Q499 839 513 849T545 883L581
862Q537 792 484 792Q464 792 450 798Z" />
<glyph unicode="&#xd6;" glyph-name="Odieresis" horiz-adv-x="688" d="M514 696T577 626T640 424Q640 324 607 224T500 57T309 -11Q199 -11 135 60T71 262Q71 359 105 459T214 627T404 696Q514 696 577 626ZM305 645T246 584T160 434T134 260Q134 150 180 96T310
41Q408 41 468 102T553 252T578 427Q578 536 532 590T401 645Q305 645 246 584ZM313 789T303 799T292 824Q292 843 304 855T336 868Q352 868 362 858T373 832Q373 814 361 802T329 789Q313 789 303 799ZM501 789T491 799T480 824Q480 843 493 855T525 868Q541 868
551 858T561 832Q561 814 549 802T517 789Q501 789 491 799Z" />
<glyph unicode="&#xd7;" glyph-name="multiply" horiz-adv-x="491" d="M398 471L431 434L289 307L397 180L355 144L249 271L107 144L73 181L215 307L108 435L150 471L254 343L398 471Z" />
<glyph unicode="&#xd8;" glyph-name="Oslash" horiz-adv-x="688" d="M580 637T610 576T640 424Q640 324 607 224T500 57T309 -11Q269 -11 231 0L179 -120L129 -105L185 19Q130 50 101 112T71 262Q71 359 105 459T214 627T404 696Q446 696 479 686L532 810L582
796L524 668Q580 637 610 576ZM134 117T212 66L462 637Q432 645 401 645Q305 645 246 584T160 433T134 256Q134 117 212 66ZM408 41T468 102T553 253T578 432Q578 573 498 622L248 50Q277 41 310 41Q408 41 468 102Z" />
<glyph unicode="&#xd9;" glyph-name="Ugrave" horiz-adv-x="649" d="M542 212Q528 110 463 50T289 -11Q191 -11 141 38T91 171Q91 192 94 216L160 685H220L154 217Q151 195 151 174Q151 41 291 41Q375 41 423 88T483 221L548 685H608L542 212ZM331 885L507 791L487
758L304 833L331 885Z" />
<glyph unicode="&#xda;" glyph-name="Uacute" horiz-adv-x="649" d="M542 212Q528 110 463 50T289 -11Q191 -11 141 38T91 171Q91 192 94 216L160 685H220L154 217Q151 195 151 174Q151 41 291 41Q375 41 423 88T483 221L548 685H608L542 212ZM484 886L504 833L298
758L284 792L484 886Z" />
<glyph unicode="&#xdb;" glyph-name="Ucircumflex" horiz-adv-x="649" d="M542 212Q528 110 463 50T289 -11Q191 -11 141 38T91 171Q91 192 94 216L160 685H220L154 217Q151 195 151 174Q151 41 291 41Q375 41 423 88T483 221L548 685H608L542 212ZM271 762L247
793L389 894H426L540 792L513 762L403 842L271 762Z" />
<glyph unicode="&#xdc;" glyph-name="Udieresis" horiz-adv-x="649" d="M542 212Q528 110 463 50T289 -11Q191 -11 141 38T91 171Q91 192 94 216L160 685H220L154 217Q151 195 151 174Q151 41 291 41Q375 41 423 88T483 221L548 685H608L542 212ZM292 789T282
799T271 824Q271 843 283 855T315 868Q331 868 341 858T352 832Q352 814 340 802T308 789Q292 789 282 799ZM480 789T470 799T459 824Q459 843 472 855T504 868Q520 868 530 858T540 832Q540 814 528 802T496 789Q480 789 470 799Z" />
<glyph unicode="&#xdd;" glyph-name="Yacute" horiz-adv-x="520" d="M567 685L292 268L254 0H193L231 267L73 685H136L267 323L500 685H567ZM419 886L439 833L233 758L219 792L419 886Z" />
<glyph unicode="&#xde;" glyph-name="Thorn" horiz-adv-x="567" d="M539 563T539 385Q539 321 512 265T421 172T252 136H152L133 0H73L170 685H230L213 563H311Q539 563 539 385ZM374 186T425 242T476 384Q476 454 434 483T308 513H206L159 186H256Q374 186 425 242Z" />
<glyph unicode="&#xdf;" glyph-name="germandbls" horiz-adv-x="581" d="M-56 -159Q-15 -140 9 -121T48 -70T72 19L146 542Q159 639 216 691T358 744Q426 744 466 711T506 624Q506 591 494 567T465 527T421 491Q390 468 377 453T363 416Q363 395 377 379T421 339Q452
314 471 294T505 243T519 169Q519 128 498 87T435 17T331 -11Q299 -11 270 -3T219 17L241 58Q283 38 327 38Q373 38 403 59T447 110T461 168Q461 215 439 245T375 309Q340 338 324 359T307 410Q307 445 324 466T378 514Q414 540 432 562T450 622Q450 657 425 676T358
696Q297 696 256 656T203 536L130 17Q120 -51 100 -91T49 -155T-39 -204L-56 -159Z" />
<glyph unicode="&#xe0;" glyph-name="agrave" horiz-adv-x="560" d="M376 534T415 523T495 491L440 114Q438 103 438 84Q438 63 445 51T471 30L454 -11Q419 -3 401 18T384 84Q354 40 313 15T223 -11Q145 -11 102 43T58 192Q58 270 86 349T174 481T327 534Q376
534 415 523ZM258 487T211 441T142 327T120 192Q120 116 149 77T232 38Q279 38 316 66T388 148L433 463Q385 487 329 487Q258 487 211 441ZM302 783L475 678L455 645L272 730L302 783Z" />
<glyph unicode="&#xe1;" glyph-name="aacute" horiz-adv-x="560" d="M376 534T415 523T495 491L440 114Q438 103 438 84Q438 63 445 51T471 30L454 -11Q419 -3 401 18T384 84Q354 40 313 15T223 -11Q145 -11 102 43T58 192Q58 270 86 349T174 481T327 534Q376
534 415 523ZM258 487T211 441T142 327T120 192Q120 116 149 77T232 38Q279 38 316 66T388 148L433 463Q385 487 329 487Q258 487 211 441ZM455 783L475 730L269 645L254 678L455 783Z" />
<glyph unicode="&#xe2;" glyph-name="acircumflex" horiz-adv-x="560" d="M376 534T415 523T495 491L440 114Q438 103 438 84Q438 63 445 51T471 30L454 -11Q419 -3 401 18T384 84Q354 40 313 15T223 -11Q145 -11 102 43T58 192Q58 270 86 349T174 481T327 534Q376
534 415 523ZM258 487T211 441T142 327T120 192Q120 116 149 77T232 38Q279 38 316 66T388 148L433 463Q385 487 329 487Q258 487 211 441ZM235 643L209 674L353 780H389L503 674L475 643L365 728L235 643Z" />
<glyph unicode="&#xe3;" glyph-name="atilde" horiz-adv-x="560" d="M376 534T415 523T495 491L440 114Q438 103 438 84Q438 63 445 51T471 30L454 -11Q419 -3 401 18T384 84Q354 40 313 15T223 -11Q145 -11 102 43T58 192Q58 270 86 349T174 481T327 534Q376
534 415 523ZM258 487T211 441T142 327T120 192Q120 116 149 77T232 38Q279 38 316 66T388 148L433 463Q385 487 329 487Q258 487 211 441ZM401 666T387 672T353 692Q340 702 330 707T308 712Q290 712 277 703T245 670L212 692Q257 758 309 758Q327 758 340 752T373
733Q391 722 400 718T420 713Q436 713 450 723T482 757L518 736Q474 666 421 666Q401 666 387 672Z" />
<glyph unicode="&#xe4;" glyph-name="adieresis" horiz-adv-x="560" d="M376 534T415 523T495 491L440 114Q438 103 438 84Q438 63 445 51T471 30L454 -11Q419 -3 401 18T384 84Q354 40 313 15T223 -11Q145 -11 102 43T58 192Q58 270 86 349T174 481T327 534Q376
534 415 523ZM258 487T211 441T142 327T120 192Q120 116 149 77T232 38Q279 38 316 66T388 148L433 463Q385 487 329 487Q258 487 211 441ZM249 663T239 673T228 698Q228 717 240 729T272 742Q288 742 298 732T309 706Q309 688 297 676T265 663Q249 663 239 673ZM437
663T427 673T416 698Q416 717 429 729T461 742Q477 742 487 732T497 706Q497 688 485 676T453 663Q437 663 427 673Z" />
<glyph unicode="&#xe5;" glyph-name="aring" horiz-adv-x="560" d="M376 534T415 523T495 491L440 114Q438 103 438 84Q438 63 445 51T471 30L454 -11Q419 -3 401 18T384 84Q354 40 313 15T223 -11Q145 -11 102 43T58 192Q58 270 86 349T174 481T327 534Q376 534
415 523ZM258 487T211 441T142 327T120 192Q120 116 149 77T232 38Q279 38 316 66T388 148L433 463Q385 487 329 487Q258 487 211 441ZM417 821T441 798T466 738Q466 693 435 663T357 633Q317 633 293 656T268 716Q268 761 300 791T377 821Q417 821 441 798ZM346
785T329 766T312 717Q312 694 324 682T358 669Q388 669 405 689T423 737Q423 760 411 772T376 785Q346 785 329 766Z" />
<glyph unicode="&#xe6;" glyph-name="ae" horiz-adv-x="818" d="M350 534T388 507T439 433Q463 473 514 503T629 534Q702 534 744 499T786 407Q786 312 691 266T422 207Q422 40 558 40Q599 40 633 52T705 92L732 51Q689 20 646 5T554 -11Q492 -11 448 16T383 93Q338
37 289 13T184 -11Q115 -11 75 26T34 125Q34 202 92 253T275 304H377Q386 347 401 382Q399 429 366 457T278 485Q244 485 212 478T135 456L122 501Q208 534 284 534Q350 534 388 507ZM539 486T489 417T426 253Q577 265 651 300T725 405Q725 439 701 462T628 486Q539
486 489 417ZM280 261Q185 261 141 225T97 125Q97 81 121 59T191 36Q241 36 284 61T369 142Q365 161 365 197Q365 238 369 261H280Z" />
<glyph unicode="&#xe7;" glyph-name="ccedilla" horiz-adv-x="467" d="M249 485T205 440T140 329T120 197Q120 118 154 79T251 40Q287 40 317 51T380 84L405 43Q339 -8 258 -11L249 -64Q291 -68 311 -86T332 -137Q332 -177 301 -202T219 -227Q170 -227 139 -205L160
-170Q188 -185 219 -185Q246 -185 263 -173T281 -138Q281 -115 263 -106T199 -96L218 -9Q144 0 102 54T60 200Q60 276 87 353T172 482T320 534Q407 534 461 480L428 443Q405 464 379 474T319 485Q249 485 205 440Z" />
<glyph unicode="&#xe8;" glyph-name="egrave" horiz-adv-x="513" d="M481 312T387 266T120 206V200Q120 118 155 79T253 40Q294 40 328 52T401 92L427 51Q385 20 342 5T249 -11Q159 -11 109 44T59 199Q59 278 87 355T176 483T326 534Q399 534 440 499T481 408Q481
312 387 266ZM236 486T186 417T123 252Q273 264 347 300T421 406Q421 440 397 463T326 486Q236 486 186 417ZM276 783L449 678L429 645L246 730L276 783Z" />
<glyph unicode="&#xe9;" glyph-name="eacute" horiz-adv-x="513" d="M481 312T387 266T120 206V200Q120 118 155 79T253 40Q294 40 328 52T401 92L427 51Q385 20 342 5T249 -11Q159 -11 109 44T59 199Q59 278 87 355T176 483T326 534Q399 534 440 499T481 408Q481
312 387 266ZM236 486T186 417T123 252Q273 264 347 300T421 406Q421 440 397 463T326 486Q236 486 186 417ZM429 783L449 730L243 645L228 678L429 783Z" />
<glyph unicode="&#xea;" glyph-name="ecircumflex" horiz-adv-x="513" d="M481 312T387 266T120 206V200Q120 118 155 79T253 40Q294 40 328 52T401 92L427 51Q385 20 342 5T249 -11Q159 -11 109 44T59 199Q59 278 87 355T176 483T326 534Q399 534 440 499T481
408Q481 312 387 266ZM236 486T186 417T123 252Q273 264 347 300T421 406Q421 440 397 463T326 486Q236 486 186 417ZM209 643L183 674L327 780H363L477 674L449 643L339 728L209 643Z" />
<glyph unicode="&#xeb;" glyph-name="edieresis" horiz-adv-x="513" d="M481 312T387 266T120 206V200Q120 118 155 79T253 40Q294 40 328 52T401 92L427 51Q385 20 342 5T249 -11Q159 -11 109 44T59 199Q59 278 87 355T176 483T326 534Q399 534 440 499T481 408Q481
312 387 266ZM236 486T186 417T123 252Q273 264 347 300T421 406Q421 440 397 463T326 486Q236 486 186 417ZM223 663T213 673T202 698Q202 717 214 729T246 742Q262 742 272 732T283 706Q283 688 271 676T239 663Q223 663 213 673ZM411 663T401 673T390 698Q390
717 403 729T435 742Q451 742 461 732T471 706Q471 688 459 676T427 663Q411 663 401 673Z" />
<glyph unicode="&#xec;" glyph-name="igrave" horiz-adv-x="269" d="M200 523L126 0H68L142 523H200ZM135 783L308 678L288 645L105 730L135 783Z" />
<glyph unicode="&#xed;" glyph-name="iacute" horiz-adv-x="269" d="M200 523L126 0H68L142 523H200ZM288 783L308 730L102 645L87 678L288 783Z" />
<glyph unicode="&#xee;" glyph-name="icircumflex" horiz-adv-x="269" d="M200 523L126 0H68L142 523H200ZM68 643L42 674L186 780H222L336 674L308 643L198 728L68 643Z" />
<glyph unicode="&#xef;" glyph-name="idieresis" horiz-adv-x="269" d="M200 523L126 0H68L142 523H200ZM82 663T72 673T61 698Q61 717 73 729T105 742Q121 742 131 732T142 706Q142 688 130 676T98 663Q82 663 72 673ZM270 663T260 673T249 698Q249 717 262 729T294
742Q310 742 320 732T330 706Q330 688 318 676T286 663Q270 663 260 673Z" />
<glyph unicode="&#xf0;" glyph-name="eth" horiz-adv-x="564" d="M437 612T466 545T496 385Q496 278 468 188T382 44T237 -11Q153 -11 105 40T57 183Q57 251 81 317T156 426T285 469Q382 469 438 391Q438 466 415 524T342 628L253 551L213 571L305 655Q245 687
190 698L206 744Q282 729 343 688L423 762L455 731L378 661Q437 612 466 545ZM326 38T376 122T435 332Q383 420 291 420Q229 420 190 385T133 295T116 182Q116 112 147 75T238 38Q326 38 376 122Z" />
<glyph unicode="&#xf1;" glyph-name="ntilde" horiz-adv-x="581" d="M435 534T467 501T499 407Q499 389 496 369L444 0H386L438 367Q440 379 440 400Q440 485 364 485Q263 485 170 313L126 0H68L142 523H192L178 393Q219 461 269 497T376 534Q435 534 467 501ZM391
666T377 672T343 692Q330 702 320 707T298 712Q280 712 267 703T235 670L202 692Q247 758 299 758Q317 758 330 752T363 733Q381 722 390 718T410 713Q426 713 440 723T472 757L508 736Q464 666 411 666Q391 666 377 672Z" />
<glyph unicode="&#xf2;" glyph-name="ograve" horiz-adv-x="569" d="M159 -11T110 45T60 201Q60 276 86 352T170 481T321 534Q412 534 461 479T510 324Q510 250 485 173T400 43T249 -11Q159 -11 110 45ZM322 38T366 84T430 196T449 328Q449 406 416 446T320 486Q248
486 203 440T139 326T120 196Q120 118 154 78T251 38Q322 38 366 84ZM286 783L459 678L439 645L256 730L286 783Z" />
<glyph unicode="&#xf3;" glyph-name="oacute" horiz-adv-x="569" d="M159 -11T110 45T60 201Q60 276 86 352T170 481T321 534Q412 534 461 479T510 324Q510 250 485 173T400 43T249 -11Q159 -11 110 45ZM322 38T366 84T430 196T449 328Q449 406 416 446T320 486Q248
486 203 440T139 326T120 196Q120 118 154 78T251 38Q322 38 366 84ZM439 783L459 730L253 645L238 678L439 783Z" />
<glyph unicode="&#xf4;" glyph-name="ocircumflex" horiz-adv-x="569" d="M159 -11T110 45T60 201Q60 276 86 352T170 481T321 534Q412 534 461 479T510 324Q510 250 485 173T400 43T249 -11Q159 -11 110 45ZM322 38T366 84T430 196T449 328Q449 406 416 446T320
486Q248 486 203 440T139 326T120 196Q120 118 154 78T251 38Q322 38 366 84ZM219 643L193 674L337 780H373L487 674L459 643L349 728L219 643Z" />
<glyph unicode="&#xf5;" glyph-name="otilde" horiz-adv-x="569" d="M159 -11T110 45T60 201Q60 276 86 352T170 481T321 534Q412 534 461 479T510 324Q510 250 485 173T400 43T249 -11Q159 -11 110 45ZM322 38T366 84T430 196T449 328Q449 406 416 446T320 486Q248
486 203 440T139 326T120 196Q120 118 154 78T251 38Q322 38 366 84ZM385 666T371 672T337 692Q324 702 314 707T292 712Q274 712 261 703T229 670L196 692Q241 758 293 758Q311 758 324 752T357 733Q375 722 384 718T404 713Q420 713 434 723T466 757L502 736Q458
666 405 666Q385 666 371 672Z" />
<glyph unicode="&#xf6;" glyph-name="odieresis" horiz-adv-x="569" d="M159 -11T110 45T60 201Q60 276 86 352T170 481T321 534Q412 534 461 479T510 324Q510 250 485 173T400 43T249 -11Q159 -11 110 45ZM322 38T366 84T430 196T449 328Q449 406 416 446T320
486Q248 486 203 440T139 326T120 196Q120 118 154 78T251 38Q322 38 366 84ZM233 663T223 673T212 698Q212 717 224 729T256 742Q272 742 282 732T293 706Q293 688 281 676T249 663Q233 663 223 673ZM421 663T411 673T400 698Q400 717 413 729T445 742Q461 742
471 732T481 706Q481 688 469 676T437 663Q421 663 411 673Z" />
<glyph unicode="&#xf7;" glyph-name="divide" horiz-adv-x="491" d="M203 65T191 77T179 109Q179 131 193 146T230 161Q250 161 262 149T274 117Q274 95 259 80T222 65Q203 65 191 77ZM265 503T253 515T241 547Q241 569 255 584T292 599Q312 599 324 587T336 555Q336
533 321 518T284 503Q265 503 253 515ZM75 306L82 357H436L428 306H75Z" />
<glyph unicode="&#xf8;" glyph-name="oslash" horiz-adv-x="569" d="M469 480T489 434T510 324Q510 250 485 173T400 43T249 -11Q216 -11 186 -3L129 -125L82 -111L142 17Q102 43 81 90T60 201Q60 276 86 352T170 481T321 534Q354 534 384 526L441 648L489 634L430
505Q469 480 489 434ZM248 486T203 440T139 326T120 196Q120 99 170 61L367 479Q347 486 320 486Q248 486 203 440ZM322 38T366 84T430 196T449 328Q449 425 401 462L204 44Q225 38 251 38Q322 38 366 84Z" />
<glyph unicode="&#xf9;" glyph-name="ugrave" horiz-adv-x="577" d="M147 -11T115 22T82 115Q82 132 85 151L137 523H195L143 153Q141 141 141 121Q141 37 217 37Q272 37 319 82T405 203L450 523H508L434 0H386L400 133Q364 66 316 28T206 -11Q147 -11 115 22ZM287
783L460 678L440 645L257 730L287 783Z" />
<glyph unicode="&#xfa;" glyph-name="uacute" horiz-adv-x="577" d="M147 -11T115 22T82 115Q82 132 85 151L137 523H195L143 153Q141 141 141 121Q141 37 217 37Q272 37 319 82T405 203L450 523H508L434 0H386L400 133Q364 66 316 28T206 -11Q147 -11 115 22ZM440
783L460 730L254 645L239 678L440 783Z" />
<glyph unicode="&#xfb;" glyph-name="ucircumflex" horiz-adv-x="577" d="M147 -11T115 22T82 115Q82 132 85 151L137 523H195L143 153Q141 141 141 121Q141 37 217 37Q272 37 319 82T405 203L450 523H508L434 0H386L400 133Q364 66 316 28T206 -11Q147 -11 115
22ZM220 643L194 674L338 780H374L488 674L460 643L350 728L220 643Z" />
<glyph unicode="&#xfc;" glyph-name="udieresis" horiz-adv-x="577" d="M147 -11T115 22T82 115Q82 132 85 151L137 523H195L143 153Q141 141 141 121Q141 37 217 37Q272 37 319 82T405 203L450 523H508L434 0H386L400 133Q364 66 316 28T206 -11Q147 -11 115
22ZM234 663T224 673T213 698Q213 717 225 729T257 742Q273 742 283 732T294 706Q294 688 282 676T250 663Q234 663 224 673ZM422 663T412 673T401 698Q401 717 414 729T446 742Q462 742 472 732T482 706Q482 688 470 676T438 663Q422 663 412 673Z" />
<glyph unicode="&#xfd;" glyph-name="yacute" horiz-adv-x="465" d="M238 -4Q195 -94 142 -140T-5 -204L-8 -158Q45 -146 78 -127T132 -80T181 0H159L52 523H114L203 44L425 523H487L238 -4ZM382 783L402 730L196 645L181 678L382 783Z" />
<glyph unicode="&#xfe;" glyph-name="thorn" horiz-adv-x="571" d="M432 534T472 483T513 336Q513 255 487 176T400 43T244 -11Q183 -11 127 12L98 -199L39 -207L172 736L231 744L190 457Q267 534 356 534Q432 534 472 483ZM320 38T366 85T433 202T454 340Q454
485 342 485Q296 485 259 463T182 398L136 59Q166 48 190 43T247 38Q320 38 366 85Z" />
<glyph unicode="&#xff;" glyph-name="ydieresis" horiz-adv-x="465" d="M238 -4Q195 -94 142 -140T-5 -204L-8 -158Q45 -146 78 -127T132 -80T181 0H159L52 523H114L203 44L425 523H487L238 -4ZM176 663T166 673T155 698Q155 717 167 729T199 742Q215 742 225
732T236 706Q236 688 224 676T192 663Q176 663 166 673ZM364 663T354 673T343 698Q343 717 356 729T388 742Q404 742 414 732T424 706Q424 688 412 676T380 663Q364 663 354 673Z" />
<glyph unicode="&#x2013;" glyph-name="endash" horiz-adv-x="517" d="M42 288L49 338H489L481 288H42Z" />
<glyph unicode="&#x2014;" glyph-name="emdash" horiz-adv-x="778" d="M43 288L49 338H750L743 288H43Z" />
<glyph unicode="&#x2018;" glyph-name="quoteleft" horiz-adv-x="216" d="M126 526T115 537T103 566Q103 579 106 589T121 619L196 741H236L175 606Q193 596 193 572Q193 553 180 540T145 526Q126 526 115 537Z" />
<glyph unicode="&#x2019;" glyph-name="quoteright" horiz-adv-x="216" d="M195 742T206 731T218 702Q218 689 215 679T200 649L125 527H85L146 662Q128 673 128 696Q128 715 141 728T176 742Q195 742 206 731Z" />
<glyph unicode="&#x201a;" glyph-name="quotesinglbase" horiz-adv-x="216" d="M101 76T112 65T124 36Q124 23 121 13T106 -17L31 -139H-9L52 -4Q34 7 34 30Q34 49 47 62T82 76Q101 76 112 65Z" />
<glyph unicode="&#x201c;" glyph-name="quotedblleft" horiz-adv-x="369" d="M126 526T115 537T103 566Q103 579 106 589T121 619L196 741H236L175 606Q193 596 193 572Q193 553 180 540T145 526Q126 526 115 537ZM279 526T268 537T256 566Q256 579 259 589T274
619L349 741H389L328 606Q346 596 346 572Q346 553 333 540T298 526Q279 526 268 537Z" />
<glyph unicode="&#x201d;" glyph-name="quotedblright" horiz-adv-x="369" d="M195 742T206 731T218 702Q218 689 215 679T200 649L125 527H85L146 662Q128 673 128 696Q128 715 141 728T176 742Q195 742 206 731ZM348 742T359 731T371 702Q371 689 368 679T353
649L278 527H238L299 662Q281 673 281 696Q281 715 294 728T329 742Q348 742 359 731Z" />
<glyph unicode="&#x201e;" glyph-name="quotedblbase" horiz-adv-x="369" d="M101 76T112 65T124 36Q124 23 121 13T106 -17L31 -139H-9L52 -4Q34 7 34 30Q34 49 47 62T82 76Q101 76 112 65ZM254 76T265 65T277 36Q277 23 274 13T259 -17L184 -139H144L205 -4Q187
7 187 30Q187 49 200 62T235 76Q254 76 265 65Z" />
<glyph unicode="&#x2022;" glyph-name="bullet" horiz-adv-x="284" d="M192 420T210 402T229 355Q229 320 205 296T147 271Q117 271 99 289T80 337Q80 372 103 396T162 420Q192 420 210 402Z" />
<glyph unicode="&#x2039;" glyph-name="guilsinglleft" horiz-adv-x="339" d="M267 520L302 495L136 288L244 80L206 56L72 267L76 307L267 520Z" />
<glyph unicode="&#x203a;" glyph-name="guilsinglright" horiz-adv-x="340" d="M140 520L275 307L270 267L79 56L44 80L210 288L103 495L140 520Z" />
</font>
</defs>
</svg>
