<?xml version="1.0" standalone="no"?>
<!DOCTYPE svg PUBLIC "-//W3C//DTD SVG 1.1//EN" "http://www.w3.org/Graphics/SVG/1.1/DTD/svg11.dtd">
<svg xmlns="http://www.w3.org/2000/svg">
<defs >
<font id="OpenSans" horiz-adv-x="1169" ><font-face
    font-family="Open Sans Medium"
    units-per-em="2048"
    panose-1="0 0 0 0 0 0 0 0 0 0"
    ascent="2189"
    descent="-600"
    alphabetic="0" />
<glyph unicode=" " glyph-name="space" horiz-adv-x="532" />
<glyph unicode="!" glyph-name="exclam" horiz-adv-x="552" d="M348 426H205L158 1462H395L348 426ZM142 114Q142 190 180 221T275 253Q330 253 369 222T408 114Q408 40 369 6T275 -28Q219 -28 181 6T142 114Z" />
<glyph unicode="&quot;" glyph-name="quotedbl" horiz-adv-x="854" d="M339 1462L301 934H173L135 1462H339ZM719 1462L681 934H553L515 1462H719Z" />
<glyph unicode="#" glyph-name="numbersign" horiz-adv-x="1323" d="M985 885L924 572H1201V426H896L813 0H657L740 426H463L382 0H229L306 426H50V572H335L397 885H125V1031H423L505 1462H662L581 1031H861L942 1462H1095L1013 1031H1272V885H985ZM490 572H768L829
885H552L490 572Z" />
<glyph unicode="$" glyph-name="dollar" horiz-adv-x="1171" d="M518 -119V89Q399 91 295 110T119 161V348Q192 314 302 288T518 258V665Q380 709 292 759T160 878T117 1047Q117 1149 167 1222T307 1337T518 1386V1554H644V1389Q753 1385 844 1364T1016 1309L953
1146Q882 1175 802 1194T644 1219V818Q772 778 865 733T1008 621T1058 447Q1058 300 951 208T644 96V-119H518ZM644 266Q754 278 807 321T861 435Q861 484 840 516T771 573T644 621V266ZM518 863V1215Q452 1210 407 1190T338 1136T315 1057Q315 1006 335 971T400
911T518 863Z" />
<glyph unicode="%" glyph-name="percent" horiz-adv-x="1731" d="M401 1483Q557 1483 637 1364T718 1026Q718 808 641 687T401 565Q251 565 172 686T92 1026Q92 1244 167 1363T401 1483ZM402 1342Q329 1342 295 1263T260 1026Q260 867 294 787T402 707Q477 707
513 787T550 1026Q550 1183 514 1262T402 1342ZM1355 1462L544 0H375L1186 1462H1355ZM1323 898Q1477 898 1558 778T1639 441Q1639 224 1562 103T1323 -19Q1172 -19 1093 102T1014 441Q1014 658 1089 778T1323 898ZM1323 755Q1250 755 1216 677T1182 440Q1182 282
1216 202T1323 122Q1398 122 1435 201T1472 440Q1472 598 1436 676T1323 755Z" />
<glyph unicode="&amp;" glyph-name="ampersand" horiz-adv-x="1503" d="M626 1485Q737 1485 818 1448T945 1340T991 1170Q991 1037 907 946T694 780L1069 416Q1121 481 1154 563T1212 740H1417Q1385 612 1333 496T1200 289L1495 0H1232L1067 161Q1005 107 933
66T775 3T581 -20Q434 -20 327 27T162 165T104 383Q104 489 141 564T247 698T412 811Q364 865 325 918T262 1031T239 1162Q239 1263 287 1335T421 1446T626 1485ZM532 686Q464 645 415 605T341 514T315 395Q315 285 390 220T590 154Q708 154 794 192T942 285L532
686ZM621 1323Q540 1323 486 1281T432 1157Q432 1088 469 1028T574 897Q690 961 743 1021T797 1162Q797 1236 748 1279T621 1323Z" />
<glyph unicode="&apos;" glyph-name="quotesingle" horiz-adv-x="473" d="M339 1462L301 934H173L135 1462H339Z" />
<glyph unicode="(" glyph-name="parenleft" horiz-adv-x="627" d="M82 561Q82 730 114 889T214 1194T383 1462H565Q421 1272 348 1040T275 563Q275 404 307 248T404 -52T563 -324H383Q281 -204 214 -62T115 237T82 561Z" />
<glyph unicode=")" glyph-name="parenright" horiz-adv-x="627" d="M545 563Q545 396 513 238T414 -62T244 -324H64Q159 -197 223 -52T319 248T352 564Q352 727 319 885T222 1189T62 1462H244Q347 1339 413 1194T512 890T545 563Z" />
<glyph unicode="*" glyph-name="asterisk" horiz-adv-x="1125" d="M660 1556L622 1166L1011 1279L1039 1084L670 1049L909 731L731 634L556 979L397 635L212 731L449 1049L83 1085L113 1279L496 1166L457 1556H660Z" />
<glyph unicode="+" glyph-name="plus" horiz-adv-x="1171" d="M663 800H1068V644H663V229H505V644H99V800H505V1217H663V800Z" />
<glyph unicode="," glyph-name="comma" horiz-adv-x="544" d="M385 238L398 215Q380 142 353 59T292 -107T226 -264H78Q99 -184 118 -95T154 80T181 238H385Z" />
<glyph unicode="-" glyph-name="hyphen" horiz-adv-x="659" d="M77 463V637H583V463H77Z" />
<glyph unicode="." glyph-name="period" horiz-adv-x="550" d="M142 114Q142 190 180 221T274 253Q330 253 369 222T408 114Q408 40 369 6T274 -28Q219 -28 181 6T142 114Z" />
<glyph unicode="/" glyph-name="slash" horiz-adv-x="775" d="M756 1462L212 0H19L564 1462H756Z" />
<glyph unicode="0" glyph-name="zero" horiz-adv-x="1171" d="M1074 733Q1074 555 1047 415T962 178T810 31T584 -20Q418 -20 310 69T149 326T96 733Q96 967 144 1135T299 1394T584 1485Q752 1485 860 1396T1021 1138T1074 733ZM298 733Q298 538 326 408T417 214T584
149Q688 149 751 213T843 407T871 733Q871 925 843 1054T753 1249T584 1315Q478 1315 416 1250T326 1055T298 733Z" />
<glyph unicode="1" glyph-name="one" horiz-adv-x="1171" d="M751 0H552V989Q552 1042 552 1086T555 1171T559 1250Q533 1223 505 1199T439 1143L272 1008L169 1140L584 1462H751V0Z" />
<glyph unicode="2" glyph-name="two" horiz-adv-x="1171" d="M1070 0H96V158L481 549Q591 660 663 743T773 905T810 1077Q810 1191 743 1251T565 1311Q465 1311 385 1275T218 1170L110 1304Q169 1354 238 1394T389 1459T571 1483Q708 1483 807 1435T961 1299T1015
1093Q1015 976 969 877T837 679T636 470L351 188V179H1070V0Z" />
<glyph unicode="3" glyph-name="three" horiz-adv-x="1171" d="M1016 1125Q1016 1026 977 954T869 835T709 770V763Q883 741 971 652T1060 417Q1060 290 1000 191T816 36T496 -20Q379 -20 279 -1T89 60V243Q180 197 286 172T490 146Q681 146 764 220T848 424Q848
510 803 564T670 645T449 671H312V837H451Q574 837 653 869T772 961T811 1099Q811 1202 744 1258T553 1315Q477 1315 415 1299T299 1255T195 1194L96 1333Q177 1395 292 1439T557 1483Q782 1483 899 1384T1016 1125Z" />
<glyph unicode="4" glyph-name="four" horiz-adv-x="1171" d="M1133 330H925V0H728V330H42V489L724 1468H925V503H1133V330ZM728 503V923Q728 973 729 1018T732 1105T736 1181T739 1246H731Q712 1206 689 1163T639 1083L234 503H728Z" />
<glyph unicode="5" glyph-name="five" horiz-adv-x="1171" d="M576 904Q721 904 829 854T998 706T1059 470Q1059 318 994 208T805 39T505 -20Q391 -20 292 0T124 60V245Q198 202 302 176T504 149Q610 149 688 182T810 282T853 452Q853 588 768 662T501 736Q440
736 369 726T252 704L158 761L214 1462H958V1283H388L354 880Q391 888 446 896T576 904Z" />
<glyph unicode="6" glyph-name="six" horiz-adv-x="1171" d="M105 624Q105 755 123 880T186 1114T309 1305T504 1435T786 1482Q830 1482 883 1478T972 1464V1295Q934 1307 887 1313T793 1319Q608 1319 503 1244T353 1039T301 746H312Q342 795 389 835T502 898T658
922Q786 922 881 870T1028 717T1080 474Q1080 322 1023 211T861 40T609 -20Q501 -20 409 20T249 141T143 342T105 624ZM606 147Q731 147 806 227T882 473Q882 608 815 686T613 765Q521 765 453 726T347 629T309 509Q309 446 327 383T382 266T475 180T606 147Z"
/>
<glyph unicode="7" glyph-name="seven" horiz-adv-x="1171" d="M274 0L862 1283H84V1462H1077V1318L492 0H274Z" />
<glyph unicode="8" glyph-name="eight" horiz-adv-x="1171" d="M585 1483Q711 1483 811 1443T969 1326T1027 1133Q1027 1045 990 979T889 863T747 774Q837 732 911 678T1029 551T1073 378Q1073 256 1013 167T843 29T588 -20Q430 -20 320 26T153 160T95 371Q95
472 137 546T248 674T399 766Q328 806 270 857T177 976T142 1135Q142 1247 200 1324T360 1442T585 1483ZM289 375Q289 271 362 204T584 137Q726 137 802 203T879 379Q879 448 843 500T742 593T593 669L559 682Q474 646 414 603T322 504T289 375ZM583 1324Q475 1324
407 1272T338 1123Q338 1053 371 1005T462 921T590 855Q658 885 712 920T798 1005T830 1123Q830 1221 762 1272T583 1324Z" />
<glyph unicode="9" glyph-name="nine" horiz-adv-x="1171" d="M1070 839Q1070 708 1052 583T989 348T866 156T670 26T388 -21Q345 -21 289 -16T197 -1V169Q235 156 284 149T380 142Q566 142 671 217T821 421T873 715H861Q831 667 785 627T672 563T512 539Q386
539 292 591T146 744T94 986Q94 1139 152 1250T316 1422T566 1482Q675 1482 767 1442T927 1321T1032 1120T1070 839ZM568 1314Q445 1314 369 1234T293 989Q293 853 358 775T560 696Q654 696 722 734T828 832T866 953Q866 1015 848 1078T793 1195T700 1281T568 1314Z"
/>
<glyph unicode=":" glyph-name="colon" horiz-adv-x="550" d="M142 114Q142 190 180 221T274 253Q330 253 369 222T408 114Q408 40 369 6T274 -28Q219 -28 181 6T142 114ZM142 986Q142 1063 180 1094T274 1126Q330 1126 369 1095T408 986Q408 912 369 879T274
846Q219 846 181 879T142 986Z" />
<glyph unicode=";" glyph-name="semicolon" horiz-adv-x="550" d="M372 238L386 215Q368 143 340 60T280 -107T214 -264H65Q85 -184 105 -96T142 79T169 238H372ZM139 986Q139 1063 177 1094T271 1126Q328 1126 366 1095T405 986Q405 912 367 879T271 846Q216
846 178 879T139 986Z" />
<glyph unicode="&lt;" glyph-name="less" horiz-adv-x="1171" d="M1069 233L99 662V769L1069 1250V1079L312 723L1069 403V233Z" />
<glyph unicode="=" glyph-name="equal" horiz-adv-x="1171" d="M108 845V1001H1060V845H108ZM108 441V597H1060V441H108Z" />
<glyph unicode="&gt;" glyph-name="greater" horiz-adv-x="1171" d="M99 403L858 722L99 1079V1250L1069 769V662L99 233V403Z" />
<glyph unicode="?" glyph-name="question" horiz-adv-x="907" d="M285 426V483Q285 560 301 616T355 722T462 826Q536 886 579 929T642 1015T662 1118Q662 1212 600 1262T424 1312Q328 1312 250 1287T96 1224L25 1379Q111 1425 212 1454T437 1483Q635 1483 744
1386T853 1124Q853 1033 824 969T741 850T609 736Q545 683 511 644T464 564T451 466V426H285ZM244 114Q244 190 281 221T377 253Q431 253 470 222T509 114Q509 40 470 6T377 -28Q319 -28 282 6T244 114Z" />
<glyph unicode="@" glyph-name="at" horiz-adv-x="1836" d="M1723 731Q1723 636 1702 545T1636 381T1525 265T1367 221Q1279 221 1223 270T1153 390H1143Q1104 318 1032 270T855 221Q692 221 604 326T516 605Q516 740 571 844T726 1007T963 1067Q1054 1067 1142
1052T1283 1017L1263 610Q1262 577 1261 557T1260 527Q1260 425 1295 390T1378 355Q1440 355 1482 406T1546 542T1568 732Q1568 918 1493 1049T1286 1250T984 1319Q812 1319 680 1265T457 1113T319 880T272 583Q272 384 343 245T551 33T887 -40Q1008 -40 1125 -13T1336
50V-96Q1245 -134 1133 -158T889 -182Q645 -182 472 -92T206 169T114 577Q114 768 174 929T347 1210T621 1395T983 1461Q1199 1461 1366 1373T1628 1121T1723 731ZM686 601Q686 473 737 414T879 355Q991 355 1042 439T1102 661L1114 912Q1087 920 1049 925T968
931Q866 931 804 884T714 761T686 601Z" />
<glyph unicode="A" glyph-name="A" horiz-adv-x="1325" d="M1108 0L946 435H373L213 0H0L558 1468H768L1323 0H1108ZM889 613L735 1044Q728 1066 714 1110T685 1201T661 1279Q651 1238 638 1193T613 1108T592 1044L436 613H889Z" />
<glyph unicode="B" glyph-name="B" horiz-adv-x="1336" d="M196 1462H620Q899 1462 1040 1380T1181 1099Q1181 1014 1150 947T1060 836T915 776V766Q1005 751 1075 712T1185 602T1226 418Q1226 284 1163 191T985 49T710 0H196V1462ZM401 847H656Q833 847 901 905T969
1074Q969 1189 888 1239T631 1290H401V847ZM401 678V173H680Q861 173 935 244T1010 435Q1010 511 977 565T868 649T666 678H401Z" />
<glyph unicode="C" glyph-name="C" horiz-adv-x="1294" d="M820 1306Q707 1306 618 1267T466 1152T371 970T338 731Q338 554 390 425T549 226T816 156Q912 156 999 173T1174 219V43Q1090 11 1001 -4T791 -20Q567 -20 419 73T197 334T124 732Q124 898 170 1035T305
1273T523 1428T822 1483Q932 1483 1036 1460T1229 1394L1153 1223Q1080 1256 997 1281T820 1306Z" />
<glyph unicode="D" glyph-name="D" horiz-adv-x="1494" d="M1370 745Q1370 498 1279 333T1016 84T597 0H196V1462H642Q866 1462 1029 1381T1281 1140T1370 745ZM1155 739Q1155 927 1094 1049T915 1230T626 1290H401V174H590Q873 174 1014 316T1155 739Z" />
<glyph unicode="E" glyph-name="E" horiz-adv-x="1140" d="M1017 0H196V1462H1017V1286H401V851H980V677H401V177H1017V0Z" />
<glyph unicode="F" glyph-name="F" horiz-adv-x="1074" d="M400 0H196V1462H1016V1286H400V790H978V615H400V0Z" />
<glyph unicode="G" glyph-name="G" horiz-adv-x="1488" d="M804 780H1332V59Q1217 20 1095 0T821 -20Q595 -20 440 70T205 328T124 732Q124 959 213 1128T472 1390T882 1483Q1002 1483 1112 1460T1316 1396L1242 1223Q1164 1258 1070 1282T874 1307Q706 1307 586
1236T401 1036T336 730Q336 557 390 428T559 227T855 155Q946 155 1010 165T1129 189V601H804V780Z" />
<glyph unicode="H" glyph-name="H" horiz-adv-x="1524" d="M1327 0H1122V675H401V0H196V1462H401V852H1122V1462H1327V0Z" />
<glyph unicode="I" glyph-name="I" horiz-adv-x="599" d="M196 0V1462H401V0H196Z" />
<glyph unicode="J" glyph-name="J" horiz-adv-x="582" d="M0 -396Q-53 -396 -93 -389T-161 -371V-198Q-129 -207 -92 -213T-13 -219Q43 -219 89 -197T162 -121T189 29V1462H395V39Q395 -110 347 -206T209 -349T0 -396Z" />
<glyph unicode="K" glyph-name="K" horiz-adv-x="1281" d="M1281 0H1042L551 687L401 559V0H196V1462H401V748Q452 808 504 867T609 986L1028 1462H1263L699 825L1281 0Z" />
<glyph unicode="L" glyph-name="L" horiz-adv-x="1091" d="M196 0V1462H401V178H1036V0H196Z" />
<glyph unicode="M" glyph-name="M" horiz-adv-x="1864" d="M833 0L377 1257H369Q372 1216 375 1152T381 1012T384 863V0H196V1462H491L924 271H931L1375 1462H1668V0H1470V875Q1470 941 1472 1012T1477 1148T1484 1255H1475L1008 0H833Z" />
<glyph unicode="N" glyph-name="N" horiz-adv-x="1573" d="M1378 0H1132L375 1198H367Q370 1144 374 1080T380 945T384 802V0H196V1462H440L1194 270H1201Q1199 314 1196 379T1191 516T1188 654V1462H1378V0Z" />
<glyph unicode="O" glyph-name="O" horiz-adv-x="1602" d="M1479 733Q1479 564 1436 426T1309 188T1098 34T802 -20Q630 -20 503 34T291 188T166 427T124 735Q124 960 198 1129T423 1391T805 1485Q1027 1485 1177 1392T1403 1131T1479 733ZM339 733Q339 555 388
426T540 226T802 155Q963 155 1065 225T1215 425T1263 733Q1263 1003 1153 1155T805 1308Q645 1308 542 1239T389 1041T339 733Z" />
<glyph unicode="P" glyph-name="P" horiz-adv-x="1246" d="M599 1462Q882 1462 1012 1349T1143 1028Q1143 934 1113 850T1016 701T838 599T568 561H401V0H196V1462H599ZM583 1290H401V734H546Q673 734 759 762T889 854T933 1020Q933 1156 848 1223T583 1290Z" />
<glyph unicode="Q" glyph-name="Q" horiz-adv-x="1602" d="M1479 733Q1479 557 1433 414T1294 171T1063 21L1409 -348H1127L848 -18Q836 -18 825 -19T802 -20Q630 -20 503 34T291 188T166 427T124 735Q124 960 198 1129T423 1391T805 1485Q1027 1485 1177 1392T1403
1131T1479 733ZM339 733Q339 555 388 426T540 226T802 155Q963 155 1065 225T1215 425T1263 733Q1263 1003 1153 1155T805 1308Q645 1308 542 1239T389 1041T339 733Z" />
<glyph unicode="R" glyph-name="R" horiz-adv-x="1286" d="M599 1462Q784 1462 904 1417T1084 1279T1143 1044Q1143 932 1102 855T995 729T852 652L1261 0H1026L670 598H401V0H196V1462H599ZM586 1288H401V769H600Q773 769 853 836T933 1036Q933 1173 848 1230T586 1288Z" />
<glyph unicode="S" glyph-name="S" horiz-adv-x="1124" d="M1031 393Q1031 263 967 171T785 29T507 -20Q426 -20 353 -12T216 13T102 53V247Q185 213 294 184T519 154Q620 154 688 181T792 259T827 379Q827 449 793 496T686 584T493 669Q410 699 342 737T225 826T148
943T121 1099Q121 1220 180 1306T347 1437T595 1483Q711 1483 811 1460T1003 1397L938 1227Q853 1262 767 1284T589 1306Q504 1306 446 1281T357 1210T326 1101Q326 1030 358 983T459 898T639 817Q764 769 851 715T985 585T1031 393Z" />
<glyph unicode="T" glyph-name="T" horiz-adv-x="1143" d="M674 0H468V1285H24V1462H1117V1285H674V0Z" />
<glyph unicode="U" glyph-name="U" horiz-adv-x="1507" d="M1323 1462V516Q1323 362 1260 241T1068 50T746 -20Q471 -20 327 127T182 520V1462H388V528Q388 343 480 249T756 155Q882 155 962 200T1080 329T1119 528V1462H1323Z" />
<glyph unicode="V" glyph-name="V" horiz-adv-x="1249" d="M1249 1462L731 0H518L0 1462H212L537 522Q555 473 571 419T601 310T624 211Q633 256 646 310T677 419T711 525L1035 1462H1249Z" />
<glyph unicode="W" glyph-name="W" horiz-adv-x="1913" d="M1891 1462L1505 0H1288L1021 930Q1010 967 999 1010T978 1095T960 1172T950 1224Q948 1206 942 1173T926 1097T906 1012T884 929L623 0H407L23 1462H232L455 575Q466 531 476 486T496 395T512 307T525
226Q530 265 538 309T555 400T576 491T599 577L849 1462H1054L1313 572Q1325 530 1336 484T1357 392T1374 304T1388 226Q1395 276 1405 334T1430 454T1458 576L1681 1462H1891Z" />
<glyph unicode="X" glyph-name="X" horiz-adv-x="1229" d="M1224 0H990L609 621L223 0H5L491 760L38 1462H265L618 893L970 1462H1189L735 758L1224 0Z" />
<glyph unicode="Y" glyph-name="Y" horiz-adv-x="1178" d="M590 762L958 1462H1178L692 568V0H487V559L0 1462H224L590 762Z" />
<glyph unicode="Z" glyph-name="Z" horiz-adv-x="1176" d="M1104 0H71V146L836 1284H96V1462H1084V1316L318 178H1104V0Z" />
<glyph unicode="[" glyph-name="bracketleft" horiz-adv-x="672" d="M621 -324H160V1462H621V1307H347V-168H621V-324Z" />
<glyph unicode="\" glyph-name="backslash" horiz-adv-x="775" d="M211 1462L757 0H564L19 1462H211Z" />
<glyph unicode="]" glyph-name="bracketright" horiz-adv-x="672" d="M51 -168H325V1307H51V1462H513V-324H51V-168Z" />
<glyph unicode="^" glyph-name="asciicircum" horiz-adv-x="1171" d="M72 542L511 1472H619L1100 542H929L568 1262L243 542H72Z" />
<glyph unicode="_" glyph-name="underscore" horiz-adv-x="883" d="M887 -311H-4V-184H887V-311Z" />
<glyph unicode="`" glyph-name="grave" horiz-adv-x="611" d="M316 1569Q342 1523 379 1467T456 1357T530 1266V1241H395Q358 1270 313 1310T223 1394T141 1479T82 1549V1569H316Z" />
<glyph unicode="a" glyph-name="a" horiz-adv-x="1163" d="M593 1121Q797 1121 898 1031T999 745V0H855L816 160H808Q762 100 712 60T597 0T437 -20Q337 -20 259 16T137 124T92 309Q92 477 221 564T612 659L802 667V729Q802 858 745 911T584 964Q499 964 421 940T271
881L207 1027Q285 1067 384 1094T593 1121ZM800 535L646 528Q455 521 378 465T300 307Q300 219 353 178T493 137Q627 137 713 212T800 436V535Z" />
<glyph unicode="b" glyph-name="b" horiz-adv-x="1264" d="M372 1556V1174Q372 1108 369 1045T362 948H372Q417 1020 499 1070T712 1121Q913 1121 1034 978T1155 552Q1155 366 1100 238T944 45T707 -20Q578 -20 498 27T373 141H358L320 0H171V1556H372ZM667 956Q558
956 494 913T401 783T372 564V549Q372 353 436 249T668 145Q806 145 877 251T949 554Q949 754 878 855T667 956Z" />
<glyph unicode="c" glyph-name="c" horiz-adv-x="999" d="M614 -20Q462 -20 348 41T172 227T109 545Q109 745 176 872T361 1061T633 1122Q723 1122 801 1104T933 1059L873 896Q817 918 753 935T630 952Q524 952 455 906T350 769T315 547Q315 419 349 331T451 196T620
150Q709 150 780 170T911 221V44Q853 12 783 -4T614 -20Z" />
<glyph unicode="d" glyph-name="d" horiz-adv-x="1264" d="M552 -20Q350 -20 230 123T109 547Q109 831 231 976T557 1122Q642 1122 706 1099T816 1038T894 952H906Q901 983 896 1039T891 1137V1556H1092V0H933L900 153H891Q861 105 815 66T704 3T552 -20ZM599
144Q762 144 829 238T898 517V548Q898 745 834 850T597 956Q457 956 386 847T315 543Q315 351 386 248T599 144Z" />
<glyph unicode="e" glyph-name="e" horiz-adv-x="1165" d="M603 1122Q747 1122 850 1061T1008 887T1063 623V509H315Q318 332 406 238T653 143Q758 143 840 163T1010 222V53Q927 15 844 -2T644 -20Q484 -20 364 44T176 233T109 543Q109 725 170 854T342 1053T603
1122ZM602 966Q480 966 406 887T319 659H861Q860 750 832 819T748 927T602 966Z" />
<glyph unicode="f" glyph-name="f" horiz-adv-x="715" d="M692 947H421V0H220V947H33V1044L220 1105V1181Q220 1320 263 1404T386 1528T582 1567Q651 1567 708 1555T808 1528L756 1374Q722 1385 680 1394T591 1404Q504 1404 463 1348T421 1179V1102H692V947Z" />
<glyph unicode="g" glyph-name="g" horiz-adv-x="1123" d="M483 -492Q262 -492 144 -411T25 -185Q25 -82 90 -11T272 86Q228 106 197 147T165 241Q165 302 199 346T303 433Q216 469 163 552T110 748Q110 867 160 951T306 1079T537 1123Q567 1123 599 1121T660
1113T707 1103H1087V984L891 954Q920 916 938 864T956 750Q956 582 842 485T525 387Q478 388 430 395Q387 370 365 341T343 273Q343 244 362 226T419 200T509 191H701Q881 191 977 115T1073 -107Q1073 -292 921 -392T483 -492ZM490 -345Q619 -345 705 -319T836
-245T880 -131Q880 -71 852 -40T767 3T629 14H447Q377 14 325 -8T244 -71T215 -174Q215 -257 286 -301T490 -345ZM534 524Q645 524 700 582T755 750Q755 867 699 926T533 985Q426 985 370 925T313 748Q313 641 370 583T534 524Z" />
<glyph unicode="h" glyph-name="h" horiz-adv-x="1279" d="M372 1556V1128Q372 1077 369 1028T362 946H374Q409 1004 460 1042T577 1100T716 1120Q845 1120 934 1078T1069 948T1115 718V0H916V691Q916 823 858 889T680 956Q566 956 498 911T401 777T372 561V0H171V1556H372Z"
/>
<glyph unicode="i" glyph-name="i" horiz-adv-x="544" d="M372 1102V0H171V1102H372ZM273 1519Q321 1519 355 1491T390 1400Q390 1337 356 1309T273 1280Q224 1280 191 1308T157 1400Q157 1463 190 1491T273 1519Z" />
<glyph unicode="j" glyph-name="j" horiz-adv-x="544" d="M50 -492Q-1 -492 -43 -485T-117 -467V-306Q-84 -316 -52 -321T20 -326Q87 -326 129 -289T171 -152V1102H372V-160Q372 -260 339 -335T234 -451T50 -492ZM157 1400Q157 1463 190 1491T273 1519Q321 1519
355 1491T390 1400Q390 1337 356 1309T273 1280Q224 1280 191 1308T157 1400Z" />
<glyph unicode="k" glyph-name="k" horiz-adv-x="1125" d="M371 1556V776Q371 730 368 672T361 564H368Q391 594 429 643T498 726L850 1102H1082L640 629L1113 0H875L504 503L371 385V0H171V1556H371Z" />
<glyph unicode="l" glyph-name="l" horiz-adv-x="544" d="M373 0H171V1556H373V0Z" />
<glyph unicode="m" glyph-name="m" horiz-adv-x="1925" d="M1392 1122Q1575 1122 1668 1027T1762 721V0H1563V696Q1563 826 1510 891T1350 956Q1200 956 1134 866T1067 600V0H867V696Q867 783 843 840T772 927T653 956Q550 956 489 912T400 780T372 567V0H171V1102H330L359
950H370Q403 1007 453 1045T566 1102T697 1122Q821 1122 906 1077T1031 940H1044Q1097 1033 1190 1077T1392 1122Z" />
<glyph unicode="n" glyph-name="n" horiz-adv-x="1279" d="M719 1122Q910 1122 1012 1026T1115 718V0H916V691Q916 823 858 889T680 956Q509 956 441 855T372 562V0H171V1102H330L359 947H370Q405 1005 459 1044T579 1102T719 1122Z" />
<glyph unicode="o" glyph-name="o" horiz-adv-x="1241" d="M1134 553Q1134 417 1099 311T996 131T833 19T618 -20Q506 -20 413 18T251 130T146 310T109 553Q109 734 171 861T348 1055T624 1122Q776 1122 891 1055T1070 861T1134 553ZM315 553Q315 426 347 335T447
194T622 145Q727 145 795 194T895 334T927 553Q927 679 895 769T796 907T620 955Q462 955 389 850T315 553Z" />
<glyph unicode="p" glyph-name="p" horiz-adv-x="1264" d="M713 1122Q914 1122 1034 980T1155 554Q1155 366 1100 239T944 46T708 -20Q623 -20 559 2T450 62T373 143H360Q364 104 368 53T373 -40V-490H171V1102H336L363 944H373Q404 993 449 1033T560 1098T713
1122ZM667 956Q561 956 498 915T405 791T373 585V553Q373 421 401 331T494 193T669 145Q763 145 825 196T918 340T949 556Q949 743 880 849T667 956Z" />
<glyph unicode="q" glyph-name="q" horiz-adv-x="1264" d="M890 -490V-21Q890 19 892 68T900 155H889Q844 81 761 31T547 -20Q349 -20 229 123T108 549Q108 735 163 863T320 1056T555 1122Q684 1122 765 1072T894 948H902L928 1102H1091V-490H890ZM598 143Q706
143 770 184T865 307T897 514V549Q897 749 831 852T596 956Q454 956 385 847T315 545Q315 352 384 248T598 143Z" />
<glyph unicode="r" glyph-name="r" horiz-adv-x="860" d="M701 1122Q731 1122 766 1119T826 1110L805 923Q781 929 750 933T691 937Q627 937 569 913T467 844T398 733T373 583V0H171V1102H333L357 903H366Q400 963 448 1013T560 1092T701 1122Z" />
<glyph unicode="s" glyph-name="s" horiz-adv-x="987" d="M898 308Q898 201 846 128T693 17T453 -20Q337 -20 253 -3T101 48V226Q174 191 270 164T458 137Q587 137 644 178T702 289Q702 330 679 361T599 424T434 497Q329 538 255 579T141 678T102 828Q102 971
216 1046T519 1122Q619 1122 707 1102T877 1046L812 891Q740 922 664 942T509 963Q406 963 352 930T297 839Q297 794 322 764T408 706T570 638Q671 600 744 559T858 459T898 308Z" />
<glyph unicode="t" glyph-name="t" horiz-adv-x="770" d="M555 143Q598 143 642 150T718 170V16Q684 1 628 -9T512 -20Q422 -20 349 11T233 117T189 325V947H36V1040L196 1114L267 1352H391V1102H710V947H391V328Q391 235 435 189T555 143Z" />
<glyph unicode="u" glyph-name="u" horiz-adv-x="1279" d="M1107 1102V0H946L918 151H907Q873 94 819 56T698 -1T556 -20Q429 -20 341 22T207 152T161 381V1102H363V409Q363 276 420 210T596 144Q711 144 778 189T875 322T905 537V1102H1107Z" />
<glyph unicode="v" glyph-name="v" horiz-adv-x="1059" d="M419 0L0 1102H213L448 445Q471 380 493 303T524 176H531Q541 227 565 304T611 445L845 1102H1059L639 0H419Z" />
<glyph unicode="w" glyph-name="w" horiz-adv-x="1629" d="M1070 2L902 578Q891 617 879 664T854 758T833 845T818 911H810Q805 886 796 846T776 758T752 662T727 575L551 2H329L23 1103H228L379 526Q394 468 408 406T432 289T447 195H455Q460 221 467 259T484
340T503 423T523 493L709 1103H927L1106 494Q1119 450 1133 396T1158 288T1173 197H1181Q1185 231 1196 285T1221 402T1251 526L1404 1103H1606L1298 2H1070Z" />
<glyph unicode="x" glyph-name="x" horiz-adv-x="1100" d="M424 564L50 1102H279L550 696L821 1102H1048L673 564L1068 0H839L550 431L259 0H32L424 564Z" />
<glyph unicode="y" glyph-name="y" horiz-adv-x="1061" d="M2 1102H219L453 467Q471 418 486 372T513 282T532 196H539Q551 247 573 320T621 468L845 1102H1061L585 -156Q546 -261 491 -336T359 -452T179 -493Q131 -493 95 -488T32 -475V-315Q54 -320 85 -324T151
-328Q214 -328 259 -304T337 -234T392 -129L442 1L2 1102Z" />
<glyph unicode="z" glyph-name="z" horiz-adv-x="970" d="M894 0H74V128L654 946H110V1102H880V960L309 155H894V0Z" />
<glyph unicode="{" glyph-name="braceleft" horiz-adv-x="778" d="M708 -324Q571 -323 480 -290T345 -187T300 -13V295Q300 364 272 406T188 468T51 488V651Q132 652 187 671T271 732T300 844V1154Q300 1259 346 1327T484 1428T708 1462V1304Q639 1302 590 1284T515
1225T489 1120V820Q489 718 434 657T268 577V565Q381 546 435 485T489 322V17Q489 -48 514 -87T589 -145T708 -164V-324Z" />
<glyph unicode="|" glyph-name="bar" horiz-adv-x="1126" d="M483 1555H642V-488H483V1555Z" />
<glyph unicode="}" glyph-name="braceright" horiz-adv-x="778" d="M71 -324V-164Q140 -162 188 -144T263 -87T289 18V320Q289 423 344 484T509 563V575Q398 594 344 655T289 818V1121Q289 1187 264 1226T189 1284T71 1304V1462Q208 1461 298 1428T433 1327T478
1153V845Q478 775 506 733T591 671T728 651V488Q647 488 591 469T507 407T478 296V-15Q478 -119 432 -187T295 -290T71 -324Z" />
<glyph unicode="~" glyph-name="asciitilde" horiz-adv-x="1171" d="M553 648Q481 680 431 692T334 704Q277 704 214 670T99 584V754Q150 807 212 834T348 861Q409 861 468 848T617 796Q691 765 740 753T835 740Q894 740 956 774T1069 860V692Q1021 640 959 612T822
583Q762 583 703 595T553 648Z" />
<glyph unicode="&#xa0;" glyph-name="uni00A0" horiz-adv-x="532" />
<glyph unicode="&#xa1;" glyph-name="exclamdown" horiz-adv-x="552" d="M201 662H345L393 -373H154L201 662ZM408 976Q408 900 370 869T275 837Q220 837 181 868T142 976Q142 1050 181 1083T275 1117Q331 1117 369 1084T408 976Z" />
<glyph unicode="&#xa2;" glyph-name="cent" horiz-adv-x="1171" d="M725 1483V1320Q807 1317 878 1300T1002 1258L943 1095Q884 1118 819 1134T696 1150Q590 1150 520 1105T415 969T380 743Q380 609 415 522T518 391T688 348Q777 348 845 365T981 412V240Q923
212 863 196T724 176V-20H583V182Q457 200 365 263T224 444T175 741Q175 926 225 1046T368 1230T583 1312V1483H725Z" />
<glyph unicode="&#xa3;" glyph-name="sterling" horiz-adv-x="1171" d="M690 1482Q801 1482 891 1458T1055 1400L987 1242Q923 1271 850 1293T699 1315Q592 1315 533 1258T473 1070V806H879V656H473V454Q473 373 453 320T399 233T328 179H1102V0H72V168Q132 185
177 217T247 307T273 452V656H79V806H273V1084Q273 1215 325 1303T472 1436T690 1482Z" />
<glyph unicode="&#xa4;" glyph-name="currency" horiz-adv-x="1171" d="M184 723Q184 784 203 841T254 946L119 1083L225 1187L360 1055Q408 1088 465 1106T586 1124Q647 1124 702 1106T807 1055L943 1187L1050 1084L916 947Q947 900 966 843T986 723Q986 661
968 604T916 498L1047 363L943 260L807 392Q760 361 704 343T586 324Q522 324 464 342T360 393L225 261L120 364L254 500Q222 548 203 605T184 723ZM332 723Q332 652 366 595T457 504T585 470Q657 470 715 504T807 595T841 723Q841 795 807 853T715 945T586 980Q515
980 458 946T366 853T332 723Z" />
<glyph unicode="&#xa5;" glyph-name="yen" horiz-adv-x="1171" d="M584 771L933 1462H1142L732 697H978V560H681V395H978V259H681V0H487V259H189V395H487V560H189V697H431L25 1462H237L584 771Z" />
<glyph unicode="&#xa6;" glyph-name="brokenbar" horiz-adv-x="1126" d="M483 1555H642V769H483V1555ZM483 299H642V-488H483V299Z" />
<glyph unicode="&#xa7;" glyph-name="section" horiz-adv-x="1038" d="M135 807Q135 905 183 967T295 1063Q223 1102 182 1158T141 1297Q141 1420 246 1493T541 1566Q651 1566 732 1546T891 1494L833 1350Q764 1379 694 1400T531 1421Q417 1421 368 1390T318 1301Q318
1262 343 1232T425 1174T577 1111Q678 1073 752 1029T867 925T907 783Q907 680 863 615T758 514Q828 476 866 422T905 290Q905 148 789 68T465 -12Q353 -12 269 7T118 58V218Q165 196 224 176T346 143T470 131Q614 131 669 174T724 275Q724 315 704 344T629 403T470
472Q366 512 291 554T176 657T135 807ZM298 826Q298 776 326 738T415 665T576 593L620 577Q666 604 704 648T742 759Q742 809 715 849T623 925T439 998Q384 982 341 937T298 826Z" />
<glyph unicode="&#xa8;" glyph-name="dieresis" horiz-adv-x="1201" d="M302 1397Q302 1452 332 1477T405 1503Q448 1503 478 1478T509 1397Q509 1343 479 1317T405 1290Q362 1290 332 1316T302 1397ZM691 1397Q691 1452 720 1477T793 1503Q836 1503 867 1478T898
1397Q898 1343 867 1317T793 1290Q750 1290 721 1316T691 1397Z" />
<glyph unicode="&#xa9;" glyph-name="copyright" horiz-adv-x="1704" d="M852 -20Q689 -20 552 36T313 193T156 431T100 731Q100 892 156 1029T314 1268T553 1426T852 1483Q1009 1483 1145 1427T1385 1270T1546 1031T1604 731Q1604 569 1548 432T1391 193T1152
36T852 -20ZM884 271Q680 271 578 396T475 731Q475 865 523 968T665 1131T892 1190Q957 1190 1022 1174T1145 1129L1088 1007Q1038 1033 989 1046T894 1060Q768 1060 699 972T630 731Q630 572 692 487T891 401Q940 401 998 414T1108 448V321Q1059 299 1007 285T884
271ZM852 89Q983 89 1098 136T1300 270T1436 474T1486 731Q1486 864 1439 980T1306 1185T1106 1324T852 1374Q714 1374 598 1327T397 1193T264 989T217 731Q217 597 263 481T395 276T597 139T852 89Z" />
<glyph unicode="&#xaa;" glyph-name="ordfeminine" horiz-adv-x="738" d="M373 1479Q507 1479 574 1420T641 1239V791H539L514 884Q474 837 416 808T281 778Q215 778 166 800T90 869T63 985Q63 1056 99 1102T209 1173T393 1202L501 1206V1246Q501 1309 462 1336T359
1364Q307 1364 254 1349T152 1309L103 1414Q159 1442 227 1460T373 1479ZM501 1110L403 1106Q287 1101 247 1070T206 985Q206 936 235 913T312 890Q409 890 455 938T501 1064V1110Z" />
<glyph unicode="&#xab;" glyph-name="guillemotleft" horiz-adv-x="1076" d="M80 560L428 981L572 900L287 548L572 197L428 115L80 534V560ZM505 560L856 981L999 900L715 548L999 197L856 115L505 534V560Z" />
<glyph unicode="&#xac;" glyph-name="logicalnot" horiz-adv-x="1171" d="M1065 800V259H910V644H99V800H1065Z" />
<glyph unicode="&#xad;" glyph-name="uni00AD" horiz-adv-x="659" d="M77 463V637H583V463H77Z" />
<glyph unicode="&#xae;" glyph-name="registered" horiz-adv-x="1704" d="M572 284V1180H836Q1000 1180 1078 1113T1156 914Q1156 817 1107 761T993 679L1231 284H1061L857 637H722V284H572ZM722 760H831Q913 760 958 800T1004 910Q1004 986 962 1019T829 1053H722V760ZM852
-20Q689 -20 552 36T313 193T156 431T100 731Q100 892 156 1029T314 1268T553 1426T852 1483Q1009 1483 1145 1427T1385 1270T1546 1031T1604 731Q1604 569 1548 432T1391 193T1152 36T852 -20ZM852 89Q983 89 1098 136T1300 270T1436 474T1486 731Q1486 864 1439
980T1306 1185T1106 1324T852 1374Q714 1374 598 1327T397 1193T264 989T217 731Q217 597 263 481T395 276T597 139T852 89Z" />
<glyph unicode="&#xaf;" glyph-name="overscore" horiz-adv-x="1024" d="M1030 1556H-6V1702H1030V1556Z" />
<glyph unicode="&#xb0;" glyph-name="degree" horiz-adv-x="877" d="M438 843Q340 843 266 883T150 995T108 1162Q108 1257 149 1329T264 1442T438 1483Q536 1483 610 1443T727 1330T769 1162Q769 1068 727 996T611 883T438 843ZM440 976Q529 976 577 1027T626
1162Q626 1249 577 1300T440 1352Q348 1352 300 1301T252 1162Q252 1078 299 1027T440 976Z" />
<glyph unicode="&#xb1;" glyph-name="plusminus" horiz-adv-x="1171" d="M99 0V156H1070V0H99ZM663 819H1068V663H663V248H505V663H99V819H505V1236H663V819Z" />
<glyph unicode="&#xb2;" glyph-name="uni00B2" horiz-adv-x="728" d="M646 852H51V972L285 1201Q362 1276 403 1324T461 1411T477 1494Q477 1553 442 1584T347 1616Q291 1616 242 1594T139 1528L58 1633Q120 1685 192 1716T357 1748Q487 1748 563 1684T639 1504Q639
1438 613 1382T535 1269T404 1138L250 992H646V852Z" />
<glyph unicode="&#xb3;" glyph-name="uni00B3" horiz-adv-x="728" d="M349 1747Q487 1747 562 1684T638 1521Q638 1441 595 1389T482 1315V1307Q568 1290 615 1236T663 1102Q663 983 577 910T311 837Q236 837 171 851T43 896V1035Q110 1001 178 981T311 961Q411
961 458 1000T505 1109Q505 1176 452 1210T294 1245H176V1364H289Q393 1364 436 1403T480 1503Q480 1561 442 1591T343 1622Q284 1622 232 1601T124 1544L48 1646Q110 1691 181 1719T349 1747Z" />
<glyph unicode="&#xb4;" glyph-name="acute" horiz-adv-x="611" d="M530 1569V1549Q508 1520 471 1480T388 1395T298 1310T216 1241H82V1266Q114 1304 153 1357T231 1466T294 1569H530Z" />
<glyph unicode="&#xb5;" glyph-name="uni00B5" horiz-adv-x="1288" d="M1116 1102V0H957L927 152H917Q884 97 840 59T738 0T604 -20Q524 -20 466 6T370 78H363Q366 54 368 17T371 -66T372 -161V-492H171V1102H372V407Q372 278 431 211T610 144Q726 144 792 189T887
323T916 537V1102H1116Z" />
<glyph unicode="&#xb6;" glyph-name="paragraph" horiz-adv-x="1341" d="M1130 -260H1006V1426H803V-260H678V573Q647 564 609 560T532 555Q407 555 315 603T171 760T120 1050Q120 1241 175 1351T330 1509T563 1556H1130V-260Z" />
<glyph unicode="&#xb7;" glyph-name="middot" horiz-adv-x="550" d="M142 716Q142 792 180 823T274 855Q330 855 369 824T408 716Q408 642 369 608T274 574Q219 574 181 608T142 716Z" />
<glyph unicode="&#xb8;" glyph-name="cedilla" horiz-adv-x="446" d="M425 -277Q425 -378 352 -435T126 -492Q92 -492 62 -488T12 -478V-358Q33 -362 66 -366T129 -370Q193 -370 228 -351T264 -283Q264 -232 215 -206T80 -170L166 0H297L250 -99Q298 -110 337
-132T401 -189T425 -277Z" />
<glyph unicode="&#xb9;" glyph-name="uni00B9" horiz-adv-x="728" d="M507 1729V852H346V1388Q346 1422 347 1456T349 1523T353 1582Q335 1563 310 1542T258 1502L157 1429L80 1531L356 1729H507Z" />
<glyph unicode="&#xba;" glyph-name="ordmasculine" horiz-adv-x="773" d="M710 1130Q710 964 622 871T385 778Q244 778 155 869T65 1130Q65 1298 151 1389T389 1480Q486 1480 557 1439T669 1320T710 1130ZM206 1130Q206 1015 248 956T386 896Q480 896 523 955T566
1130Q566 1245 524 1303T387 1362Q293 1362 250 1305T206 1130Z" />
<glyph unicode="&#xbb;" glyph-name="guillemotright" horiz-adv-x="1076" d="M997 534L646 115L504 197L788 549L504 900L646 981L997 561V534ZM570 534L221 115L78 197L362 549L78 900L221 981L570 561V534Z" />
<glyph unicode="&#xbc;" glyph-name="onequarter" horiz-adv-x="1562" d="M277 0L1138 1462H1306L444 0H277ZM327 586V1122Q327 1156 328 1190T330 1257T334 1316Q315 1297 290 1276T239 1235L138 1163L61 1265L336 1462H487V586H327ZM1250 0V192H853V304L1253
883H1416V319H1543V192H1416V0H1250ZM1000 319H1250V515Q1250 559 1251 612T1255 714Q1245 688 1216 640T1165 560L1000 319Z" />
<glyph unicode="&#xbd;" glyph-name="onehalf" horiz-adv-x="1627" d="M236 0L1098 1462H1265L403 0H236ZM310 586V1122Q310 1147 310 1173T312 1224T315 1273T318 1316Q298 1297 273 1276T222 1235L121 1163L44 1265L320 1462H471V586H310ZM951 0V120L1184 349Q1261
424 1302 472T1360 559T1377 642Q1377 701 1341 732T1246 764Q1190 764 1141 742T1039 676L958 781Q1019 833 1092 864T1256 896Q1387 896 1462 832T1538 652Q1538 586 1512 530T1433 417T1303 286L1150 140H1545V0H951Z" />
<glyph unicode="&#xbe;" glyph-name="threequarters" horiz-adv-x="1628" d="M365 0L1227 1462H1394L533 0H365ZM316 570Q241 570 175 584T47 630V768Q115 734 183 715T317 695Q416 695 463 734T511 843Q511 910 458 944T298 978H181V1098H293Q397 1098 441 1137T485
1237Q485 1295 447 1325T348 1356Q288 1356 237 1335T129 1278L52 1379Q114 1425 186 1453T354 1481Q492 1481 567 1418T642 1254Q642 1175 599 1123T487 1049V1040Q573 1023 621 970T669 836Q669 716 583 643T316 570ZM1317 0V192H920V304L1320 883H1483V319H1610V192H1483V0H1317ZM1068
319H1317V515Q1317 559 1318 612T1323 714Q1311 688 1283 640T1232 560L1068 319Z" />
<glyph unicode="&#xbf;" glyph-name="questiondown" horiz-adv-x="907" d="M622 664V607Q622 531 606 474T552 368T445 264Q371 204 327 162T264 76T245 -27Q245 -121 308 -171T483 -222Q578 -222 657 -196T811 -134L882 -289Q795 -335 695 -364T470 -393Q271
-393 163 -296T54 -34Q54 57 83 121T167 240T297 354Q363 407 396 446T443 527T456 625V664H622ZM663 976Q663 900 626 869T530 837Q476 837 437 868T398 976Q398 1051 437 1084T530 1118Q588 1118 625 1085T663 976Z" />
<glyph unicode="&#xc0;" glyph-name="Agrave" horiz-adv-x="1325" d="M1108 0L946 435H373L213 0H0L558 1468H768L1323 0H1108ZM889 613L735 1044Q728 1066 714 1110T685 1201T661 1279Q651 1238 638 1193T613 1108T592 1044L436 613H889ZM597 1930Q623 1884 660
1828T737 1718T811 1627V1602H676Q639 1631 594 1671T504 1755T422 1840T363 1910V1930H597Z" />
<glyph unicode="&#xc1;" glyph-name="Aacute" horiz-adv-x="1325" d="M1108 0L946 435H373L213 0H0L558 1468H768L1323 0H1108ZM889 613L735 1044Q728 1066 714 1110T685 1201T661 1279Q651 1238 638 1193T613 1108T592 1044L436 613H889ZM976 1930V1910Q954 1881
917 1841T834 1756T744 1671T662 1602H528V1627Q560 1665 599 1718T677 1827T740 1930H976Z" />
<glyph unicode="&#xc2;" glyph-name="Acircumflex" horiz-adv-x="1325" d="M1108 0L946 435H373L213 0H0L558 1468H768L1323 0H1108ZM889 613L735 1044Q728 1066 714 1110T685 1201T661 1279Q651 1238 638 1193T613 1108T592 1044L436 613H889ZM771 1929Q797 1884
842 1828T938 1718T1026 1625V1602H887Q833 1636 775 1685T662 1790Q608 1735 551 1687T440 1602H304V1625Q342 1665 390 1718T484 1828T556 1929H771Z" />
<glyph unicode="&#xc3;" glyph-name="Atilde" horiz-adv-x="1325" d="M1108 0L946 435H373L213 0H0L558 1468H768L1323 0H1108ZM889 613L735 1044Q728 1066 714 1110T685 1201T661 1279Q651 1238 638 1193T613 1108T592 1044L436 613H889ZM275 1604Q281 1669 299
1719T348 1803T419 1854T508 1872Q553 1872 594 1855T674 1814T748 1774T818 1756Q861 1756 888 1784T929 1874H1040Q1027 1747 966 1676T807 1605Q763 1605 723 1623T644 1663T570 1704T497 1722Q453 1722 427 1694T386 1604H275Z" />
<glyph unicode="&#xc4;" glyph-name="Adieresis" horiz-adv-x="1325" d="M1108 0L946 435H373L213 0H0L558 1468H768L1323 0H1108ZM889 613L735 1044Q728 1066 714 1110T685 1201T661 1279Q651 1238 638 1193T613 1108T592 1044L436 613H889ZM362 1758Q362 1813
392 1838T465 1864Q508 1864 538 1839T569 1758Q569 1704 539 1678T465 1651Q422 1651 392 1677T362 1758ZM751 1758Q751 1813 780 1838T853 1864Q896 1864 927 1839T958 1758Q958 1704 927 1678T853 1651Q810 1651 781 1677T751 1758Z" />
<glyph unicode="&#xc5;" glyph-name="Aring" horiz-adv-x="1325" d="M1108 0L946 435H373L213 0H0L558 1468H768L1323 0H1108ZM889 613L735 1044Q728 1066 714 1110T685 1201T661 1279Q651 1238 638 1193T613 1108T592 1044L436 613H889ZM659 1361Q558 1361 495
1420T431 1583Q431 1685 494 1744T659 1803Q757 1803 824 1745T891 1585Q891 1480 825 1421T659 1361ZM659 1469Q709 1469 741 1499T773 1583Q773 1635 740 1665T659 1696Q611 1696 578 1666T545 1583Q545 1530 574 1500T659 1469Z" />
<glyph unicode="&#xc6;" glyph-name="AE" horiz-adv-x="1821" d="M1706 0H915V435H413L209 0H-1L678 1462H1706V1286H1120V851H1668V677H1120V177H1706V0ZM491 613H915V1282H797L491 613Z" />
<glyph unicode="&#xc7;" glyph-name="Ccedilla" horiz-adv-x="1294" d="M820 1306Q707 1306 618 1267T466 1152T371 970T338 731Q338 554 390 425T549 226T816 156Q912 156 999 173T1174 219V43Q1090 11 1001 -4T791 -20Q567 -20 419 73T197 334T124 732Q124 898
170 1035T305 1273T523 1428T822 1483Q932 1483 1036 1460T1229 1394L1153 1223Q1080 1256 997 1281T820 1306ZM970 -277Q970 -378 897 -435T671 -492Q637 -492 607 -488T557 -478V-358Q578 -362 611 -366T674 -370Q738 -370 773 -351T809 -283Q809 -232 760 -206T625
-170L711 0H842L795 -99Q843 -110 882 -132T946 -189T970 -277Z" />
<glyph unicode="&#xc8;" glyph-name="Egrave" horiz-adv-x="1140" d="M1017 0H196V1462H1017V1286H401V851H980V677H401V177H1017V0ZM560 1930Q586 1884 623 1828T700 1718T774 1627V1602H639Q602 1631 557 1671T467 1755T385 1840T326 1910V1930H560Z" />
<glyph unicode="&#xc9;" glyph-name="Eacute" horiz-adv-x="1140" d="M1017 0H196V1462H1017V1286H401V851H980V677H401V177H1017V0ZM939 1930V1910Q917 1881 880 1841T797 1756T707 1671T625 1602H491V1627Q523 1665 562 1718T640 1827T703 1930H939Z" />
<glyph unicode="&#xca;" glyph-name="Ecircumflex" horiz-adv-x="1140" d="M1017 0H196V1462H1017V1286H401V851H980V677H401V177H1017V0ZM733 1929Q759 1884 804 1828T900 1718T988 1625V1602H849Q795 1636 737 1685T624 1790Q570 1735 513 1687T402 1602H266V1625Q304
1665 352 1718T446 1828T518 1929H733Z" />
<glyph unicode="&#xcb;" glyph-name="Edieresis" horiz-adv-x="1140" d="M1017 0H196V1462H1017V1286H401V851H980V677H401V177H1017V0ZM325 1758Q325 1813 355 1838T428 1864Q471 1864 501 1839T532 1758Q532 1704 502 1678T428 1651Q385 1651 355 1677T325 1758ZM714
1758Q714 1813 743 1838T816 1864Q859 1864 890 1839T921 1758Q921 1704 890 1678T816 1651Q773 1651 744 1677T714 1758Z" />
<glyph unicode="&#xcc;" glyph-name="Igrave" horiz-adv-x="599" d="M196 0V1462H401V0H196ZM202 1930Q228 1884 265 1828T342 1718T416 1627V1602H281Q244 1631 199 1671T109 1755T27 1840T-32 1910V1930H202Z" />
<glyph unicode="&#xcd;" glyph-name="Iacute" horiz-adv-x="599" d="M196 0V1462H401V0H196ZM632 1930V1910Q610 1881 573 1841T490 1756T400 1671T318 1602H184V1627Q216 1665 255 1718T333 1827T396 1930H632Z" />
<glyph unicode="&#xce;" glyph-name="Icircumflex" horiz-adv-x="599" d="M196 0V1462H401V0H196ZM406 1929Q432 1884 477 1828T573 1718T661 1625V1602H522Q468 1636 410 1685T297 1790Q243 1735 186 1687T75 1602H-61V1625Q-23 1665 25 1718T119 1828T191 1929H406Z" />
<glyph unicode="&#xcf;" glyph-name="Idieresis" horiz-adv-x="599" d="M196 0V1462H401V0H196ZM3 1758Q3 1813 33 1838T106 1864Q149 1864 179 1839T210 1758Q210 1704 180 1678T106 1651Q63 1651 33 1677T3 1758ZM392 1758Q392 1813 421 1838T494 1864Q537 1864
568 1839T599 1758Q599 1704 568 1678T494 1651Q451 1651 422 1677T392 1758Z" />
<glyph unicode="&#xd0;" glyph-name="Eth" horiz-adv-x="1494" d="M642 1462Q866 1462 1029 1381T1281 1140T1370 745Q1370 498 1279 333T1015 84T596 0H206V636H55V811H206V1462H642ZM626 1290H410V811H748V636H410V174H589Q872 174 1013 316T1155 739Q1155 927
1094 1049T914 1230T626 1290Z" />
<glyph unicode="&#xd1;" glyph-name="Ntilde" horiz-adv-x="1573" d="M1378 0H1132L375 1198H367Q370 1144 374 1080T380 945T384 802V0H196V1462H440L1194 270H1201Q1199 314 1196 379T1191 516T1188 654V1462H1378V0ZM403 1604Q409 1669 427 1719T476 1803T547
1854T636 1872Q681 1872 722 1855T802 1814T876 1774T946 1756Q989 1756 1016 1784T1057 1874H1168Q1155 1747 1094 1676T935 1605Q891 1605 851 1623T772 1663T698 1704T625 1722Q581 1722 555 1694T514 1604H403Z" />
<glyph unicode="&#xd2;" glyph-name="Ograve" horiz-adv-x="1602" d="M1479 733Q1479 564 1436 426T1309 188T1098 34T802 -20Q630 -20 503 34T291 188T166 427T124 735Q124 960 198 1129T423 1391T805 1485Q1027 1485 1177 1392T1403 1131T1479 733ZM339 733Q339
555 388 426T540 226T802 155Q963 155 1065 225T1215 425T1263 733Q1263 1003 1153 1155T805 1308Q645 1308 542 1239T389 1041T339 733ZM739 1930Q765 1884 802 1828T879 1718T953 1627V1602H818Q781 1631 736 1671T646 1755T564 1840T505 1910V1930H739Z" />
<glyph unicode="&#xd3;" glyph-name="Oacute" horiz-adv-x="1602" d="M1479 733Q1479 564 1436 426T1309 188T1098 34T802 -20Q630 -20 503 34T291 188T166 427T124 735Q124 960 198 1129T423 1391T805 1485Q1027 1485 1177 1392T1403 1131T1479 733ZM339 733Q339
555 388 426T540 226T802 155Q963 155 1065 225T1215 425T1263 733Q1263 1003 1153 1155T805 1308Q645 1308 542 1239T389 1041T339 733ZM1117 1930V1910Q1095 1881 1058 1841T975 1756T885 1671T803 1602H669V1627Q701 1665 740 1718T818 1827T881 1930H1117Z"
/>
<glyph unicode="&#xd4;" glyph-name="Ocircumflex" horiz-adv-x="1602" d="M1479 733Q1479 564 1436 426T1309 188T1098 34T802 -20Q630 -20 503 34T291 188T166 427T124 735Q124 960 198 1129T423 1391T805 1485Q1027 1485 1177 1392T1403 1131T1479 733ZM339
733Q339 555 388 426T540 226T802 155Q963 155 1065 225T1215 425T1263 733Q1263 1003 1153 1155T805 1308Q645 1308 542 1239T389 1041T339 733ZM912 1929Q938 1884 983 1828T1079 1718T1167 1625V1602H1028Q974 1636 916 1685T803 1790Q749 1735 692 1687T581
1602H445V1625Q483 1665 531 1718T625 1828T697 1929H912Z" />
<glyph unicode="&#xd5;" glyph-name="Otilde" horiz-adv-x="1602" d="M1479 733Q1479 564 1436 426T1309 188T1098 34T802 -20Q630 -20 503 34T291 188T166 427T124 735Q124 960 198 1129T423 1391T805 1485Q1027 1485 1177 1392T1403 1131T1479 733ZM339 733Q339
555 388 426T540 226T802 155Q963 155 1065 225T1215 425T1263 733Q1263 1003 1153 1155T805 1308Q645 1308 542 1239T389 1041T339 733ZM415 1604Q421 1669 439 1719T488 1803T559 1854T648 1872Q693 1872 734 1855T814 1814T888 1774T958 1756Q1001 1756 1028
1784T1069 1874H1180Q1167 1747 1106 1676T947 1605Q903 1605 863 1623T784 1663T710 1704T637 1722Q593 1722 567 1694T526 1604H415Z" />
<glyph unicode="&#xd6;" glyph-name="Odieresis" horiz-adv-x="1602" d="M1479 733Q1479 564 1436 426T1309 188T1098 34T802 -20Q630 -20 503 34T291 188T166 427T124 735Q124 960 198 1129T423 1391T805 1485Q1027 1485 1177 1392T1403 1131T1479 733ZM339 733Q339
555 388 426T540 226T802 155Q963 155 1065 225T1215 425T1263 733Q1263 1003 1153 1155T805 1308Q645 1308 542 1239T389 1041T339 733ZM503 1758Q503 1813 533 1838T606 1864Q649 1864 679 1839T710 1758Q710 1704 680 1678T606 1651Q563 1651 533 1677T503 1758ZM892
1758Q892 1813 921 1838T994 1864Q1037 1864 1068 1839T1099 1758Q1099 1704 1068 1678T994 1651Q951 1651 922 1677T892 1758Z" />
<glyph unicode="&#xd7;" glyph-name="multiply" horiz-adv-x="1171" d="M927 1175L1036 1065L694 723L1034 382L925 271L582 610L245 272L133 382L472 723L132 1062L244 1175L584 833L927 1175Z" />
<glyph unicode="&#xd8;" glyph-name="Oslash" horiz-adv-x="1602" d="M1479 733Q1479 564 1436 426T1309 188T1098 34T802 -20Q689 -20 596 3T430 73L331 -69L204 15L309 166Q215 266 170 410T124 735Q124 960 198 1129T423 1391T805 1485Q911 1485 1002 1462T1167
1395L1262 1530L1388 1445L1286 1301Q1381 1203 1430 1059T1479 733ZM1263 733Q1263 856 1239 956T1167 1128L538 229Q589 194 655 175T802 155Q963 155 1065 225T1215 425T1263 733ZM339 733Q339 613 362 515T431 343L1060 1238Q1010 1272 947 1290T805 1308Q645
1308 542 1239T389 1041T339 733Z" />
<glyph unicode="&#xd9;" glyph-name="Ugrave" horiz-adv-x="1507" d="M1323 1462V516Q1323 362 1260 241T1068 50T746 -20Q471 -20 327 127T182 520V1462H388V528Q388 343 480 249T756 155Q882 155 962 200T1080 329T1119 528V1462H1323ZM691 1930Q717 1884 754
1828T831 1718T905 1627V1602H770Q733 1631 688 1671T598 1755T516 1840T457 1910V1930H691Z" />
<glyph unicode="&#xda;" glyph-name="Uacute" horiz-adv-x="1507" d="M1323 1462V516Q1323 362 1260 241T1068 50T746 -20Q471 -20 327 127T182 520V1462H388V528Q388 343 480 249T756 155Q882 155 962 200T1080 329T1119 528V1462H1323ZM1070 1930V1910Q1048
1881 1011 1841T928 1756T838 1671T756 1602H622V1627Q654 1665 693 1718T771 1827T834 1930H1070Z" />
<glyph unicode="&#xdb;" glyph-name="Ucircumflex" horiz-adv-x="1507" d="M1323 1462V516Q1323 362 1260 241T1068 50T746 -20Q471 -20 327 127T182 520V1462H388V528Q388 343 480 249T756 155Q882 155 962 200T1080 329T1119 528V1462H1323ZM864 1929Q890 1884
935 1828T1031 1718T1119 1625V1602H980Q926 1636 868 1685T755 1790Q701 1735 644 1687T533 1602H397V1625Q435 1665 483 1718T577 1828T649 1929H864Z" />
<glyph unicode="&#xdc;" glyph-name="Udieresis" horiz-adv-x="1507" d="M1323 1462V516Q1323 362 1260 241T1068 50T746 -20Q471 -20 327 127T182 520V1462H388V528Q388 343 480 249T756 155Q882 155 962 200T1080 329T1119 528V1462H1323ZM456 1758Q456 1813
486 1838T559 1864Q602 1864 632 1839T663 1758Q663 1704 633 1678T559 1651Q516 1651 486 1677T456 1758ZM845 1758Q845 1813 874 1838T947 1864Q990 1864 1021 1839T1052 1758Q1052 1704 1021 1678T947 1651Q904 1651 875 1677T845 1758Z" />
<glyph unicode="&#xdd;" glyph-name="Yacute" horiz-adv-x="1178" d="M590 762L958 1462H1178L692 568V0H487V559L0 1462H224L590 762ZM905 1930V1910Q883 1881 846 1841T763 1756T673 1671T591 1602H457V1627Q489 1665 528 1718T606 1827T669 1930H905Z" />
<glyph unicode="&#xde;" glyph-name="Thorn" horiz-adv-x="1246" d="M1144 779Q1144 685 1115 601T1019 453T842 351T571 314H401V0H196V1462H401V1213H602Q887 1213 1015 1099T1144 779ZM401 485H545Q677 485 763 514T891 606T934 772Q934 909 850 975T578 1041H401V485Z"
/>
<glyph unicode="&#xdf;" glyph-name="germandbls" horiz-adv-x="1320" d="M1100 1261Q1100 1189 1071 1137T1000 1046T915 974T843 911T814 843Q814 813 830 790T887 737T1002 657Q1073 611 1124 563T1204 455T1232 313Q1232 201 1184 127T1046 17T835 -20Q738
-20 666 -3T538 46V220Q574 199 621 180T721 148T826 136Q933 136 982 181T1032 304Q1032 353 1015 388T956 460T840 542Q757 594 708 637T638 725T617 825Q617 890 645 934T715 1012T798 1078T868 1148T896 1241Q896 1322 826 1362T644 1403Q569 1403 507 1382T409
1311T372 1175V0H171V1178Q171 1317 233 1402T401 1527T644 1567Q780 1567 882 1533T1042 1430T1100 1261Z" />
<glyph unicode="&#xe0;" glyph-name="agrave" horiz-adv-x="1163" d="M593 1121Q797 1121 898 1031T999 745V0H855L816 160H808Q762 100 712 60T597 0T437 -20Q337 -20 259 16T137 124T92 309Q92 477 221 564T612 659L802 667V729Q802 858 745 911T584 964Q499
964 421 940T271 881L207 1027Q285 1067 384 1094T593 1121ZM800 535L646 528Q455 521 378 465T300 307Q300 219 353 178T493 137Q627 137 713 212T800 436V535ZM517 1569Q543 1523 580 1467T657 1357T731 1266V1241H596Q559 1270 514 1310T424 1394T342 1479T283
1549V1569H517Z" />
<glyph unicode="&#xe1;" glyph-name="aacute" horiz-adv-x="1163" d="M593 1121Q797 1121 898 1031T999 745V0H855L816 160H808Q762 100 712 60T597 0T437 -20Q337 -20 259 16T137 124T92 309Q92 477 221 564T612 659L802 667V729Q802 858 745 911T584 964Q499
964 421 940T271 881L207 1027Q285 1067 384 1094T593 1121ZM800 535L646 528Q455 521 378 465T300 307Q300 219 353 178T493 137Q627 137 713 212T800 436V535ZM897 1569V1549Q875 1520 838 1480T755 1395T665 1310T583 1241H449V1266Q481 1304 520 1357T598 1466T661
1569H897Z" />
<glyph unicode="&#xe2;" glyph-name="acircumflex" horiz-adv-x="1163" d="M593 1121Q797 1121 898 1031T999 745V0H855L816 160H808Q762 100 712 60T597 0T437 -20Q337 -20 259 16T137 124T92 309Q92 477 221 564T612 659L802 667V729Q802 858 745 911T584 964Q499
964 421 940T271 881L207 1027Q285 1067 384 1094T593 1121ZM800 535L646 528Q455 521 378 465T300 307Q300 219 353 178T493 137Q627 137 713 212T800 436V535ZM691 1568Q717 1523 762 1467T858 1357T946 1264V1241H807Q753 1275 695 1324T582 1429Q528 1374 471
1326T360 1241H224V1264Q262 1304 310 1357T404 1467T476 1568H691Z" />
<glyph unicode="&#xe3;" glyph-name="atilde" horiz-adv-x="1163" d="M593 1121Q797 1121 898 1031T999 745V0H855L816 160H808Q762 100 712 60T597 0T437 -20Q337 -20 259 16T137 124T92 309Q92 477 221 564T612 659L802 667V729Q802 858 745 911T584 964Q499
964 421 940T271 881L207 1027Q285 1067 384 1094T593 1121ZM800 535L646 528Q455 521 378 465T300 307Q300 219 353 178T493 137Q627 137 713 212T800 436V535ZM194 1243Q200 1308 218 1358T267 1442T338 1493T427 1511Q472 1511 513 1494T593 1453T667 1413T737
1395Q780 1395 807 1423T848 1513H959Q946 1386 885 1315T726 1244Q682 1244 642 1262T563 1302T489 1343T416 1361Q372 1361 346 1333T305 1243H194Z" />
<glyph unicode="&#xe4;" glyph-name="adieresis" horiz-adv-x="1163" d="M593 1121Q797 1121 898 1031T999 745V0H855L816 160H808Q762 100 712 60T597 0T437 -20Q337 -20 259 16T137 124T92 309Q92 477 221 564T612 659L802 667V729Q802 858 745 911T584 964Q499
964 421 940T271 881L207 1027Q285 1067 384 1094T593 1121ZM800 535L646 528Q455 521 378 465T300 307Q300 219 353 178T493 137Q627 137 713 212T800 436V535ZM539 1397Q539 1452 569 1477T642 1503Q685 1503 715 1478T746 1397Q746 1343 716 1317T642 1290Q599
1290 569 1316T539 1397ZM928 1397Q928 1452 957 1477T1030 1503Q1073 1503 1104 1478T1135 1397Q1135 1343 1104 1317T1030 1290Q987 1290 958 1316T928 1397Z" />
<glyph unicode="&#xe5;" glyph-name="aring" horiz-adv-x="1163" d="M593 1121Q797 1121 898 1031T999 745V0H855L816 160H808Q762 100 712 60T597 0T437 -20Q337 -20 259 16T137 124T92 309Q92 477 221 564T612 659L802 667V729Q802 858 745 911T584 964Q499
964 421 940T271 881L207 1027Q285 1067 384 1094T593 1121ZM800 535L646 528Q455 521 378 465T300 307Q300 219 353 178T493 137Q627 137 713 212T800 436V535ZM582 1241Q481 1241 418 1300T354 1463Q354 1565 417 1624T582 1683Q680 1683 747 1625T814 1465Q814
1360 748 1301T582 1241ZM582 1349Q632 1349 664 1379T696 1463Q696 1515 663 1545T582 1576Q534 1576 501 1546T468 1463Q468 1410 497 1380T582 1349Z" />
<glyph unicode="&#xe6;" glyph-name="ae" horiz-adv-x="1794" d="M1255 1122Q1390 1122 1488 1061T1640 888T1693 626V510H980Q984 326 1064 235T1294 143Q1395 143 1476 163T1641 222V53Q1558 15 1477 -2T1286 -20Q1192 -20 1112 6T970 84T866 212Q817 139 761
87T628 8T441 -20Q342 -20 263 16T138 124T92 309Q92 421 147 496T312 613T589 659L776 667V741Q776 863 718 913T559 964Q478 964 401 941T252 882L188 1027Q265 1068 367 1094T573 1121Q698 1121 781 1079T908 945Q965 1029 1051 1075T1255 1122ZM773 535L627
528Q447 521 374 465T300 307Q300 219 350 178T485 137Q568 137 633 170T735 270T773 436V535ZM1252 966Q1135 966 1065 888T985 659H1489Q1489 750 1464 819T1385 927T1252 966Z" />
<glyph unicode="&#xe7;" glyph-name="ccedilla" horiz-adv-x="999" d="M614 -20Q462 -20 348 41T172 227T109 545Q109 745 176 872T361 1061T633 1122Q723 1122 801 1104T933 1059L873 896Q817 918 753 935T630 952Q524 952 455 906T350 769T315 547Q315 419 349
331T451 196T620 150Q709 150 780 170T911 221V44Q853 12 783 -4T614 -20ZM792 -277Q792 -378 719 -435T493 -492Q459 -492 429 -488T379 -478V-358Q400 -362 433 -366T496 -370Q560 -370 595 -351T631 -283Q631 -232 582 -206T447 -170L533 0H664L617 -99Q665
-110 704 -132T768 -189T792 -277Z" />
<glyph unicode="&#xe8;" glyph-name="egrave" horiz-adv-x="1165" d="M603 1122Q747 1122 850 1061T1008 887T1063 623V509H315Q318 332 406 238T653 143Q758 143 840 163T1010 222V53Q927 15 844 -2T644 -20Q484 -20 364 44T176 233T109 543Q109 725 170 854T342
1053T603 1122ZM602 966Q480 966 406 887T319 659H861Q860 750 832 819T748 927T602 966ZM525 1569Q551 1523 588 1467T665 1357T739 1266V1241H604Q567 1270 522 1310T432 1394T350 1479T291 1549V1569H525Z" />
<glyph unicode="&#xe9;" glyph-name="eacute" horiz-adv-x="1165" d="M603 1122Q747 1122 850 1061T1008 887T1063 623V509H315Q318 332 406 238T653 143Q758 143 840 163T1010 222V53Q927 15 844 -2T644 -20Q484 -20 364 44T176 233T109 543Q109 725 170 854T342
1053T603 1122ZM602 966Q480 966 406 887T319 659H861Q860 750 832 819T748 927T602 966ZM904 1569V1549Q882 1520 845 1480T762 1395T672 1310T590 1241H456V1266Q488 1304 527 1357T605 1466T668 1569H904Z" />
<glyph unicode="&#xea;" glyph-name="ecircumflex" horiz-adv-x="1165" d="M603 1122Q747 1122 850 1061T1008 887T1063 623V509H315Q318 332 406 238T653 143Q758 143 840 163T1010 222V53Q927 15 844 -2T644 -20Q484 -20 364 44T176 233T109 543Q109 725 170
854T342 1053T603 1122ZM602 966Q480 966 406 887T319 659H861Q860 750 832 819T748 927T602 966ZM698 1568Q724 1523 769 1467T865 1357T953 1264V1241H814Q760 1275 702 1324T589 1429Q535 1374 478 1326T367 1241H231V1264Q269 1304 317 1357T411 1467T483 1568H698Z"
/>
<glyph unicode="&#xeb;" glyph-name="edieresis" horiz-adv-x="1165" d="M603 1122Q747 1122 850 1061T1008 887T1063 623V509H315Q318 332 406 238T653 143Q758 143 840 163T1010 222V53Q927 15 844 -2T644 -20Q484 -20 364 44T176 233T109 543Q109 725 170 854T342
1053T603 1122ZM602 966Q480 966 406 887T319 659H861Q860 750 832 819T748 927T602 966ZM547 1397Q547 1452 577 1477T650 1503Q693 1503 723 1478T754 1397Q754 1343 724 1317T650 1290Q607 1290 577 1316T547 1397ZM936 1397Q936 1452 965 1477T1038 1503Q1081
1503 1112 1478T1143 1397Q1143 1343 1112 1317T1038 1290Q995 1290 966 1316T936 1397Z" />
<glyph unicode="&#xec;" glyph-name="igrave" horiz-adv-x="544" d="M372 0H171V1102H372V0ZM465 1569Q491 1523 528 1467T605 1357T679 1266V1241H544Q507 1270 462 1310T372 1394T290 1479T231 1549V1569H465Z" />
<glyph unicode="&#xed;" glyph-name="iacute" horiz-adv-x="544" d="M372 0H171V1102H372V0ZM588 1569V1549Q566 1520 529 1480T446 1395T356 1310T274 1241H140V1266Q172 1304 211 1357T289 1466T352 1569H588Z" />
<glyph unicode="&#xee;" glyph-name="icircumflex" horiz-adv-x="544" d="M372 0H171V1102H372V0ZM381 1568Q407 1523 452 1467T548 1357T636 1264V1241H497Q443 1275 385 1324T272 1429Q218 1374 161 1326T50 1241H-86V1264Q-48 1304 0 1357T94 1467T166 1568H381Z" />
<glyph unicode="&#xef;" glyph-name="idieresis" horiz-adv-x="544" d="M372 0H171V1102H372V0ZM-26 1397Q-26 1452 4 1477T77 1503Q120 1503 150 1478T181 1397Q181 1343 151 1317T77 1290Q34 1290 4 1316T-26 1397ZM363 1397Q363 1452 392 1477T465 1503Q508
1503 539 1478T570 1397Q570 1343 539 1317T465 1290Q422 1290 393 1316T363 1397Z" />
<glyph unicode="&#xf0;" glyph-name="eth" horiz-adv-x="1238" d="M444 1566Q513 1534 578 1498T701 1419L933 1557L1012 1442L817 1327Q913 1237 983 1123T1092 869T1130 565Q1130 375 1069 245T892 47T615 -20Q467 -20 352 40T173 212T108 479Q108 634 167 744T335
914T587 974Q660 974 719 961T823 923T898 858L907 861Q875 973 812 1067T666 1237L408 1086L330 1203L547 1329Q506 1357 461 1384T368 1436L444 1566ZM621 817Q514 817 446 778T345 662T312 474Q312 375 345 299T445 181T619 138Q778 138 852 236T926 525Q926
583 908 635T853 728T759 793T621 817Z" />
<glyph unicode="&#xf1;" glyph-name="ntilde" horiz-adv-x="1279" d="M719 1122Q910 1122 1012 1026T1115 718V0H916V691Q916 823 858 889T680 956Q509 956 441 855T372 562V0H171V1102H330L359 947H370Q405 1005 459 1044T579 1102T719 1122ZM255 1243Q261 1308
279 1358T328 1442T399 1493T488 1511Q533 1511 574 1494T654 1453T728 1413T798 1395Q841 1395 868 1423T909 1513H1020Q1007 1386 946 1315T787 1244Q743 1244 703 1262T624 1302T550 1343T477 1361Q433 1361 407 1333T366 1243H255Z" />
<glyph unicode="&#xf2;" glyph-name="ograve" horiz-adv-x="1241" d="M1134 553Q1134 417 1099 311T996 131T833 19T618 -20Q506 -20 413 18T251 130T146 310T109 553Q109 734 171 861T348 1055T624 1122Q776 1122 891 1055T1070 861T1134 553ZM315 553Q315 426
347 335T447 194T622 145Q727 145 795 194T895 334T927 553Q927 679 895 769T796 907T620 955Q462 955 389 850T315 553ZM558 1569Q584 1523 621 1467T698 1357T772 1266V1241H637Q600 1270 555 1310T465 1394T383 1479T324 1549V1569H558Z" />
<glyph unicode="&#xf3;" glyph-name="oacute" horiz-adv-x="1241" d="M1134 553Q1134 417 1099 311T996 131T833 19T618 -20Q506 -20 413 18T251 130T146 310T109 553Q109 734 171 861T348 1055T624 1122Q776 1122 891 1055T1070 861T1134 553ZM315 553Q315 426
347 335T447 194T622 145Q727 145 795 194T895 334T927 553Q927 679 895 769T796 907T620 955Q462 955 389 850T315 553ZM937 1569V1549Q915 1520 878 1480T795 1395T705 1310T623 1241H489V1266Q521 1304 560 1357T638 1466T701 1569H937Z" />
<glyph unicode="&#xf4;" glyph-name="ocircumflex" horiz-adv-x="1241" d="M1134 553Q1134 417 1099 311T996 131T833 19T618 -20Q506 -20 413 18T251 130T146 310T109 553Q109 734 171 861T348 1055T624 1122Q776 1122 891 1055T1070 861T1134 553ZM315 553Q315
426 347 335T447 194T622 145Q727 145 795 194T895 334T927 553Q927 679 895 769T796 907T620 955Q462 955 389 850T315 553ZM731 1568Q757 1523 802 1467T898 1357T986 1264V1241H847Q793 1275 735 1324T622 1429Q568 1374 511 1326T400 1241H264V1264Q302 1304
350 1357T444 1467T516 1568H731Z" />
<glyph unicode="&#xf5;" glyph-name="otilde" horiz-adv-x="1241" d="M1134 553Q1134 417 1099 311T996 131T833 19T618 -20Q506 -20 413 18T251 130T146 310T109 553Q109 734 171 861T348 1055T624 1122Q776 1122 891 1055T1070 861T1134 553ZM315 553Q315 426
347 335T447 194T622 145Q727 145 795 194T895 334T927 553Q927 679 895 769T796 907T620 955Q462 955 389 850T315 553ZM235 1243Q241 1308 259 1358T308 1442T379 1493T468 1511Q513 1511 554 1494T634 1453T708 1413T778 1395Q821 1395 848 1423T889 1513H1000Q987
1386 926 1315T767 1244Q723 1244 683 1262T604 1302T530 1343T457 1361Q413 1361 387 1333T346 1243H235Z" />
<glyph unicode="&#xf6;" glyph-name="odieresis" horiz-adv-x="1241" d="M1134 553Q1134 417 1099 311T996 131T833 19T618 -20Q506 -20 413 18T251 130T146 310T109 553Q109 734 171 861T348 1055T624 1122Q776 1122 891 1055T1070 861T1134 553ZM315 553Q315
426 347 335T447 194T622 145Q727 145 795 194T895 334T927 553Q927 679 895 769T796 907T620 955Q462 955 389 850T315 553ZM323 1397Q323 1452 353 1477T426 1503Q469 1503 499 1478T530 1397Q530 1343 500 1317T426 1290Q383 1290 353 1316T323 1397ZM712 1397Q712
1452 741 1477T814 1503Q857 1503 888 1478T919 1397Q919 1343 888 1317T814 1290Q771 1290 742 1316T712 1397Z" />
<glyph unicode="&#xf7;" glyph-name="divide" horiz-adv-x="1171" d="M99 644V800H1070V644H99ZM584 245Q535 245 502 275T468 372Q468 441 501 469T584 497Q631 497 664 469T698 372Q698 306 665 276T584 245ZM584 946Q535 946 502 976T468 1073Q468 1142 501
1170T584 1198Q631 1198 664 1170T698 1073Q698 1007 665 977T584 946Z" />
<glyph unicode="&#xf8;" glyph-name="oslash" horiz-adv-x="1241" d="M1134 553Q1134 371 1072 243T893 48T618 -20Q542 -20 477 -3T356 47L273 -69L153 13L243 137Q179 212 144 316T109 553Q109 825 247 973T624 1122Q700 1122 767 1104T890 1050L968 1160L1090
1078L1003 958Q1065 885 1099 784T1134 553ZM315 553Q315 479 326 418T360 308L790 907Q757 930 715 942T620 955Q462 955 389 850T315 553ZM927 553Q927 622 917 681T885 786L457 190Q488 168 530 157T622 145Q727 145 795 194T895 334T927 553Z" />
<glyph unicode="&#xf9;" glyph-name="ugrave" horiz-adv-x="1279" d="M1107 1102V0H946L918 151H907Q873 94 819 56T698 -1T556 -20Q429 -20 341 22T207 152T161 381V1102H363V409Q363 276 420 210T596 144Q711 144 778 189T875 322T905 537V1102H1107ZM576 1569Q602
1523 639 1467T716 1357T790 1266V1241H655Q618 1270 573 1310T483 1394T401 1479T342 1549V1569H576Z" />
<glyph unicode="&#xfa;" glyph-name="uacute" horiz-adv-x="1279" d="M1107 1102V0H946L918 151H907Q873 94 819 56T698 -1T556 -20Q429 -20 341 22T207 152T161 381V1102H363V409Q363 276 420 210T596 144Q711 144 778 189T875 322T905 537V1102H1107ZM955 1569V1549Q933
1520 896 1480T813 1395T723 1310T641 1241H507V1266Q539 1304 578 1357T656 1466T719 1569H955Z" />
<glyph unicode="&#xfb;" glyph-name="ucircumflex" horiz-adv-x="1279" d="M1107 1102V0H946L918 151H907Q873 94 819 56T698 -1T556 -20Q429 -20 341 22T207 152T161 381V1102H363V409Q363 276 420 210T596 144Q711 144 778 189T875 322T905 537V1102H1107ZM749
1568Q775 1523 820 1467T916 1357T1004 1264V1241H865Q811 1275 753 1324T640 1429Q586 1374 529 1326T418 1241H282V1264Q320 1304 368 1357T462 1467T534 1568H749Z" />
<glyph unicode="&#xfc;" glyph-name="udieresis" horiz-adv-x="1279" d="M1107 1102V0H946L918 151H907Q873 94 819 56T698 -1T556 -20Q429 -20 341 22T207 152T161 381V1102H363V409Q363 276 420 210T596 144Q711 144 778 189T875 322T905 537V1102H1107ZM341
1397Q341 1452 371 1477T444 1503Q487 1503 517 1478T548 1397Q548 1343 518 1317T444 1290Q401 1290 371 1316T341 1397ZM730 1397Q730 1452 759 1477T832 1503Q875 1503 906 1478T937 1397Q937 1343 906 1317T832 1290Q789 1290 760 1316T730 1397Z" />
<glyph unicode="&#xfd;" glyph-name="yacute" horiz-adv-x="1061" d="M2 1102H219L453 467Q471 418 486 372T513 282T532 196H539Q551 247 573 320T621 468L845 1102H1061L585 -156Q546 -261 491 -336T359 -452T179 -493Q131 -493 95 -488T32 -475V-315Q54 -320
85 -324T151 -328Q214 -328 259 -304T337 -234T392 -129L442 1L2 1102ZM846 1569V1549Q824 1520 787 1480T704 1395T614 1310T532 1241H398V1266Q430 1304 469 1357T547 1466T610 1569H846Z" />
<glyph unicode="&#xfe;" glyph-name="thorn" horiz-adv-x="1264" d="M1155 554Q1155 366 1100 239T946 46T712 -20Q626 -20 561 2T450 60T373 142H360Q363 123 366 90T371 23T373 -34V-490H171V1556H373V1113Q373 1077 371 1027T365 946H374Q405 994 450 1034T561
1098T713 1122Q914 1122 1034 978T1155 554ZM949 556Q949 756 881 856T668 956Q509 956 442 864T373 588V553Q373 356 438 251T669 145Q764 145 826 193T918 332T949 556Z" />
<glyph unicode="&#xff;" glyph-name="ydieresis" horiz-adv-x="1061" d="M2 1102H219L453 467Q471 418 486 372T513 282T532 196H539Q551 247 573 320T621 468L845 1102H1061L585 -156Q546 -261 491 -336T359 -452T179 -493Q131 -493 95 -488T32 -475V-315Q54
-320 85 -324T151 -328Q214 -328 259 -304T337 -234T392 -129L442 1L2 1102ZM488 1397Q488 1452 518 1477T591 1503Q634 1503 664 1478T695 1397Q695 1343 665 1317T591 1290Q548 1290 518 1316T488 1397ZM877 1397Q877 1452 906 1477T979 1503Q1022 1503 1053
1478T1084 1397Q1084 1343 1053 1317T979 1290Q936 1290 907 1316T877 1397Z" />
<glyph unicode="&#x2013;" glyph-name="endash" horiz-adv-x="1024" d="M82 466V635H942V466H82Z" />
<glyph unicode="&#x2014;" glyph-name="emdash" horiz-adv-x="2048" d="M82 466V635H1966V466H82Z" />
<glyph unicode="&#x2018;" glyph-name="quoteleft" horiz-adv-x="371" d="M39 961L27 983Q45 1056 73 1139T134 1306T200 1462H347Q327 1384 307 1295T270 1119T242 961H39Z" />
<glyph unicode="&#x2019;" glyph-name="quoteright" horiz-adv-x="371" d="M331 1462L346 1440Q328 1367 300 1284T239 1118T172 961H26Q41 1019 56 1084T85 1216T110 1345T130 1462H331Z" />
<glyph unicode="&#x201a;" glyph-name="quotesinglbase" horiz-adv-x="522" d="M370 237L385 215Q367 142 339 59T278 -107T211 -264H65Q80 -206 95 -141T124 -9T149 120T169 237H370Z" />
<glyph unicode="&#x201c;" glyph-name="quotedblleft" horiz-adv-x="763" d="M739 1462Q718 1384 698 1295T661 1119T634 961H431L416 983Q434 1056 462 1139T524 1305T592 1462H739ZM346 1462Q325 1384 305 1295T268 1119T241 961H39L27 983Q45 1056 72 1139T133
1305T200 1462H346Z" />
<glyph unicode="&#x201d;" glyph-name="quotedblright" horiz-adv-x="763" d="M723 1462L738 1440Q720 1366 692 1283T630 1118T564 961H416Q436 1038 456 1127T494 1303T521 1462H723ZM330 1462L344 1440Q327 1366 299 1283T237 1118T171 961H26Q41 1019 56 1084T84
1216T109 1345T128 1462H330Z" />
<glyph unicode="&#x201e;" glyph-name="quotedblbase" horiz-adv-x="891" d="M762 237L777 215Q759 141 731 58T669 -107T603 -264H455Q475 -187 495 -98T533 78T560 237H762ZM369 237L383 215Q366 141 338 58T276 -107T210 -264H65Q80 -206 95 -141T123 -9T148
120T167 237H369Z" />
<glyph unicode="&#x2022;" glyph-name="bullet" horiz-adv-x="770" d="M153 748Q153 842 183 899T266 981T385 1007Q451 1007 503 982T586 899T617 748Q617 657 587 600T504 515T385 488Q319 488 267 515T184 599T153 748Z" />
<glyph unicode="&#x2039;" glyph-name="guilsinglleft" horiz-adv-x="650" d="M80 560L428 981L572 900L287 548L572 197L428 115L80 534V560Z" />
<glyph unicode="&#x203a;" glyph-name="guilsinglright" horiz-adv-x="650" d="M221 981L570 561V534L221 115L78 197L362 549L78 900L221 981Z" />
</font>
</defs>
</svg>
