<?xml version="1.0" standalone="no"?>
<!DOCTYPE svg PUBLIC "-//W3C//DTD SVG 1.1//EN" "http://www.w3.org/Graphics/SVG/1.1/DTD/svg11.dtd">
<svg xmlns="http://www.w3.org/2000/svg">
<defs >
<font id="OpenSans" horiz-adv-x="1106" ><font-face
    font-family="Open Sans"
    units-per-em="2048"
    panose-1="0 0 0 0 0 0 0 0 0 0"
    ascent="2189"
    descent="-600"
    alphabetic="0" />
<glyph unicode=" " glyph-name="space" horiz-adv-x="532" />
<glyph unicode="!" glyph-name="exclam" horiz-adv-x="524" d="M158 406L349 1462H551L293 406H158ZM146 -28Q97 -28 71 -1T44 76Q44 137 78 185T188 233Q232 233 258 206T285 129Q285 73 251 23T146 -28Z" />
<glyph unicode="&quot;" glyph-name="quotedbl" horiz-adv-x="785" d="M568 934L643 1462H825L675 934H568ZM223 934L299 1462H481L330 934H223Z" />
<glyph unicode="#" glyph-name="numbersign" horiz-adv-x="1316" d="M201 0L323 432H62L74 558H359L461 901H184L196 1024H495L619 1462H756L630 1024H935L1063 1462H1192L1068 1024H1332L1319 901H1030L931 558H1215L1203 432H895L770 0H633L764 432H459L332
0H201ZM495 558H800L895 901H592L495 558Z" />
<glyph unicode="$" glyph-name="dollar" horiz-adv-x="1128" d="M346 -119L395 102Q308 107 222 126T74 174V327Q151 287 244 265T422 240L520 694Q436 725 375 766T281 866T248 1011Q248 1127 303 1204T452 1325T663 1378L702 1552H826L790 1377Q867 1371 939
1352T1072 1301L1010 1167Q959 1194 895 1215T761 1240L666 796Q758 761 821 721T916 625T948 488Q948 370 891 289T736 163T518 104L469 -119H346ZM547 245Q614 253 668 281T756 358T789 474Q789 514 773 545T723 602T635 650L547 245ZM551 840L635 1240Q567 1233
514 1206T432 1132T402 1015Q402 976 419 943T469 885T551 840Z" />
<glyph unicode="%" glyph-name="percent" horiz-adv-x="1628" d="M233 0L1318 1462H1467L382 0H233ZM397 565Q287 565 226 640T165 859Q165 920 175 1001T212 1166T282 1322T393 1438T553 1483Q668 1483 728 1411T789 1204Q789 1148 778 1067T739 898T667 736T556
613T397 565ZM411 691Q467 691 507 731T575 834T619 966T643 1097T651 1193Q651 1281 623 1320T542 1359Q487 1359 446 1322T378 1226T334 1099T310 968T302 861Q302 776 329 734T411 691ZM1143 -21Q1032 -21 971 53T910 271Q910 333 921 414T957 580T1027 736T1138
852T1298 897Q1414 897 1475 825T1536 619Q1536 562 1524 481T1485 312T1413 150T1301 27T1143 -21ZM1156 105Q1212 105 1252 145T1321 248T1365 381T1389 511T1397 606Q1397 694 1369 733T1286 773Q1231 773 1191 736T1124 640T1081 513T1057 382T1050 276Q1050
191 1076 148T1156 105Z" />
<glyph unicode="&amp;" glyph-name="ampersand" horiz-adv-x="1380" d="M444 -20Q279 -20 174 72T69 339Q69 451 116 534T251 685T466 811Q423 878 392 955T361 1117Q361 1221 407 1304T540 1436T752 1485Q849 1485 921 1450T1032 1349T1072 1195Q1072 1090 1017
1017T871 887T671 776L951 385Q1019 445 1069 525T1153 690H1320Q1285 606 1241 532T1146 393T1035 269L1235 0H1038L921 166Q823 85 713 33T444 -20ZM475 118Q552 118 615 139T733 196T841 276L536 708Q456 668 387 621T276 509T234 350Q234 279 265 227T350 146T475
118ZM604 880Q654 905 707 933T807 998T882 1079T911 1183Q911 1257 867 1303T743 1349Q674 1349 624 1321T547 1242T520 1117Q520 1054 540 997T604 880Z" />
<glyph unicode="&apos;" glyph-name="quotesingle" horiz-adv-x="440" d="M223 934L299 1462H481L330 934H223Z" />
<glyph unicode="(" glyph-name="parenleft" horiz-adv-x="583" d="M226 -324Q180 -241 147 -147T97 52T80 269Q80 452 114 616T213 927T371 1207T584 1462H739Q629 1342 538 1207T379 923T276 611T239 271Q239 154 252 50T292 -147T357 -324H226Z" />
<glyph unicode=")" glyph-name="parenright" horiz-adv-x="583" d="M-155 -324Q-44 -204 47 -69T205 215T308 528T344 868Q344 985 331 1088T292 1285T228 1462H359Q405 1379 437 1285T486 1086T503 868Q503 685 470 521T371 211T213 -69T-1 -324H-155Z" />
<glyph unicode="*" glyph-name="asterisk" horiz-adv-x="1124" d="M767 623L651 1021L393 689L278 805L585 1084L216 1203L270 1351L638 1164L683 1562L847 1529L729 1145L1147 1169L1139 1013L748 1052L926 673L767 623Z" />
<glyph unicode="+" glyph-name="plus" horiz-adv-x="1171" d="M693 790H1105V654H693V230H556V654H144V790H556V1216H693V790Z" />
<glyph unicode="," glyph-name="comma" horiz-adv-x="508" d="M-88 -264Q-50 -181 -13 -93T57 81T116 238H296L304 215Q271 142 228 59T136 -107T39 -264H-88Z" />
<glyph unicode="-" glyph-name="hyphen" horiz-adv-x="641" d="M56 472L90 626H572L539 472H56Z" />
<glyph unicode="." glyph-name="period" horiz-adv-x="514" d="M143 -28Q96 -28 70 -2T44 73Q44 136 79 184T191 233Q233 233 259 207T285 131Q285 72 250 22T143 -28Z" />
<glyph unicode="/" glyph-name="slash" horiz-adv-x="718" d="M-93 0L722 1462H892L79 0H-93Z" />
<glyph unicode="0" glyph-name="zero" horiz-adv-x="1128" d="M483 -20Q306 -20 213 107T119 470Q119 572 133 686T177 914T256 1130T371 1313T527 1439T726 1485Q820 1485 889 1454T1003 1364T1071 1218T1093 1020Q1093 897 1078 773T1030 532T949 316T832 140T677
23T483 -20ZM502 122Q572 122 630 160T735 266T817 422T875 611T910 817T922 1023Q922 1178 872 1260T717 1342Q649 1342 591 1304T484 1200T400 1047T338 864T300 666T287 471Q287 302 339 212T502 122Z" />
<glyph unicode="1" glyph-name="one" horiz-adv-x="1128" d="M420 0L619 932Q633 995 647 1059T676 1179T702 1273Q672 1242 640 1218T567 1167L376 1046L298 1171L755 1462H901L588 0H420Z" />
<glyph unicode="2" glyph-name="two" horiz-adv-x="1128" d="M8 0L38 142L511 569Q609 658 682 728T805 860T878 987T903 1127Q903 1222 845 1281T681 1340Q621 1340 567 1324T463 1279T362 1213L283 1327Q370 1395 471 1439T699 1483Q820 1483 904 1441T1032
1325T1076 1153Q1076 1033 1029 933T881 725T617 475L256 159V152H934L905 0H8Z" />
<glyph unicode="3" glyph-name="three" horiz-adv-x="1128" d="M430 -20Q311 -20 218 1T45 60V221Q116 181 220 151T432 120Q517 120 583 141T694 202T763 298T787 423Q787 509 751 567T648 656T483 686H349L377 824H514Q591 824 661 845T787 906T873 1006T905
1141Q905 1237 845 1289T689 1342Q593 1342 512 1309T350 1220L272 1338Q358 1400 462 1441T703 1483Q823 1483 906 1443T1032 1330T1075 1161Q1075 1056 1029 972T899 832T697 755V746Q814 725 888 644T963 430Q963 342 932 261T835 117T669 17T430 -20Z" />
<glyph unicode="4" glyph-name="four" horiz-adv-x="1128" d="M599 0L673 339H14L43 489L880 1463H1071L867 487H1096L1064 339H833L760 0H599ZM215 487H704L785 867Q802 943 822 1022T862 1173T895 1292H888Q861 1251 818 1193T745 1101L215 487Z" />
<glyph unicode="5" glyph-name="five" horiz-adv-x="1128" d="M411 -20Q346 -20 286 -11T173 16T76 60V221Q148 176 234 148T412 120Q518 120 595 148T723 227T797 344T821 487Q821 615 746 687T540 760Q476 760 422 750T299 722L228 777L427 1462H1098L1066 1310H539L410
870Q448 879 493 886T598 893Q719 893 807 846T945 713T994 508Q994 412 963 319T864 149T685 26T411 -20Z" />
<glyph unicode="6" glyph-name="six" horiz-adv-x="1128" d="M514 -20Q397 -20 311 30T177 179T130 428Q130 535 149 653T207 890T305 1112T446 1296Q505 1356 578 1398T739 1461T929 1483Q982 1483 1031 1477T1117 1460L1083 1316Q1049 1327 1008 1334T910 1341Q778
1341 666 1280T468 1087T332 740H339Q378 792 431 832T549 895T689 918Q841 918 931 822T1022 551Q1022 446 991 345T896 161T737 29T514 -20ZM530 120Q608 120 669 154T771 248T835 382T857 536Q857 655 802 718T634 782Q554 782 489 747T380 662T318 566Q310
545 305 520T297 469T295 415Q295 359 307 306T347 211T420 145T530 120Z" />
<glyph unicode="7" glyph-name="seven" horiz-adv-x="1128" d="M173 0L946 1315H224L254 1462H1151L1126 1331L353 0H173Z" />
<glyph unicode="8" glyph-name="eight" horiz-adv-x="1128" d="M502 -20Q364 -20 273 29T137 161T92 344Q92 452 140 534T277 678T488 784Q435 822 395 866T331 968T308 1101Q308 1220 365 1306T520 1438T739 1485Q870 1485 951 1440T1071 1321T1109 1164Q1109
1056 1061 981T933 853T760 762Q832 720 885 669T967 552T997 394Q997 282 943 188T779 37T502 -20ZM518 118Q622 118 690 156T793 257T828 391Q828 460 804 514T730 614T608 699Q511 669 434 627T311 519T265 353Q265 242 336 180T518 118ZM643 838Q739 874 805
916T906 1015T941 1148Q941 1239 883 1291T726 1344Q651 1344 594 1315T504 1231T472 1101Q472 1007 519 946T643 838Z" />
<glyph unicode="9" glyph-name="nine" horiz-adv-x="1128" d="M338 -20Q276 -20 212 -11T96 14V168Q150 150 211 137T342 124Q443 124 525 160T673 268T786 451T867 712H858Q824 663 775 626T664 567T532 545Q420 545 342 589T222 719T181 927Q181 1017 204 1099T270
1252T376 1373T517 1454T689 1483Q810 1483 895 1432T1024 1280T1069 1033Q1069 925 1050 805T995 566T906 345T788 170Q742 119 690 83T580 24T463 -9T338 -20ZM565 680Q636 680 697 705T804 778T878 891Q892 924 898 965T905 1056Q905 1139 880 1203T805 1305T680
1342Q601 1342 539 1310T434 1221T369 1092T346 935Q346 813 402 747T565 680Z" />
<glyph unicode=":" glyph-name="colon" horiz-adv-x="514" d="M310 862Q264 862 238 888T211 960Q211 1004 226 1040T274 1099T357 1122Q400 1122 426 1097T452 1021Q452 960 417 911T310 862ZM143 -28Q96 -28 70 -2T44 73Q44 136 79 184T191 233Q233 233 259
207T285 131Q285 72 250 22T143 -28Z" />
<glyph unicode=";" glyph-name="semicolon" horiz-adv-x="514" d="M-99 -264Q-62 -181 -25 -93T45 81T104 238H286L293 215Q260 142 217 59T125 -107T28 -264H-99ZM310 862Q263 862 237 888T211 960Q211 1004 226 1040T274 1099T357 1122Q400 1122 426 1097T452
1021Q452 960 417 911T310 862Z" />
<glyph unicode="&lt;" glyph-name="less" horiz-adv-x="1171" d="M1106 243L144 669V764L1106 1240V1092L324 723L1106 390V243Z" />
<glyph unicode="=" glyph-name="equal" horiz-adv-x="1171" d="M156 858V993H1094V858H156ZM156 449V584H1094V449H156Z" />
<glyph unicode="&gt;" glyph-name="greater" horiz-adv-x="1171" d="M144 390L927 721L144 1092V1240L1106 764V669L144 243V390Z" />
<glyph unicode="?" glyph-name="question" horiz-adv-x="875" d="M259 406Q274 497 302 563T379 684T503 798Q569 848 626 896T719 1003T755 1142Q755 1234 703 1286T553 1338Q477 1338 403 1314T261 1256L201 1384Q284 1428 381 1455T571 1483Q732 1483 827 1402T923
1162Q923 1068 889 993T788 852T628 715Q550 658 505 616T435 527T394 406H259ZM258 -28Q212 -28 186 -2T159 73Q159 136 194 184T305 233Q348 233 374 207T400 131Q400 72 365 22T258 -28Z" />
<glyph unicode="@" glyph-name="at" horiz-adv-x="1734" d="M786 -186Q634 -186 510 -140T296 -6T158 211T109 503Q109 651 151 791T274 1053T471 1265T737 1407T1065 1458Q1277 1458 1413 1375T1614 1154T1680 850Q1680 741 1659 645T1600 471T1507 335T1387
248T1246 217Q1134 217 1089 271T1036 402H1028Q983 323 911 270T737 217Q625 217 558 290T490 501Q490 600 516 685T591 840T704 957T846 1032T1006 1058Q1101 1058 1166 1040T1284 1000L1190 642Q1172 577 1163 535T1154 456Q1154 392 1182 365T1255 338Q1307
338 1351 366T1430 443T1490 555T1528 691T1541 837Q1541 975 1492 1087T1332 1266T1040 1333Q896 1333 774 1292T556 1175T391 997T288 771T252 510Q252 333 316 206T505 10T806 -58Q916 -58 1025 -34T1226 26V-98Q1122 -141 1009 -163T786 -186ZM770 338Q872
338 940 426T1048 657L1117 915Q1095 924 1062 932T987 940Q914 940 850 908T738 817T663 682T635 513Q635 422 670 380T770 338Z" />
<glyph unicode="A" glyph-name="A" horiz-adv-x="1148" d="M-115 0L686 1462H863L1048 0H881L823 466H318L70 0H-115ZM399 617H806L767 958Q760 1032 752 1120T742 1279H736Q704 1203 664 1120T578 951L399 617Z" />
<glyph unicode="B" glyph-name="B" horiz-adv-x="1229" d="M86 0L395 1462H773Q909 1462 1005 1427T1153 1318T1204 1131Q1204 1031 1163 955T1048 831T873 763V754Q975 726 1042 652T1109 455Q1109 305 1036 204T836 51T545 0H86ZM285 145H553Q671 145 755 180T886
285T932 455Q932 560 864 627T641 694H401L285 145ZM431 835H681Q778 835 856 864T982 955T1029 1111Q1029 1211 964 1264T752 1317H534L431 835Z" />
<glyph unicode="C" glyph-name="C" horiz-adv-x="1204" d="M668 -20Q505 -20 390 48T212 241T150 540Q150 676 182 811T277 1067T436 1281T657 1429T941 1483Q1045 1483 1131 1463T1294 1402L1227 1261Q1169 1292 1100 1312T941 1333Q818 1333 720 1289T549 1167T427
988T354 774T329 544Q329 352 426 241T697 129Q784 129 865 146T1024 189V41Q946 13 864 -3T668 -20Z" />
<glyph unicode="D" glyph-name="D" horiz-adv-x="1368" d="M86 0L395 1462H736Q1002 1462 1152 1319T1303 878Q1303 728 1267 595T1160 353T985 165T744 43T439 0H86ZM285 146H449Q581 146 688 182T876 286T1013 444T1097 646T1125 880Q1125 1110 1014 1213T714
1317H534L285 146Z" />
<glyph unicode="E" glyph-name="E" horiz-adv-x="1058" d="M86 0L395 1462H1136L1104 1312H532L431 839H967L938 691H401L285 150H858L826 0H86Z" />
<glyph unicode="F" glyph-name="F" horiz-adv-x="979" d="M86 0L395 1462H1136L1106 1312H532L419 774H956L924 624H386L254 0H86Z" />
<glyph unicode="G" glyph-name="G" horiz-adv-x="1392" d="M700 -20Q441 -20 296 125T150 532Q150 694 187 837T293 1099T460 1304T678 1436T938 1483Q1069 1483 1169 1460T1360 1397L1295 1249Q1218 1284 1129 1308T936 1333Q807 1333 697 1276T504 1112T375
862T329 543Q329 423 371 330T500 183T717 129Q798 129 867 141T985 170L1082 616H782L814 764H1283L1129 57Q1036 23 932 2T700 -20Z" />
<glyph unicode="H" glyph-name="H" horiz-adv-x="1393" d="M88 0L397 1462H566L433 839H1101L1233 1462H1399L1090 0H923L1068 689H401L256 0H88Z" />
<glyph unicode="I" glyph-name="I" horiz-adv-x="555" d="M86 0L397 1462H563L252 0H86Z" />
<glyph unicode="J" glyph-name="J" horiz-adv-x="550" d="M-166 -385Q-214 -385 -256 -378T-322 -361L-317 -215Q-285 -224 -248 -229T-169 -235Q-105 -235 -54 -209T35 -128T90 14L398 1462H567L256 -5Q227 -140 169 -224T27 -346T-166 -385Z" />
<glyph unicode="K" glyph-name="K" horiz-adv-x="1147" d="M86 0L395 1462H563L410 742L536 874L1123 1462H1328L685 822L1038 0H853L557 720L377 585L254 0H86Z" />
<glyph unicode="L" glyph-name="L" horiz-adv-x="982" d="M86 0L395 1462H563L285 152H858L826 0H86Z" />
<glyph unicode="M" glyph-name="M" horiz-adv-x="1714" d="M84 0L393 1462H632L784 249H792L1460 1462H1719L1415 0H1245L1437 908Q1455 990 1472 1062T1503 1193T1530 1295H1526L806 0H673L507 1294H499Q495 1253 486 1190T464 1055T437 917L244 0H84Z" />
<glyph unicode="N" glyph-name="N" horiz-adv-x="1441" d="M84 0L393 1462H571L1034 238H1039Q1046 288 1057 354T1082 493T1110 632L1288 1462H1448L1139 0H961L495 1227H490Q485 1193 478 1146T461 1044T440 932T417 820L244 0H84Z" />
<glyph unicode="O" glyph-name="O" horiz-adv-x="1476" d="M689 -20Q513 -20 393 50T211 248T150 549Q150 674 172 791T238 1012T344 1203T490 1353T671 1450T887 1485Q1133 1485 1271 1333T1410 909Q1410 788 1390 673T1330 453T1230 263T1090 113T910 15T689
-20ZM695 129Q781 129 854 159T986 243T1091 370T1168 530T1215 715T1231 913Q1231 1113 1137 1224T875 1335Q789 1335 715 1307T580 1226T473 1101T394 942T346 756T329 553Q329 421 372 326T497 180T695 129Z" />
<glyph unicode="P" glyph-name="P" horiz-adv-x="1159" d="M86 0L395 1462H724Q879 1462 975 1415T1115 1283T1159 1083Q1159 962 1119 868T998 709T800 611T525 577H376L254 0H86ZM407 720H551Q687 720 784 759T934 877T987 1078Q987 1204 916 1260T700 1317H534L407
720Z" />
<glyph unicode="Q" glyph-name="Q" horiz-adv-x="1476" d="M940 -348L719 -18Q710 -19 703 -19T687 -20Q512 -19 393 50T212 247T150 549Q150 674 172 791T238 1012T344 1203T490 1353T671 1450T887 1485Q1133 1485 1271 1333T1410 909Q1410 786 1389 669T1325
446T1220 253T1073 104T886 10L1157 -348H940ZM695 129Q783 129 856 159T989 243T1094 370T1169 530T1215 715T1231 913Q1231 1113 1137 1224T875 1335Q789 1335 715 1307T580 1226T473 1101T394 942T346 756T329 553Q329 421 372 326T497 180T695 129Z" />
<glyph unicode="R" glyph-name="R" horiz-adv-x="1171" d="M86 0L395 1462H715Q939 1462 1051 1370T1163 1096Q1163 988 1126 900T1008 747T794 647L1034 0H850L638 610H383L254 0H86ZM413 754H590Q691 754 766 777T890 844T964 948T989 1084Q989 1211 917 1263T698
1315H534L413 754Z" />
<glyph unicode="S" glyph-name="S" horiz-adv-x="1032" d="M382 -20Q273 -20 191 -4T39 45V212Q102 180 187 154T384 127Q453 127 516 143T628 193T706 280T735 406Q735 465 710 510T629 598T485 690Q409 735 349 784T253 900T218 1062Q218 1164 256 1242T360
1374T513 1455T697 1483Q812 1483 897 1460T1061 1398L996 1254Q940 1284 862 1308T697 1333Q634 1333 580 1317T484 1267T420 1186T397 1073Q397 1008 421 965T493 887T611 811Q700 759 768 708T874 589T912 419Q912 309 874 227T764 90T596 8T382 -20Z" />
<glyph unicode="T" glyph-name="T" horiz-adv-x="1022" d="M315 0L593 1312H185L217 1462H1203L1173 1312H765L486 0H315Z" />
<glyph unicode="U" glyph-name="U" horiz-adv-x="1389" d="M614 -20Q464 -20 364 27T214 164T164 384Q164 419 170 468T187 573L377 1462H546L355 564Q344 518 338 468T332 386Q332 265 406 197T624 129Q747 129 829 172T961 301T1039 514L1242 1462H1410L1206
500Q1172 337 1100 221T909 42T614 -20Z" />
<glyph unicode="V" glyph-name="V" horiz-adv-x="1126" d="M352 0L191 1462H358L456 511Q462 457 466 402T473 293T474 193H478Q498 240 521 290T572 395T632 512L1124 1462H1311L531 0H352Z" />
<glyph unicode="W" glyph-name="W" horiz-adv-x="1746" d="M286 0L223 1462H389L421 547Q424 465 422 379T414 212H420Q449 290 487 387T569 574L985 1462H1156L1201 577Q1207 485 1209 385T1210 211H1216Q1234 262 1254 318T1296 434T1343 552L1740 1462H1919L1256
0H1084L1036 969Q1033 1013 1031 1061T1029 1156T1028 1244H1022Q1003 1184 977 1123T908 968L459 0H286Z" />
<glyph unicode="X" glyph-name="X" horiz-adv-x="1070" d="M-108 0L492 773L230 1462H401L605 892L1052 1462H1237L681 765L961 0H783L566 642L78 0H-108Z" />
<glyph unicode="Y" glyph-name="Y" horiz-adv-x="1037" d="M312 0L431 550L189 1462H358L541 717L1035 1462H1226L596 545L483 0H312Z" />
<glyph unicode="Z" glyph-name="Z" horiz-adv-x="1089" d="M-20 0L6 131L938 1310H279L311 1462H1173L1149 1329L218 152H919L888 0H-20Z" />
<glyph unicode="[" glyph-name="bracketleft" horiz-adv-x="597" d="M-18 -324L362 1462H758L727 1325H490L169 -186H408L377 -324H-18Z" />
<glyph unicode="\" glyph-name="backslash" horiz-adv-x="718" d="M441 0L219 1462H370L592 0H441Z" />
<glyph unicode="]" glyph-name="bracketright" horiz-adv-x="597" d="M-147 -324L-119 -186H119L439 1325H201L231 1462H627L246 -324H-147Z" />
<glyph unicode="^" glyph-name="asciicircum" horiz-adv-x="1166" d="M81 549L537 1473H633L1087 549H939L586 1295L230 549H81Z" />
<glyph unicode="_" glyph-name="underscore" horiz-adv-x="804" d="M-186 -319L-158 -188H649L621 -319H-186Z" />
<glyph unicode="`" glyph-name="grave" horiz-adv-x="557" d="M521 1241Q483 1280 439 1336T358 1449T299 1548V1569H477Q493 1519 517 1466T569 1362T624 1266V1241H521Z" />
<glyph unicode="a" glyph-name="a" horiz-adv-x="1158" d="M396 -20Q307 -20 240 23T136 150T99 355Q99 476 124 588T197 796T310 964T460 1076T639 1116Q713 1116 767 1088T858 1015T916 918H926L990 1096H1117L885 0H752L782 212H774Q729 152 671 99T544 13T396
-20ZM450 118Q527 118 602 174T738 327T831 545Q847 604 852 653T858 746Q858 849 804 912T655 976Q588 976 529 943T423 850T341 712T289 541T270 352Q270 237 317 178T450 118Z" />
<glyph unicode="b" glyph-name="b" horiz-adv-x="1183" d="M544 -20Q467 -20 411 7T317 80T259 177H250L184 0H58L388 1556H554L474 1180Q460 1113 444 1048T416 937T399 883H407Q455 944 510 996T632 1081T778 1114Q870 1114 938 1072T1043 946T1081 740Q1081
622 1058 511T989 303T879 135T730 21T544 -20ZM532 118Q602 118 660 153T765 248T844 389T894 559T911 742Q911 858 865 917T726 976Q678 976 629 953T533 886T448 785T379 657T332 509T315 350Q315 245 368 182T532 118Z" />
<glyph unicode="c" glyph-name="c" horiz-adv-x="928" d="M506 -20Q384 -20 293 26T151 164T100 390Q100 507 125 615T200 814T319 973T478 1078T674 1116Q745 1116 815 1103T943 1064L896 924Q854 944 797 960T675 976Q584 976 510 930T382 803T299 616T270 392Q270
307 300 246T386 151T522 118Q595 118 659 138T786 186V44Q731 16 661 -2T506 -20Z" />
<glyph unicode="d" glyph-name="d" horiz-adv-x="1183" d="M397 -20Q307 -20 240 22T136 147T99 355Q99 473 123 584T192 792T304 960T454 1073T640 1114Q717 1114 772 1086T863 1014T921 918H931Q937 964 943 1007T957 1096T977 1189L1054 1556H1219L889 0H752L779
212H772Q724 150 668 97T544 12T397 -20ZM453 118Q500 118 548 141T643 206T729 307T799 435T847 583T864 744Q864 850 813 913T650 976Q581 976 523 941T417 845T338 705T288 535T270 352Q270 237 316 178T453 118Z" />
<glyph unicode="e" glyph-name="e" horiz-adv-x="1020" d="M497 -20Q374 -20 285 29T149 171T101 393Q101 526 139 654T250 887T423 1054T651 1116Q802 1116 880 1049T958 863Q958 780 920 710T802 589T601 509T313 480H275Q273 462 272 440T270 399Q270 267 334
193T526 118Q605 118 675 140T823 200V57Q749 23 674 2T497 -20ZM299 616H323Q451 616 558 638T730 712T795 850Q795 906 757 942T641 978Q572 978 505 936T384 812T299 616Z" />
<glyph unicode="f" glyph-name="f" horiz-adv-x="639" d="M-103 -492Q-142 -492 -175 -486T-233 -471V-330Q-206 -340 -178 -346T-118 -353Q-44 -353 -3 -294T63 -123L293 969H102L116 1040L319 1101L343 1207Q366 1309 398 1378T475 1489T577 1549T712 1567Q762
1567 814 1556T900 1529L857 1402Q827 1413 793 1421T719 1430Q634 1430 586 1383T509 1206L484 1096H720L696 969H459L225 -142Q201 -252 160 -330T55 -450T-103 -492Z" />
<glyph unicode="g" glyph-name="g" horiz-adv-x="1063" d="M317 -492Q124 -492 15 -419T-94 -212Q-94 -105 -22 -27T211 105Q173 125 154 155T134 226Q134 294 184 343T324 435Q260 468 221 532T182 679Q183 778 216 860T309 1000Q365 1054 440 1084T605 1114Q643
1114 681 1109T756 1094H1126L1102 993L885 971Q908 940 919 898T930 805Q930 707 897 628T803 494Q748 445 673 419T504 391Q477 391 456 393T420 399Q347 373 312 338T277 264Q277 236 294 219Q310 204 338 197T409 184L527 171Q647 157 723 124T835 33T871 -108Q871
-214 822 -291T681 -418Q611 -454 520 -473T317 -492ZM324 -371Q415 -371 486 -355T608 -309Q662 -276 690 -229T719 -121Q719 -94 711 -72T684 -33Q656 -6 604 11T472 35L312 51Q228 33 172 -2T86 -87T57 -197Q57 -279 125 -325T324 -371ZM511 501Q597 501 656
544T748 660T780 819Q780 862 769 895T734 951Q712 974 679 986T602 998Q539 998 489 974T405 906T352 806T333 684Q333 642 344 609T376 553Q422 501 511 501Z" />
<glyph unicode="h" glyph-name="h" horiz-adv-x="1180" d="M58 0L388 1556H554L466 1152Q458 1109 447 1064T423 973T399 883H409Q448 936 501 989T626 1078T788 1114Q874 1114 935 1083T1030 991T1064 836Q1064 797 1058 757T1043 672L899 0H732L878 690Q888
735 892 767T896 823Q896 896 860 936T743 976Q668 976 586 926T434 767T327 483L225 0H58Z" />
<glyph unicode="i" glyph-name="i" horiz-adv-x="517" d="M58 0L291 1096H458L225 0H58ZM431 1288Q391 1288 365 1311T338 1378Q338 1411 351 1440T390 1486T453 1504Q497 1504 519 1481T541 1417Q541 1358 507 1323T431 1288Z" />
<glyph unicode="j" glyph-name="j" horiz-adv-x="517" d="M-136 -492Q-173 -492 -206 -486T-262 -471V-330Q-237 -340 -207 -346T-143 -353Q-100 -353 -67 -331T-11 -263T28 -151L291 1096H456L188 -167Q167 -267 129 -340T26 -452T-136 -492ZM429 1288Q390 1288
364 1311T338 1378Q338 1411 351 1440T390 1486T453 1504Q497 1504 518 1481T540 1417Q540 1358 506 1323T429 1288Z" />
<glyph unicode="k" glyph-name="k" horiz-adv-x="1001" d="M56 0L386 1556H554L418 921Q396 817 377 743T344 623T323 551H327L867 1096H1064L590 625L885 0H701L464 521L305 392L225 0H56Z" />
<glyph unicode="l" glyph-name="l" horiz-adv-x="517" d="M56 0L388 1556H554L223 0H56Z" />
<glyph unicode="m" glyph-name="m" horiz-adv-x="1785" d="M58 0L291 1096H427L401 884H411Q447 936 498 989T616 1079T770 1116Q886 1116 946 1049T1016 866H1023Q1063 927 1119 984T1246 1079T1404 1116Q1531 1116 1600 1047T1669 847Q1669 800 1664 758T1647
672L1505 0H1337L1485 690Q1494 735 1498 768T1503 831Q1503 898 1467 937T1356 976Q1303 976 1246 947T1136 860T1039 712T970 503L863 0H697L843 687Q852 733 856 766T861 824Q861 895 828 935T720 976Q667 976 610 948T498 860T399 707T327 483L225 0H58Z" />
<glyph unicode="n" glyph-name="n" horiz-adv-x="1180" d="M51 0L286 1101H433L407 890H409Q447 942 500 995T625 1085T788 1122Q876 1122 939 1090T1036 996T1070 847Q1070 801 1063 754T1048 670L902 0H725L873 692Q882 737 887 769T893 829Q893 899 855 935T743
971Q670 971 589 921T439 764T332 483L229 0H51Z" />
<glyph unicode="o" glyph-name="o" horiz-adv-x="1153" d="M505 -16Q379 -16 288 35T149 181T100 405Q100 509 123 610T191 802T302 962T456 1071T650 1111Q778 1111 868 1060T1007 913T1056 688Q1056 586 1034 485T967 294T856 134T702 24T505 -16ZM515 122Q577
122 633 148T735 223T814 344T866 507T885 707Q885 772 862 833T788 933T652 973Q582 973 523 944T416 862T337 737T287 579T269 398Q269 267 333 195T515 122Z" />
<glyph unicode="p" glyph-name="p" horiz-adv-x="1183" d="M-44 -490L291 1096H427L400 883H407Q454 945 510 997T634 1082T782 1114Q872 1114 939 1072T1043 946T1081 738Q1081 620 1058 509T989 302T879 134T729 21T544 -20Q467 -20 412 7T319 80T259 177H250Q246
140 238 81T220 -19L120 -490H-44ZM532 118Q602 118 660 153T765 248T844 389T894 559T911 742Q911 858 865 917T726 976Q678 976 629 953T534 887T448 786T379 658T332 510T315 350Q315 245 368 182T532 118Z" />
<glyph unicode="q" glyph-name="q" horiz-adv-x="1183" d="M620 -490L719 -26Q726 2 736 44T759 132T780 213H772Q726 152 670 99T546 13T399 -20Q308 -20 241 22T136 148T99 355Q99 472 123 583T192 791T304 961T455 1075T642 1116Q718 1116 772 1088T864 1015T921
918H931L997 1096H1122L785 -490H620ZM453 118Q501 118 549 141T644 208T729 310T799 439T846 586T863 744Q863 842 812 909T652 976Q583 976 524 941T418 845T338 705T288 535T270 352Q270 237 315 178T453 118Z" />
<glyph unicode="r" glyph-name="r" horiz-adv-x="809" d="M58 0L291 1096H427L401 884H411Q453 941 501 994T610 1082T752 1116Q782 1116 813 1113T871 1101L835 952Q808 958 783 961T730 964Q654 964 589 925T473 819T386 672T332 507L225 0H58Z" />
<glyph unicode="s" glyph-name="s" horiz-adv-x="883" d="M319 -20Q219 -20 144 0T12 50V204Q65 172 146 144T314 116Q399 116 455 139T540 202T569 297Q569 340 551 371T491 433T380 502Q303 545 250 589T170 685T142 808Q142 902 188 971T317 1078T513 1116Q612
1116 696 1094T841 1042L787 909Q735 934 668 955T513 976Q419 976 364 933T308 817Q308 779 324 749T382 690T494 621Q563 581 618 540T706 445T739 313Q739 206 688 132T543 19T319 -20Z" />
<glyph unicode="t" glyph-name="t" horiz-adv-x="675" d="M370 -20Q261 -20 189 32T116 213Q116 244 120 280T133 356L262 969H93L109 1046L291 1116L411 1348H510L455 1096H737L711 969H430L300 354Q293 326 288 294T282 233Q282 183 308 150T395 116Q433 116
467 123T541 143V15Q516 3 466 -8T370 -20Z" />
<glyph unicode="u" glyph-name="u" horiz-adv-x="1180" d="M387 -20Q304 -20 242 11T147 102T113 251Q113 295 119 336T134 423L279 1096H447L298 404Q290 361 286 328T281 268Q281 197 317 158T434 118Q509 118 591 169T744 329T852 614L954 1096H1118L886 0H749L776
212H767Q729 160 675 107T550 17T387 -20Z" />
<glyph unicode="v" glyph-name="v" horiz-adv-x="943" d="M230 0L98 1096H266L333 465Q339 412 344 345T352 219T356 130H362Q384 179 413 241T473 365T526 471L864 1096H1042L445 0H230Z" />
<glyph unicode="w" glyph-name="w" horiz-adv-x="1465" d="M164 0L116 1096H279L298 491Q301 382 299 295T292 150H299Q315 192 337 247T384 359T430 460L731 1096H909L949 489Q951 414 953 320T953 150H960Q977 200 1000 261T1051 392T1111 533L1365 1096H1541L1032
0H834L797 616Q794 668 794 717T793 818T794 931H786Q768 882 751 839T712 748T659 634L359 0H164Z" />
<glyph unicode="x" glyph-name="x" horiz-adv-x="983" d="M-75 0L402 564L164 1096H332L508 682L842 1096H1035L577 557L831 0H661L469 436L118 0H-75Z" />
<glyph unicode="y" glyph-name="y" horiz-adv-x="943" d="M-58 -493Q-107 -493 -137 -487T-197 -472V-337Q-170 -344 -137 -349T-67 -355Q15 -355 74 -303T189 -150L266 -13L98 1096H266L342 533Q352 467 358 392T367 249T370 139H376Q390 172 418 234T478 365T535
479L864 1096H1042L340 -190Q286 -290 230 -357T104 -459T-58 -493Z" />
<glyph unicode="z" glyph-name="z" horiz-adv-x="909" d="M-31 0L-8 113L690 970H207L233 1096H898L872 963L185 126H720L695 0H-31Z" />
<glyph unicode="{" glyph-name="braceleft" horiz-adv-x="712" d="M440 -324Q296 -324 221 -270T146 -101Q146 -69 152 -36T166 34L218 263Q224 295 228 321T232 372Q232 443 181 478T27 514L58 652Q177 652 247 696T340 848L408 1173Q431 1279 475 1342T594 1434T781
1462H815L786 1324Q692 1324 638 1291T561 1157L490 835Q467 730 410 662T236 574V570Q313 550 348 496T384 364Q384 338 380 304T367 238L319 15Q313 -10 309 -34T304 -79Q304 -143 347 -164T466 -185V-324H440Z" />
<glyph unicode="|" glyph-name="bar" horiz-adv-x="1125" d="M537 -494V1556H674V-494H537Z" />
<glyph unicode="}" glyph-name="braceright" horiz-adv-x="712" d="M-79 -324L-78 -185Q-10 -185 39 -171T119 -121T164 -18L236 304Q259 408 316 475T490 562V567Q413 589 378 642T343 772Q343 799 348 832T360 898L410 1123Q417 1149 421 1173T425 1216Q425
1280 377 1302T242 1324L268 1462H282Q380 1462 446 1439T545 1366T579 1239Q579 1208 574 1175T559 1105L507 874Q501 843 496 817T491 767Q491 695 544 660T698 625L667 486Q588 486 531 467T437 405T386 291L318 -35Q294 -148 247 -211T124 -299T-64 -324H-79Z"
/>
<glyph unicode="~" glyph-name="asciitilde" horiz-adv-x="1171" d="M595 658Q524 690 475 702T379 715Q322 715 259 681T144 595V744Q194 797 255 824T390 851Q452 851 510 838T657 786Q730 755 778 742T871 729Q930 729 993 763T1106 849V702Q1058 650 997 622T862
593Q802 593 743 606T595 658Z" />
<glyph unicode="&#xa0;" glyph-name="uni00A0" horiz-adv-x="532" />
<glyph unicode="&#xa1;" glyph-name="exclamdown" horiz-adv-x="524" d="M-19 -373L251 683H363L182 -373H-19ZM348 856Q300 856 274 881T248 955Q248 1019 283 1067T393 1116Q437 1116 462 1090T488 1013Q488 976 473 940T427 880T348 856Z" />
<glyph unicode="&#xa2;" glyph-name="cent" horiz-adv-x="1128" d="M455 -20L498 194Q371 226 295 326T219 590Q219 701 242 802T308 991T413 1146T554 1257T727 1314L760 1483H881L844 1314Q904 1310 960 1298T1064 1265L1017 1126Q974 1146 918 1161T796 1177Q705
1177 631 1131T502 1004T419 817T389 592Q389 465 456 392T642 318Q713 318 778 337T904 386V244Q847 215 777 198T619 179L577 -20H455Z" />
<glyph unicode="&#xa3;" glyph-name="sterling" horiz-adv-x="1128" d="M-22 0L5 141Q67 154 119 188T210 281T268 432L315 651H115L141 777H342L414 1117Q443 1249 504 1329T653 1445T847 1481Q951 1481 1035 1456T1179 1397L1114 1265Q1065 1291 997 1316T843
1342Q752 1342 679 1291T575 1094L507 777H874L847 651H480L432 433Q407 306 355 245T238 152H964L932 0H-22Z" />
<glyph unicode="&#xa4;" glyph-name="currency" horiz-adv-x="1132" d="M956 282L824 413Q778 379 722 361T604 342Q543 342 486 361T382 414L252 284L165 373L295 504Q261 550 242 605T223 723Q223 783 242 839T295 943L163 1075L252 1166L382 1034Q430 1067
486 1086T604 1106Q666 1106 721 1087T824 1034L956 1166L1046 1077L914 945Q946 898 966 842T986 723Q986 660 967 604T914 502L1045 371L956 282ZM604 469Q676 469 735 503T828 594T863 723Q863 795 829 853T735 946T604 981Q534 981 476 947T384 854T350 723Q350
652 384 595T476 503T604 469Z" />
<glyph unicode="&#xa5;" glyph-name="yen" horiz-adv-x="1128" d="M362 0L420 270H125L154 397H446L481 563H186L215 691H449L237 1462H400L584 724L1078 1462H1261L721 691H959L932 563H634L600 397H898L871 270H576L516 0H362Z" />
<glyph unicode="&#xa6;" glyph-name="brokenbar" horiz-adv-x="1125" d="M537 780V1556H674V780H537ZM537 -494V284H674V-494H537Z" />
<glyph unicode="&#xa7;" glyph-name="section" horiz-adv-x="998" d="M355 -9Q253 -9 178 10T55 54V198Q109 169 190 144T355 118Q488 118 559 164T631 296Q631 330 610 358T545 414T427 475Q353 508 297 547T208 641T176 772Q176 851 210 909T299 1007T416 1075Q364
1107 329 1156T294 1279Q294 1361 340 1426T472 1528T679 1566Q774 1566 855 1547T999 1497L948 1377Q881 1404 814 1421T679 1438Q625 1438 573 1423T487 1374T453 1284Q453 1228 499 1192T653 1108Q725 1076 782 1038T872 948T905 821Q905 751 875 691T792 584T675
502Q722 471 755 427T788 312Q788 217 739 145T594 32T355 -9ZM578 560Q646 596 699 657T753 799Q753 844 730 878T654 943T518 1010Q473 997 429 968T355 894T325 791Q325 741 349 705T428 635T578 560Z" />
<glyph unicode="&#xa8;" glyph-name="dieresis" horiz-adv-x="1140" d="M909 1296Q874 1296 851 1317T828 1377Q828 1421 854 1455T932 1490Q971 1490 990 1469T1009 1413Q1009 1359 978 1328T909 1296ZM543 1296Q506 1296 484 1317T461 1377Q461 1421 487 1455T563
1490Q590 1490 607 1481T632 1454T641 1413Q641 1359 611 1328T543 1296Z" />
<glyph unicode="&#xa9;" glyph-name="copyright" horiz-adv-x="1704" d="M852 -20Q689 -20 552 36T313 193T156 431T100 731Q100 894 156 1031T313 1270T552 1427T852 1483Q1009 1483 1145 1427T1385 1269T1546 1030T1604 731Q1604 569 1548 432T1391 193T1152
36T852 -20ZM884 274Q682 274 580 398T478 731Q478 864 526 966T667 1127T892 1186Q958 1186 1023 1170T1145 1125L1089 1009Q1039 1035 990 1048T894 1062Q767 1062 697 974T627 731Q627 571 690 485T891 399Q941 399 998 412T1108 446V324Q1059 302 1007 288T884
274ZM852 82Q985 82 1101 130T1306 265T1444 471T1494 731Q1494 865 1447 982T1313 1189T1110 1329T852 1380Q712 1380 595 1332T391 1197T257 991T209 731Q209 597 256 480T389 273T593 133T852 82Z" />
<glyph unicode="&#xaa;" glyph-name="ordfeminine" horiz-adv-x="690" d="M351 787Q301 787 260 813T194 890T170 1016Q170 1103 192 1186T256 1335T359 1440T499 1479Q564 1479 600 1448T653 1373H661L697 1466H784L644 800H553L569 918H563Q523 863 474 825T351
787ZM386 890Q431 890 467 913T532 975T579 1061T607 1155T617 1244Q617 1305 589 1341T502 1378Q453 1378 413 1348T344 1268T300 1156T284 1028Q284 958 311 924T386 890Z" />
<glyph unicode="&#xab;" glyph-name="guillemotleft" horiz-adv-x="953" d="M309 118L81 555L82 582L473 965L555 883L254 551L424 168L309 118ZM692 118L476 519L477 547L848 955L937 883L648 519L806 168L692 118Z" />
<glyph unicode="&#xac;" glyph-name="logicalnot" horiz-adv-x="1171" d="M1101 790V263H967V654H144V790H1101Z" />
<glyph unicode="&#xad;" glyph-name="uni00AD" horiz-adv-x="638" d="M56 472L90 626H572L539 472H56Z" />
<glyph unicode="&#xae;" glyph-name="registered" horiz-adv-x="1704" d="M575 284V1177H836Q999 1177 1077 1112T1155 914Q1155 817 1106 761T992 679L1229 284H1065L858 640H720V284H575ZM720 758H831Q914 758 961 799T1009 910Q1009 987 965 1021T829 1055H720V758ZM852
-20Q689 -20 552 36T313 193T156 431T100 731Q100 894 156 1031T313 1270T552 1427T852 1483Q1009 1483 1145 1427T1385 1269T1546 1030T1604 731Q1604 569 1548 432T1391 193T1152 36T852 -20ZM852 82Q985 82 1101 130T1306 265T1444 471T1494 731Q1494 865 1447
982T1313 1189T1110 1329T852 1380Q712 1380 595 1332T391 1197T257 991T209 731Q209 597 256 480T389 273T593 133T852 82Z" />
<glyph unicode="&#xaf;" glyph-name="overscore" horiz-adv-x="824" d="M207 1556L238 1685H1046L1014 1556H207Z" />
<glyph unicode="&#xb0;" glyph-name="degree" horiz-adv-x="877" d="M438 859Q342 859 270 898T158 1007T117 1170Q117 1263 156 1333T268 1443T438 1483Q533 1483 605 1444T719 1334T760 1170Q760 1078 719 1008T606 898T438 859ZM440 973Q538 973 587 1027T636
1170Q636 1262 586 1316T440 1371Q339 1371 290 1317T241 1170Q241 1082 289 1028T440 973Z" />
<glyph unicode="&#xb1;" glyph-name="plusminus" horiz-adv-x="1171" d="M144 0V135H1107V0H144ZM693 795H1105V659H693V235H556V659H144V795H556V1221H693V795Z" />
<glyph unicode="&#xb2;" glyph-name="uni00B2" horiz-adv-x="714" d="M140 852L164 957L431 1185Q515 1257 569 1312T650 1416T677 1520Q677 1572 646 1604T555 1636Q503 1636 455 1616T356 1555L297 1646Q360 1696 429 1721T578 1747Q703 1747 756 1682T810 1540Q810
1471 785 1412T702 1291T550 1150L333 969H732L708 852H140Z" />
<glyph unicode="&#xb3;" glyph-name="uni00B3" horiz-adv-x="714" d="M396 839Q329 839 269 853T161 893V1018Q215 988 277 968T400 948Q506 948 559 994T612 1121Q612 1187 567 1221T435 1255H340L364 1361H458Q522 1361 571 1379T647 1433T675 1517Q675 1576
641 1607T541 1637Q485 1636 438 1618T345 1569L292 1661Q341 1698 410 1723T564 1748Q645 1748 699 1722T780 1649T807 1543Q807 1449 751 1393T599 1311V1304Q668 1287 706 1237T745 1118Q745 1037 707 974T591 875T396 839Z" />
<glyph unicode="&#xb4;" glyph-name="acute" horiz-adv-x="529" d="M236 1241V1266Q273 1306 316 1359T400 1467T471 1569H660V1549Q638 1521 601 1481T518 1396T426 1311T340 1241H236Z" />
<glyph unicode="&#xb5;" glyph-name="uni00B5" horiz-adv-x="1191" d="M-45 -490L290 1096H456L311 405Q301 359 297 326T292 270Q292 200 329 159T445 118Q518 118 599 167T752 325T862 612L968 1096H1131L897 0H762L787 212H778Q739 157 686 104T564 15T406
-20Q345 -20 303 5T234 83H227Q222 52 214 3T198 -95T183 -176L118 -490H-45Z" />
<glyph unicode="&#xb6;" glyph-name="paragraph" horiz-adv-x="1341" d="M758 -260V577Q727 568 692 564T612 559Q518 559 443 586T313 671T231 823T202 1053Q202 1195 233 1291T323 1446T462 1530T643 1556H1197V-260H1085V1409H870V-260H758Z" />
<glyph unicode="&#xb7;" glyph-name="middot" horiz-adv-x="514" d="M268 582Q221 582 195 608T169 683Q169 746 204 794T316 843Q358 843 384 817T410 741Q410 682 375 632T268 582Z" />
<glyph unicode="&#xb8;" glyph-name="cedilla" horiz-adv-x="417" d="M-80 -492Q-107 -492 -132 -489T-174 -481V-381Q-154 -385 -133 -387T-96 -389Q-41 -389 -3 -377T55 -339T75 -275Q75 -230 37 -208T-67 -179L32 0H139L79 -119Q129 -132 170 -166T212 -275Q212
-337 178 -386T79 -463T-80 -492Z" />
<glyph unicode="&#xb9;" glyph-name="uni00B9" horiz-adv-x="714" d="M389 850L500 1370Q511 1423 528 1487T557 1596Q538 1580 514 1560T461 1519L355 1452L302 1542L594 1726H712L526 850H389Z" />
<glyph unicode="&#xba;" glyph-name="ordmasculine" horiz-adv-x="697" d="M425 787Q319 787 249 854T178 1054Q178 1135 199 1211T264 1348T370 1444T517 1480Q644 1480 702 1406T760 1219Q760 1139 741 1062T680 923T576 824T425 787ZM434 888Q487 888 526 915T593
988T634 1092T648 1212Q648 1298 612 1337T513 1377Q459 1377 418 1351T348 1281T306 1179T292 1057Q292 973 329 931T434 888Z" />
<glyph unicode="&#xbb;" glyph-name="guillemotright" horiz-adv-x="953" d="M481 118L399 200L701 530L530 915L646 965L873 526L872 497L481 118ZM106 129L16 200L306 560L147 915L262 965L477 562V532L106 129Z" />
<glyph unicode="&#xbc;" glyph-name="onequarter" horiz-adv-x="1485" d="M174 0L1260 1462H1412L326 0H174ZM326 586L437 1106Q448 1159 465 1223T494 1332Q475 1316 451 1296T398 1255L292 1188L239 1278L531 1462H649L463 586H326ZM1092 2L1134 205H766L788
306L1273 885H1409L1288 318H1414L1392 205H1262L1220 2H1092ZM927 318H1159L1202 513Q1214 566 1225 618T1250 719Q1237 695 1200 647T1135 567L927 318Z" />
<glyph unicode="&#xbd;" glyph-name="onehalf" horiz-adv-x="1628" d="M176 0L1262 1462H1414L328 0H176ZM326 586L437 1106Q448 1159 465 1223T494 1332Q475 1316 451 1296T398 1255L292 1188L239 1278L531 1462H649L463 586H326ZM875 2L899 107L1166 335Q1250
407 1304 462T1385 566T1412 670Q1412 722 1381 754T1290 786Q1238 786 1190 766T1091 705L1032 796Q1095 846 1164 871T1313 897Q1438 897 1491 832T1545 690Q1545 621 1520 562T1437 441T1285 300L1068 119H1467L1443 2H875Z" />
<glyph unicode="&#xbe;" glyph-name="threequarters" horiz-adv-x="1600" d="M340 573Q273 573 213 587T105 627V752Q159 722 221 702T344 682Q450 682 503 728T556 855Q556 921 511 955T379 989H284L308 1095H402Q466 1095 515 1113T591 1167T619 1251Q619 1310
585 1341T485 1371Q429 1370 382 1352T289 1303L236 1395Q285 1432 354 1457T508 1482Q589 1482 643 1456T724 1383T751 1277Q751 1183 695 1127T543 1045V1038Q612 1021 650 971T689 852Q689 771 651 708T535 609T340 573ZM298 0L1384 1462H1536L450 0H298ZM1206
0L1248 203H880L902 304L1387 883H1523L1402 316H1528L1506 203H1376L1334 0H1206ZM1041 316H1273L1316 511Q1328 564 1339 616T1364 717Q1351 693 1314 645T1249 565L1041 316Z" />
<glyph unicode="&#xbf;" glyph-name="questiondown" horiz-adv-x="875" d="M624 681Q609 590 581 524T504 403T380 289Q314 239 257 191T164 84T128 -55Q128 -147 180 -199T330 -251Q406 -251 480 -227T622 -169L682 -297Q599 -341 502 -368T312 -396Q152 -396
56 -315T-40 -75Q-40 19 -6 94T95 236T255 372Q334 430 379 471T448 560T489 681H624ZM625 1115Q672 1115 698 1089T724 1014Q724 951 689 903T578 854Q535 854 509 880T483 956Q483 1015 518 1065T625 1115Z" />
<glyph unicode="&#xc0;" glyph-name="Agrave" horiz-adv-x="1148" d="M-115 0L686 1462H863L1048 0H881L823 466H318L70 0H-115ZM399 617H806L767 958Q760 1032 752 1120T742 1279H736Q704 1203 664 1120T578 951L399 617ZM809 1608Q771 1647 727 1703T646 1816T587
1915V1936H765Q781 1886 805 1833T857 1729T912 1633V1608H809Z" />
<glyph unicode="&#xc1;" glyph-name="Aacute" horiz-adv-x="1148" d="M-115 0L686 1462H863L1048 0H881L823 466H318L70 0H-115ZM399 617H806L767 958Q760 1032 752 1120T742 1279H736Q704 1203 664 1120T578 951L399 617ZM699 1608V1633Q736 1673 779 1726T863
1834T934 1936H1123V1916Q1101 1888 1064 1848T981 1763T889 1678T803 1608H699Z" />
<glyph unicode="&#xc2;" glyph-name="Acircumflex" horiz-adv-x="1148" d="M-115 0L686 1462H863L1048 0H881L823 466H318L70 0H-115ZM399 617H806L767 958Q760 1032 752 1120T742 1279H736Q704 1203 664 1120T578 951L399 617ZM473 1608L474 1633Q510 1666 566
1720T676 1832T760 1935H920Q940 1883 970 1829T1032 1724T1090 1633V1608H986Q961 1632 934 1663T880 1729T826 1802Q765 1747 702 1697T584 1608H473Z" />
<glyph unicode="&#xc3;" glyph-name="Atilde" horiz-adv-x="1148" d="M-115 0L686 1462H863L1048 0H881L823 466H318L70 0H-115ZM399 617H806L767 958Q760 1032 752 1120T742 1279H736Q704 1203 664 1120T578 951L399 617ZM456 1611Q474 1694 506 1751T583 1837T688
1866Q733 1866 772 1849T847 1808T912 1768T971 1750Q1015 1750 1041 1776T1092 1868H1195Q1173 1785 1140 1728T1062 1642T959 1612Q918 1612 881 1629T810 1670T742 1711T675 1729Q632 1729 606 1701T557 1611H456Z" />
<glyph unicode="&#xc4;" glyph-name="Adieresis" horiz-adv-x="1148" d="M-115 0L686 1462H863L1048 0H881L823 466H318L70 0H-115ZM399 617H806L767 958Q760 1032 752 1120T742 1279H736Q704 1203 664 1120T578 951L399 617ZM996 1663Q961 1663 938 1684T915
1744Q915 1788 941 1822T1019 1857Q1058 1857 1077 1836T1096 1780Q1096 1726 1065 1695T996 1663ZM630 1663Q593 1663 571 1684T548 1744Q548 1788 574 1822T650 1857Q677 1857 694 1848T719 1821T728 1780Q728 1726 698 1695T630 1663Z" />
<glyph unicode="&#xc5;" glyph-name="Aring" horiz-adv-x="1148" d="M-115 0L686 1462H863L1048 0H881L823 466H318L70 0H-115ZM399 617H806L767 958Q760 1032 752 1120T742 1279H736Q704 1203 664 1120T578 951L399 617ZM809 1586Q713 1586 652 1642T590 1800Q590
1900 654 1956T809 2012Q906 2012 968 1956T1030 1802Q1030 1699 967 1643T809 1586ZM809 1682Q862 1682 895 1714T928 1800Q928 1854 895 1886T809 1918Q760 1918 726 1886T692 1800Q692 1746 723 1714T809 1682Z" />
<glyph unicode="&#xc6;" glyph-name="AE" horiz-adv-x="1679" d="M-117 0L815 1462H1759L1729 1312H1153L1050 839H1590L1561 691H1023L908 150H1482L1450 0H705L804 466H367L76 0H-117ZM463 616H834L982 1312H898L463 616Z" />
<glyph unicode="&#xc7;" glyph-name="Ccedilla" horiz-adv-x="1204" d="M668 -20Q505 -20 390 48T212 241T150 540Q150 676 182 811T277 1067T436 1281T657 1429T941 1483Q1045 1483 1131 1463T1294 1402L1227 1261Q1169 1292 1100 1312T941 1333Q818 1333 720
1289T549 1167T427 988T354 774T329 544Q329 352 426 241T697 129Q784 129 865 146T1024 189V41Q946 13 864 -3T668 -20ZM478 -492Q451 -492 426 -489T384 -481V-381Q404 -385 425 -387T462 -389Q517 -389 555 -377T613 -339T633 -275Q633 -230 595 -208T491 -179L590
0H697L637 -119Q687 -132 728 -166T770 -275Q770 -337 736 -386T637 -463T478 -492Z" />
<glyph unicode="&#xc8;" glyph-name="Egrave" horiz-adv-x="1058" d="M86 0L395 1462H1136L1104 1312H532L431 839H967L938 691H401L285 150H858L826 0H86ZM798 1608Q760 1647 716 1703T635 1816T576 1915V1936H754Q770 1886 794 1833T846 1729T901 1633V1608H798Z" />
<glyph unicode="&#xc9;" glyph-name="Eacute" horiz-adv-x="1058" d="M86 0L395 1462H1136L1104 1312H532L431 839H967L938 691H401L285 150H858L826 0H86ZM686 1608V1633Q723 1673 766 1726T850 1834T921 1936H1110V1916Q1088 1888 1051 1848T968 1763T876 1678T790
1608H686Z" />
<glyph unicode="&#xca;" glyph-name="Ecircumflex" horiz-adv-x="1058" d="M86 0L395 1462H1136L1104 1312H532L431 839H967L938 691H401L285 150H858L826 0H86ZM465 1608L466 1633Q502 1666 558 1720T668 1832T752 1935H912Q932 1883 962 1829T1024 1724T1082
1633V1608H978Q953 1632 926 1663T872 1729T818 1802Q757 1747 694 1697T576 1608H465Z" />
<glyph unicode="&#xcb;" glyph-name="Edieresis" horiz-adv-x="1058" d="M86 0L395 1462H1136L1104 1312H532L431 839H967L938 691H401L285 150H858L826 0H86ZM989 1663Q954 1663 931 1684T908 1744Q908 1788 934 1822T1012 1857Q1051 1857 1070 1836T1089 1780Q1089
1726 1058 1695T989 1663ZM623 1663Q586 1663 564 1684T541 1744Q541 1788 567 1822T643 1857Q670 1857 687 1848T712 1821T721 1780Q721 1726 691 1695T623 1663Z" />
<glyph unicode="&#xcc;" glyph-name="Igrave" horiz-adv-x="555" d="M86 0L397 1462H563L252 0H86ZM505 1608Q467 1647 423 1703T342 1816T283 1915V1936H461Q477 1886 501 1833T553 1729T608 1633V1608H505Z" />
<glyph unicode="&#xcd;" glyph-name="Iacute" horiz-adv-x="555" d="M86 0L397 1462H563L252 0H86ZM418 1608V1633Q455 1673 498 1726T582 1834T653 1936H842V1916Q820 1888 783 1848T700 1763T608 1678T522 1608H418Z" />
<glyph unicode="&#xce;" glyph-name="Icircumflex" horiz-adv-x="555" d="M86 0L397 1462H563L252 0H86ZM199 1608L200 1633Q236 1666 292 1720T402 1832T486 1935H646Q666 1883 696 1829T758 1724T816 1633V1608H712Q687 1632 660 1663T606 1729T552 1802Q491
1747 428 1697T310 1608H199Z" />
<glyph unicode="&#xcf;" glyph-name="Idieresis" horiz-adv-x="555" d="M86 0L397 1462H563L252 0H86ZM719 1663Q684 1663 661 1684T638 1744Q638 1788 664 1822T742 1857Q781 1857 800 1836T819 1780Q819 1726 788 1695T719 1663ZM353 1663Q316 1663 294 1684T271
1744Q271 1788 297 1822T373 1857Q400 1857 417 1848T442 1821T451 1780Q451 1726 421 1695T353 1663Z" />
<glyph unicode="&#xd0;" glyph-name="Eth" horiz-adv-x="1368" d="M86 0L221 651H70L102 798H253L395 1462H736Q1002 1462 1152 1319T1303 878Q1303 728 1267 595T1160 353T985 165T744 43T439 0H86ZM285 146H449Q581 146 688 182T876 286T1013 444T1097 646T1125
880Q1125 1110 1014 1213T714 1317H534L423 798H754L721 651H391L285 146Z" />
<glyph unicode="&#xd1;" glyph-name="Ntilde" horiz-adv-x="1441" d="M84 0L393 1462H571L1034 238H1039Q1046 288 1057 354T1082 493T1110 632L1288 1462H1448L1139 0H961L495 1227H490Q485 1193 478 1146T461 1044T440 932T417 820L244 0H84ZM614 1611Q632 1694
664 1751T741 1837T846 1866Q891 1866 930 1849T1005 1808T1070 1768T1129 1750Q1173 1750 1199 1776T1250 1868H1353Q1331 1785 1298 1728T1220 1642T1117 1612Q1076 1612 1039 1629T968 1670T900 1711T833 1729Q790 1729 764 1701T715 1611H614Z" />
<glyph unicode="&#xd2;" glyph-name="Ograve" horiz-adv-x="1476" d="M689 -20Q513 -20 393 50T211 248T150 549Q150 674 172 791T238 1012T344 1203T490 1353T671 1450T887 1485Q1133 1485 1271 1333T1410 909Q1410 788 1390 673T1330 453T1230 263T1090 113T910
15T689 -20ZM695 129Q781 129 854 159T986 243T1091 370T1168 530T1215 715T1231 913Q1231 1113 1137 1224T875 1335Q789 1335 715 1307T580 1226T473 1101T394 942T346 756T329 553Q329 421 372 326T497 180T695 129ZM969 1608Q931 1647 887 1703T806 1816T747
1915V1936H925Q941 1886 965 1833T1017 1729T1072 1633V1608H969Z" />
<glyph unicode="&#xd3;" glyph-name="Oacute" horiz-adv-x="1476" d="M689 -20Q513 -20 393 50T211 248T150 549Q150 674 172 791T238 1012T344 1203T490 1353T671 1450T887 1485Q1133 1485 1271 1333T1410 909Q1410 788 1390 673T1330 453T1230 263T1090 113T910
15T689 -20ZM695 129Q781 129 854 159T986 243T1091 370T1168 530T1215 715T1231 913Q1231 1113 1137 1224T875 1335Q789 1335 715 1307T580 1226T473 1101T394 942T346 756T329 553Q329 421 372 326T497 180T695 129ZM857 1608V1633Q894 1673 937 1726T1021 1834T1092
1936H1281V1916Q1259 1888 1222 1848T1139 1763T1047 1678T961 1608H857Z" />
<glyph unicode="&#xd4;" glyph-name="Ocircumflex" horiz-adv-x="1476" d="M689 -20Q513 -20 393 50T211 248T150 549Q150 674 172 791T238 1012T344 1203T490 1353T671 1450T887 1485Q1133 1485 1271 1333T1410 909Q1410 788 1390 673T1330 453T1230 263T1090
113T910 15T689 -20ZM695 129Q781 129 854 159T986 243T1091 370T1168 530T1215 715T1231 913Q1231 1113 1137 1224T875 1335Q789 1335 715 1307T580 1226T473 1101T394 942T346 756T329 553Q329 421 372 326T497 180T695 129ZM632 1608L633 1633Q669 1666 725
1720T835 1832T919 1935H1079Q1099 1883 1129 1829T1191 1724T1249 1633V1608H1145Q1120 1632 1093 1663T1039 1729T985 1802Q924 1747 861 1697T743 1608H632Z" />
<glyph unicode="&#xd5;" glyph-name="Otilde" horiz-adv-x="1476" d="M689 -20Q513 -20 393 50T211 248T150 549Q150 674 172 791T238 1012T344 1203T490 1353T671 1450T887 1485Q1133 1485 1271 1333T1410 909Q1410 788 1390 673T1330 453T1230 263T1090 113T910
15T689 -20ZM695 129Q781 129 854 159T986 243T1091 370T1168 530T1215 715T1231 913Q1231 1113 1137 1224T875 1335Q789 1335 715 1307T580 1226T473 1101T394 942T346 756T329 553Q329 421 372 326T497 180T695 129ZM616 1611Q634 1694 666 1751T743 1837T848
1866Q893 1866 932 1849T1007 1808T1072 1768T1131 1750Q1175 1750 1201 1776T1252 1868H1355Q1333 1785 1300 1728T1222 1642T1119 1612Q1078 1612 1041 1629T970 1670T902 1711T835 1729Q792 1729 766 1701T717 1611H616Z" />
<glyph unicode="&#xd6;" glyph-name="Odieresis" horiz-adv-x="1476" d="M689 -20Q513 -20 393 50T211 248T150 549Q150 674 172 791T238 1012T344 1203T490 1353T671 1450T887 1485Q1133 1485 1271 1333T1410 909Q1410 788 1390 673T1330 453T1230 263T1090 113T910
15T689 -20ZM695 129Q781 129 854 159T986 243T1091 370T1168 530T1215 715T1231 913Q1231 1113 1137 1224T875 1335Q789 1335 715 1307T580 1226T473 1101T394 942T346 756T329 553Q329 421 372 326T497 180T695 129ZM1156 1663Q1121 1663 1098 1684T1075 1744Q1075
1788 1101 1822T1179 1857Q1218 1857 1237 1836T1256 1780Q1256 1726 1225 1695T1156 1663ZM790 1663Q753 1663 731 1684T708 1744Q708 1788 734 1822T810 1857Q837 1857 854 1848T879 1821T888 1780Q888 1726 858 1695T790 1663Z" />
<glyph unicode="&#xd7;" glyph-name="multiply" horiz-adv-x="1171" d="M981 1174L1075 1077L721 723L1074 369L979 272L623 624L274 272L175 369L528 723L174 1075L273 1174L625 818L981 1174Z" />
<glyph unicode="&#xd8;" glyph-name="Oslash" horiz-adv-x="1476" d="M217 -81L110 7L252 181Q200 253 175 346T150 549Q150 674 172 791T238 1012T344 1203T490 1353T671 1450T887 1485Q988 1485 1070 1457T1220 1371L1355 1537L1465 1450L1313 1267Q1360 1203
1385 1110T1410 909Q1410 788 1390 673T1330 453T1230 263T1090 113T910 15T689 -20Q585 -20 502 5T352 83L217 -81ZM695 129Q781 129 854 159T988 243T1093 370T1170 530T1217 715T1233 913Q1233 973 1224 1026T1198 1119L453 210Q496 173 557 151T695 129ZM370
326L1116 1245Q1072 1289 1012 1313T875 1337Q789 1337 715 1308T580 1227T472 1102T393 942T345 756T328 553Q328 488 338 430T370 326Z" />
<glyph unicode="&#xd9;" glyph-name="Ugrave" horiz-adv-x="1389" d="M614 -20Q464 -20 364 27T214 164T164 384Q164 419 170 468T187 573L377 1462H546L355 564Q344 518 338 468T332 386Q332 265 406 197T624 129Q747 129 829 172T961 301T1039 514L1242 1462H1410L1206
500Q1172 337 1100 221T909 42T614 -20ZM929 1608Q891 1647 847 1703T766 1816T707 1915V1936H885Q901 1886 925 1833T977 1729T1032 1633V1608H929Z" />
<glyph unicode="&#xda;" glyph-name="Uacute" horiz-adv-x="1389" d="M614 -20Q464 -20 364 27T214 164T164 384Q164 419 170 468T187 573L377 1462H546L355 564Q344 518 338 468T332 386Q332 265 406 197T624 129Q747 129 829 172T961 301T1039 514L1242 1462H1410L1206
500Q1172 337 1100 221T909 42T614 -20ZM815 1608V1633Q852 1673 895 1726T979 1834T1050 1936H1239V1916Q1217 1888 1180 1848T1097 1763T1005 1678T919 1608H815Z" />
<glyph unicode="&#xdb;" glyph-name="Ucircumflex" horiz-adv-x="1389" d="M614 -20Q464 -20 364 27T214 164T164 384Q164 419 170 468T187 573L377 1462H546L355 564Q344 518 338 468T332 386Q332 265 406 197T624 129Q747 129 829 172T961 301T1039 514L1242
1462H1410L1206 500Q1172 337 1100 221T909 42T614 -20ZM592 1608L593 1633Q629 1666 685 1720T795 1832T879 1935H1039Q1059 1883 1089 1829T1151 1724T1209 1633V1608H1105Q1080 1632 1053 1663T999 1729T945 1802Q884 1747 821 1697T703 1608H592Z" />
<glyph unicode="&#xdc;" glyph-name="Udieresis" horiz-adv-x="1389" d="M614 -20Q464 -20 364 27T214 164T164 384Q164 419 170 468T187 573L377 1462H546L355 564Q344 518 338 468T332 386Q332 265 406 197T624 129Q747 129 829 172T961 301T1039 514L1242 1462H1410L1206
500Q1172 337 1100 221T909 42T614 -20ZM1116 1663Q1081 1663 1058 1684T1035 1744Q1035 1788 1061 1822T1139 1857Q1178 1857 1197 1836T1216 1780Q1216 1726 1185 1695T1116 1663ZM750 1663Q713 1663 691 1684T668 1744Q668 1788 694 1822T770 1857Q797 1857
814 1848T839 1821T848 1780Q848 1726 818 1695T750 1663Z" />
<glyph unicode="&#xdd;" glyph-name="Yacute" horiz-adv-x="1037" d="M312 0L431 550L189 1462H358L541 717L1035 1462H1226L596 545L483 0H312ZM640 1608V1633Q677 1673 720 1726T804 1834T875 1936H1064V1916Q1042 1888 1005 1848T922 1763T830 1678T744 1608H640Z" />
<glyph unicode="&#xde;" glyph-name="Thorn" horiz-adv-x="1159" d="M86 0L395 1462H563L510 1206H670Q825 1206 921 1160T1062 1030T1107 831Q1107 705 1065 610T940 450T738 354T464 321H323L254 0H86ZM352 466H493Q625 466 724 503T879 620T934 825Q934 950
863 1005T647 1061H477L352 466Z" />
<glyph unicode="&#xdf;" glyph-name="germandbls" horiz-adv-x="1184" d="M-137 -492Q-173 -492 -205 -486T-260 -471V-328Q-235 -339 -208 -345T-149 -351Q-83 -351 -40 -304T26 -150L305 1165Q334 1300 394 1389T548 1523T772 1567Q930 1567 1023 1497T1117
1298Q1117 1224 1088 1169T1014 1072T918 991Q854 945 802 900T749 796Q749 764 772 736T826 685T879 643Q954 579 1001 514T1048 352Q1048 224 993 142T845 20T643 -20Q552 -20 485 -1T374 49V203Q418 170 486 143T624 116Q750 116 814 178T878 334Q878 380 864
414T821 479T745 548Q663 613 625 667T586 787Q586 858 614 907T687 993T780 1064Q825 1094 865 1126T929 1197T954 1287Q954 1355 901 1392T758 1430Q676 1430 618 1400T524 1311T470 1165L195 -140Q172 -250 131 -329T25 -450T-137 -492Z" />
<glyph unicode="&#xe0;" glyph-name="agrave" horiz-adv-x="1158" d="M396 -20Q307 -20 240 23T136 150T99 355Q99 476 124 588T197 796T310 964T460 1076T639 1116Q713 1116 767 1088T858 1015T916 918H926L990 1096H1117L885 0H752L782 212H774Q729 152 671
99T544 13T396 -20ZM450 118Q527 118 602 174T738 327T831 545Q847 604 852 653T858 746Q858 849 804 912T655 976Q588 976 529 943T423 850T341 712T289 541T270 352Q270 237 317 178T450 118ZM739 1241Q701 1280 657 1336T576 1449T517 1548V1569H695Q711 1519
735 1466T787 1362T842 1266V1241H739Z" />
<glyph unicode="&#xe1;" glyph-name="aacute" horiz-adv-x="1158" d="M396 -20Q307 -20 240 23T136 150T99 355Q99 476 124 588T197 796T310 964T460 1076T639 1116Q713 1116 767 1088T858 1015T916 918H926L990 1096H1117L885 0H752L782 212H774Q729 152 671
99T544 13T396 -20ZM450 118Q527 118 602 174T738 327T831 545Q847 604 852 653T858 746Q858 849 804 912T655 976Q588 976 529 943T423 850T341 712T289 541T270 352Q270 237 317 178T450 118ZM622 1241V1266Q659 1306 702 1359T786 1467T857 1569H1046V1549Q1024
1521 987 1481T904 1396T812 1311T726 1241H622Z" />
<glyph unicode="&#xe2;" glyph-name="acircumflex" horiz-adv-x="1158" d="M396 -20Q307 -20 240 23T136 150T99 355Q99 476 124 588T197 796T310 964T460 1076T639 1116Q713 1116 767 1088T858 1015T916 918H926L990 1096H1117L885 0H752L782 212H774Q729 152
671 99T544 13T396 -20ZM450 118Q527 118 602 174T738 327T831 545Q847 604 852 653T858 746Q858 849 804 912T655 976Q588 976 529 943T423 850T341 712T289 541T270 352Q270 237 317 178T450 118ZM401 1241L402 1266Q438 1299 494 1353T604 1465T688 1568H848Q868
1516 898 1462T960 1357T1018 1266V1241H914Q889 1265 862 1296T808 1362T754 1435Q693 1380 630 1330T512 1241H401Z" />
<glyph unicode="&#xe3;" glyph-name="atilde" horiz-adv-x="1158" d="M396 -20Q307 -20 240 23T136 150T99 355Q99 476 124 588T197 796T310 964T460 1076T639 1116Q713 1116 767 1088T858 1015T916 918H926L990 1096H1117L885 0H752L782 212H774Q729 152 671
99T544 13T396 -20ZM450 118Q527 118 602 174T738 327T831 545Q847 604 852 653T858 746Q858 849 804 912T655 976Q588 976 529 943T423 850T341 712T289 541T270 352Q270 237 317 178T450 118ZM380 1244Q398 1327 430 1384T507 1470T612 1499Q657 1499 696 1482T771
1441T836 1401T895 1383Q939 1383 965 1409T1016 1501H1119Q1097 1418 1064 1361T986 1275T883 1245Q842 1245 805 1262T734 1303T666 1344T599 1362Q556 1362 530 1334T481 1244H380Z" />
<glyph unicode="&#xe4;" glyph-name="adieresis" horiz-adv-x="1158" d="M396 -20Q307 -20 240 23T136 150T99 355Q99 476 124 588T197 796T310 964T460 1076T639 1116Q713 1116 767 1088T858 1015T916 918H926L990 1096H1117L885 0H752L782 212H774Q729 152 671
99T544 13T396 -20ZM450 118Q527 118 602 174T738 327T831 545Q847 604 852 653T858 746Q858 849 804 912T655 976Q588 976 529 943T423 850T341 712T289 541T270 352Q270 237 317 178T450 118ZM924 1296Q889 1296 866 1317T843 1377Q843 1421 869 1455T947 1490Q986
1490 1005 1469T1024 1413Q1024 1359 993 1328T924 1296ZM558 1296Q521 1296 499 1317T476 1377Q476 1421 502 1455T578 1490Q605 1490 622 1481T647 1454T656 1413Q656 1359 626 1328T558 1296Z" />
<glyph unicode="&#xe5;" glyph-name="aring" horiz-adv-x="1158" d="M396 -20Q307 -20 240 23T136 150T99 355Q99 476 124 588T197 796T310 964T460 1076T639 1116Q713 1116 767 1088T858 1015T916 918H926L990 1096H1117L885 0H752L782 212H774Q729 152 671 99T544
13T396 -20ZM450 118Q527 118 602 174T738 327T831 545Q847 604 852 653T858 746Q858 849 804 912T655 976Q588 976 529 943T423 850T341 712T289 541T270 352Q270 237 317 178T450 118ZM738 1242Q642 1242 581 1298T519 1456Q519 1556 583 1612T738 1668Q835 1668
897 1612T959 1458Q959 1355 896 1299T738 1242ZM738 1338Q791 1338 824 1370T857 1456Q857 1510 824 1542T738 1574Q689 1574 655 1542T621 1456Q621 1402 652 1370T738 1338Z" />
<glyph unicode="&#xe6;" glyph-name="ae" horiz-adv-x="1684" d="M366 -20Q286 -20 226 23T133 149T99 353Q99 475 124 588T196 797T308 964T452 1076T623 1116Q692 1116 740 1088T821 1015T873 918H883L949 1096H1057L1025 942Q1080 1019 1165 1067T1365 1116Q1474
1116 1554 1054T1634 863Q1634 780 1596 710T1478 589T1278 509T991 480H947Q946 462 945 440T943 399Q943 268 1007 193T1204 118Q1281 118 1351 142T1498 200V54Q1421 18 1342 -1T1174 -20Q1063 -20 980 22T856 153L823 0H712L739 211H732Q679 143 624 91T507
10T366 -20ZM420 118Q477 118 533 150T638 241T727 377T790 546Q806 605 811 654T817 746Q817 849 772 912T645 976Q581 976 524 943T421 850T340 712T288 542T270 353Q270 237 309 178T420 118ZM972 616H999Q1127 616 1234 638T1405 712T1470 847Q1470 914 1431
946T1333 978Q1255 978 1185 936T1059 812T972 616Z" />
<glyph unicode="&#xe7;" glyph-name="ccedilla" horiz-adv-x="928" d="M506 -20Q384 -20 293 26T151 164T100 390Q100 507 125 615T200 814T319 973T478 1078T674 1116Q745 1116 815 1103T943 1064L896 924Q854 944 797 960T675 976Q584 976 510 930T382 803T299
616T270 392Q270 307 300 246T386 151T522 118Q595 118 659 138T786 186V44Q731 16 661 -2T506 -20ZM286 -492Q259 -492 234 -489T192 -481V-381Q212 -385 233 -387T270 -389Q325 -389 363 -377T421 -339T441 -275Q441 -230 403 -208T299 -179L398 0H505L445 -119Q495
-132 536 -166T578 -275Q578 -337 544 -386T445 -463T286 -492Z" />
<glyph unicode="&#xe8;" glyph-name="egrave" horiz-adv-x="1020" d="M497 -20Q374 -20 285 29T149 171T101 393Q101 526 139 654T250 887T423 1054T651 1116Q802 1116 880 1049T958 863Q958 780 920 710T802 589T601 509T313 480H275Q273 462 272 440T270 399Q270
267 334 193T526 118Q605 118 675 140T823 200V57Q749 23 674 2T497 -20ZM299 616H323Q451 616 558 638T730 712T795 850Q795 906 757 942T641 978Q572 978 505 936T384 812T299 616ZM683 1241Q645 1280 601 1336T520 1449T461 1548V1569H639Q655 1519 679 1466T731
1362T786 1266V1241H683Z" />
<glyph unicode="&#xe9;" glyph-name="eacute" horiz-adv-x="1020" d="M497 -20Q374 -20 285 29T149 171T101 393Q101 526 139 654T250 887T423 1054T651 1116Q802 1116 880 1049T958 863Q958 780 920 710T802 589T601 509T313 480H275Q273 462 272 440T270 399Q270
267 334 193T526 118Q605 118 675 140T823 200V57Q749 23 674 2T497 -20ZM299 616H323Q451 616 558 638T730 712T795 850Q795 906 757 942T641 978Q572 978 505 936T384 812T299 616ZM569 1241V1266Q606 1306 649 1359T733 1467T804 1569H993V1549Q971 1521 934
1481T851 1396T759 1311T673 1241H569Z" />
<glyph unicode="&#xea;" glyph-name="ecircumflex" horiz-adv-x="1020" d="M497 -20Q374 -20 285 29T149 171T101 393Q101 526 139 654T250 887T423 1054T651 1116Q802 1116 880 1049T958 863Q958 780 920 710T802 589T601 509T313 480H275Q273 462 272 440T270
399Q270 267 334 193T526 118Q605 118 675 140T823 200V57Q749 23 674 2T497 -20ZM299 616H323Q451 616 558 638T730 712T795 850Q795 906 757 942T641 978Q572 978 505 936T384 812T299 616ZM345 1241L346 1266Q382 1299 438 1353T548 1465T632 1568H792Q812 1516
842 1462T904 1357T962 1266V1241H858Q833 1265 806 1296T752 1362T698 1435Q637 1380 574 1330T456 1241H345Z" />
<glyph unicode="&#xeb;" glyph-name="edieresis" horiz-adv-x="1020" d="M497 -20Q374 -20 285 29T149 171T101 393Q101 526 139 654T250 887T423 1054T651 1116Q802 1116 880 1049T958 863Q958 780 920 710T802 589T601 509T313 480H275Q273 462 272 440T270
399Q270 267 334 193T526 118Q605 118 675 140T823 200V57Q749 23 674 2T497 -20ZM299 616H323Q451 616 558 638T730 712T795 850Q795 906 757 942T641 978Q572 978 505 936T384 812T299 616ZM1124 1296Q1089 1296 1066 1317T1043 1377Q1043 1421 1069 1455T1147
1490Q1186 1490 1205 1469T1224 1413Q1224 1359 1193 1328T1124 1296ZM758 1296Q721 1296 699 1317T676 1377Q676 1421 702 1455T778 1490Q805 1490 822 1481T847 1454T856 1413Q856 1359 826 1328T758 1296Z" />
<glyph unicode="&#xec;" glyph-name="igrave" horiz-adv-x="517" d="M58 0L291 1096H458L225 0H58ZM670 1241Q632 1280 588 1336T507 1449T448 1548V1569H626Q642 1519 666 1466T718 1362T773 1266V1241H670Z" />
<glyph unicode="&#xed;" glyph-name="iacute" horiz-adv-x="517" d="M58 0L291 1096H458L225 0H58ZM300 1241V1266Q337 1306 380 1359T464 1467T535 1569H724V1549Q702 1521 665 1481T582 1396T490 1311T404 1241H300Z" />
<glyph unicode="&#xee;" glyph-name="icircumflex" horiz-adv-x="517" d="M58 0L291 1096H458L225 0H58ZM79 1241L80 1266Q116 1299 172 1353T282 1465T366 1568H526Q546 1516 576 1462T638 1357T696 1266V1241H592Q567 1265 540 1296T486 1362T432 1435Q371 1380
308 1330T190 1241H79Z" />
<glyph unicode="&#xef;" glyph-name="idieresis" horiz-adv-x="517" d="M58 0L291 1096H458L225 0H58ZM601 1296Q566 1296 543 1317T520 1377Q520 1421 546 1455T624 1490Q663 1490 682 1469T701 1413Q701 1359 670 1328T601 1296ZM235 1296Q198 1296 176 1317T153
1377Q153 1421 179 1455T255 1490Q282 1490 299 1481T324 1454T333 1413Q333 1359 303 1328T235 1296Z" />
<glyph unicode="&#xf0;" glyph-name="eth" horiz-adv-x="1163" d="M479 -20Q359 -20 272 27T137 162T90 375Q90 492 126 598T230 788T394 919T610 967Q731 967 803 915T905 792L911 794Q913 915 882 1028T763 1251L496 1104L440 1206L678 1337Q647 1366 611 1395T532
1452L623 1566Q670 1534 719 1497T812 1413L1069 1557L1130 1455L893 1324Q941 1261 979 1185T1039 1014T1061 802Q1061 685 1042 567T981 344T872 157T707 27T479 -20ZM489 118Q569 118 630 148T736 227T808 337T849 459T862 575Q862 620 849 665T808 747T732
807T616 830Q524 830 457 792T346 688T281 542T260 377Q260 264 314 191T489 118Z" />
<glyph unicode="&#xf1;" glyph-name="ntilde" horiz-adv-x="1180" d="M51 0L286 1101H433L407 890H409Q447 942 500 995T625 1085T788 1122Q876 1122 939 1090T1036 996T1070 847Q1070 801 1063 754T1048 670L902 0H725L873 692Q882 737 887 769T893 829Q893 899
855 935T743 971Q670 971 589 921T439 764T332 483L229 0H51ZM394 1244Q412 1327 444 1384T521 1470T626 1499Q671 1499 710 1482T785 1441T850 1401T909 1383Q953 1383 979 1409T1030 1501H1133Q1111 1418 1078 1361T1000 1275T897 1245Q856 1245 819 1262T748
1303T680 1344T613 1362Q570 1362 544 1334T495 1244H394Z" />
<glyph unicode="&#xf2;" glyph-name="ograve" horiz-adv-x="1153" d="M505 -16Q379 -16 288 35T149 181T100 405Q100 509 123 610T191 802T302 962T456 1071T650 1111Q778 1111 868 1060T1007 913T1056 688Q1056 586 1034 485T967 294T856 134T702 24T505 -16ZM515
122Q577 122 633 148T735 223T814 344T866 507T885 707Q885 772 862 833T788 933T652 973Q582 973 523 944T416 862T337 737T287 579T269 398Q269 267 333 195T515 122ZM701 1241Q663 1280 619 1336T538 1449T479 1548V1569H657Q673 1519 697 1466T749 1362T804
1266V1241H701Z" />
<glyph unicode="&#xf3;" glyph-name="oacute" horiz-adv-x="1153" d="M505 -16Q379 -16 288 35T149 181T100 405Q100 509 123 610T191 802T302 962T456 1071T650 1111Q778 1111 868 1060T1007 913T1056 688Q1056 586 1034 485T967 294T856 134T702 24T505 -16ZM515
122Q577 122 633 148T735 223T814 344T866 507T885 707Q885 772 862 833T788 933T652 973Q582 973 523 944T416 862T337 737T287 579T269 398Q269 267 333 195T515 122ZM588 1241V1266Q625 1306 668 1359T752 1467T823 1569H1012V1549Q990 1521 953 1481T870 1396T778
1311T692 1241H588Z" />
<glyph unicode="&#xf4;" glyph-name="ocircumflex" horiz-adv-x="1153" d="M505 -16Q379 -16 288 35T149 181T100 405Q100 509 123 610T191 802T302 962T456 1071T650 1111Q778 1111 868 1060T1007 913T1056 688Q1056 586 1034 485T967 294T856 134T702 24T505
-16ZM515 122Q577 122 633 148T735 223T814 344T866 507T885 707Q885 772 862 833T788 933T652 973Q582 973 523 944T416 862T337 737T287 579T269 398Q269 267 333 195T515 122ZM364 1241L365 1266Q401 1299 457 1353T567 1465T651 1568H811Q831 1516 861 1462T923
1357T981 1266V1241H877Q852 1265 825 1296T771 1362T717 1435Q656 1380 593 1330T475 1241H364Z" />
<glyph unicode="&#xf5;" glyph-name="otilde" horiz-adv-x="1153" d="M505 -16Q379 -16 288 35T149 181T100 405Q100 509 123 610T191 802T302 962T456 1071T650 1111Q778 1111 868 1060T1007 913T1056 688Q1056 586 1034 485T967 294T856 134T702 24T505 -16ZM515
122Q577 122 633 148T735 223T814 344T866 507T885 707Q885 772 862 833T788 933T652 973Q582 973 523 944T416 862T337 737T287 579T269 398Q269 267 333 195T515 122ZM347 1244Q365 1327 397 1384T474 1470T579 1499Q624 1499 663 1482T738 1441T803 1401T862
1383Q906 1383 932 1409T983 1501H1086Q1064 1418 1031 1361T953 1275T850 1245Q809 1245 772 1262T701 1303T633 1344T566 1362Q523 1362 497 1334T448 1244H347Z" />
<glyph unicode="&#xf6;" glyph-name="odieresis" horiz-adv-x="1153" d="M505 -16Q379 -16 288 35T149 181T100 405Q100 509 123 610T191 802T302 962T456 1071T650 1111Q778 1111 868 1060T1007 913T1056 688Q1056 586 1034 485T967 294T856 134T702 24T505 -16ZM515
122Q577 122 633 148T735 223T814 344T866 507T885 707Q885 772 862 833T788 933T652 973Q582 973 523 944T416 862T337 737T287 579T269 398Q269 267 333 195T515 122ZM1146 1296Q1111 1296 1088 1317T1065 1377Q1065 1421 1091 1455T1169 1490Q1208 1490 1227
1469T1246 1413Q1246 1359 1215 1328T1146 1296ZM780 1296Q743 1296 721 1317T698 1377Q698 1421 724 1455T800 1490Q827 1490 844 1481T869 1454T878 1413Q878 1359 848 1328T780 1296Z" />
<glyph unicode="&#xf7;" glyph-name="divide" horiz-adv-x="1171" d="M144 654V790H1107V654H144ZM625 253Q579 253 548 281T517 371Q517 436 548 462T625 488Q669 488 700 462T731 371Q731 310 700 282T625 253ZM625 955Q579 955 548 983T517 1073Q517 1137 548
1163T625 1189Q669 1189 700 1163T731 1073Q731 1012 700 984T625 955Z" />
<glyph unicode="&#xf8;" glyph-name="oslash" horiz-adv-x="1153" d="M153 -76L52 3L170 144Q136 197 119 261T101 405Q101 509 124 610T191 802T302 962T456 1071T650 1111Q730 1111 792 1093T904 1039L1011 1167L1112 1091L991 959Q1023 910 1037 841T1052 704Q1052
601 1030 498T964 303T855 139T702 26T507 -16Q433 -16 370 2T258 54L153 -76ZM515 118Q577 118 633 144T737 219T818 337T872 495T891 687Q891 723 887 754T875 805L352 170Q381 144 423 131T515 118ZM282 282L809 922Q784 944 747 959T652 974Q582 974 522 945T414
864T332 742T280 589T262 415Q262 372 267 337T282 282Z" />
<glyph unicode="&#xf9;" glyph-name="ugrave" horiz-adv-x="1180" d="M387 -20Q304 -20 242 11T147 102T113 251Q113 295 119 336T134 423L279 1096H447L298 404Q290 361 286 328T281 268Q281 197 317 158T434 118Q509 118 591 169T744 329T852 614L954 1096H1118L886
0H749L776 212H767Q729 160 675 107T550 17T387 -20ZM747 1241Q709 1280 665 1336T584 1449T525 1548V1569H703Q719 1519 743 1466T795 1362T850 1266V1241H747Z" />
<glyph unicode="&#xfa;" glyph-name="uacute" horiz-adv-x="1180" d="M387 -20Q304 -20 242 11T147 102T113 251Q113 295 119 336T134 423L279 1096H447L298 404Q290 361 286 328T281 268Q281 197 317 158T434 118Q509 118 591 169T744 329T852 614L954 1096H1118L886
0H749L776 212H767Q729 160 675 107T550 17T387 -20ZM632 1241V1266Q669 1306 712 1359T796 1467T867 1569H1056V1549Q1034 1521 997 1481T914 1396T822 1311T736 1241H632Z" />
<glyph unicode="&#xfb;" glyph-name="ucircumflex" horiz-adv-x="1180" d="M387 -20Q304 -20 242 11T147 102T113 251Q113 295 119 336T134 423L279 1096H447L298 404Q290 361 286 328T281 268Q281 197 317 158T434 118Q509 118 591 169T744 329T852 614L954 1096H1118L886
0H749L776 212H767Q729 160 675 107T550 17T387 -20ZM409 1241L410 1266Q446 1299 502 1353T612 1465T696 1568H856Q876 1516 906 1462T968 1357T1026 1266V1241H922Q897 1265 870 1296T816 1362T762 1435Q701 1380 638 1330T520 1241H409Z" />
<glyph unicode="&#xfc;" glyph-name="udieresis" horiz-adv-x="1180" d="M387 -20Q304 -20 242 11T147 102T113 251Q113 295 119 336T134 423L279 1096H447L298 404Q290 361 286 328T281 268Q281 197 317 158T434 118Q509 118 591 169T744 329T852 614L954 1096H1118L886
0H749L776 212H767Q729 160 675 107T550 17T387 -20ZM933 1296Q898 1296 875 1317T852 1377Q852 1421 878 1455T956 1490Q995 1490 1014 1469T1033 1413Q1033 1359 1002 1328T933 1296ZM567 1296Q530 1296 508 1317T485 1377Q485 1421 511 1455T587 1490Q614 1490
631 1481T656 1454T665 1413Q665 1359 635 1328T567 1296Z" />
<glyph unicode="&#xfd;" glyph-name="yacute" horiz-adv-x="943" d="M-58 -493Q-107 -493 -137 -487T-197 -472V-337Q-170 -344 -137 -349T-67 -355Q15 -355 74 -303T189 -150L266 -13L98 1096H266L342 533Q352 467 358 392T367 249T370 139H376Q390 172 418 234T478
365T535 479L864 1096H1042L340 -190Q286 -290 230 -357T104 -459T-58 -493ZM477 1241V1266Q514 1306 557 1359T641 1467T712 1569H901V1549Q879 1521 842 1481T759 1396T667 1311T581 1241H477Z" />
<glyph unicode="&#xfe;" glyph-name="thorn" horiz-adv-x="1183" d="M-44 -490L388 1556H554L474 1181Q455 1095 436 1019T399 883H407Q455 945 511 997T634 1082T780 1114Q917 1114 999 1018T1081 738Q1081 621 1058 510T990 303T880 135T731 21T546 -20Q470
-20 413 7T318 80T257 177H248Q246 142 238 82T220 -19L120 -490H-44ZM532 118Q602 118 660 153T765 248T844 389T894 559T911 742Q911 858 865 917T726 976Q650 976 572 919T431 762T337 537Q326 491 321 444T315 350Q315 245 368 182T532 118Z" />
<glyph unicode="&#xff;" glyph-name="ydieresis" horiz-adv-x="943" d="M-58 -493Q-107 -493 -137 -487T-197 -472V-337Q-170 -344 -137 -349T-67 -355Q15 -355 74 -303T189 -150L266 -13L98 1096H266L342 533Q352 467 358 392T367 249T370 139H376Q390 172 418
234T478 365T535 479L864 1096H1042L340 -190Q286 -290 230 -357T104 -459T-58 -493ZM779 1296Q744 1296 721 1317T698 1377Q698 1421 724 1455T802 1490Q841 1490 860 1469T879 1413Q879 1359 848 1328T779 1296ZM413 1296Q376 1296 354 1317T331 1377Q331 1421
357 1455T433 1490Q460 1490 477 1481T502 1454T511 1413Q511 1359 481 1328T413 1296Z" />
<glyph unicode="&#x2013;" glyph-name="endash" horiz-adv-x="983" d="M56 474L90 627H914L883 474H56Z" />
<glyph unicode="&#x2014;" glyph-name="emdash" horiz-adv-x="1965" d="M56 474L90 627H1896L1864 474H56Z" />
<glyph unicode="&#x2018;" glyph-name="quoteleft" horiz-adv-x="344" d="M131 961L124 983Q157 1057 200 1139T292 1305T389 1462H516Q489 1402 461 1337T405 1205T354 1077T310 961H131Z" />
<glyph unicode="&#x2019;" glyph-name="quoteright" horiz-adv-x="344" d="M123 961Q160 1041 198 1130T271 1305T329 1462H508L516 1440Q484 1366 441 1284T348 1118T250 961H123Z" />
<glyph unicode="&#x201a;" glyph-name="quotesinglbase" horiz-adv-x="487" d="M-98 -264Q-62 -184 -24 -95T48 80T107 238H287L295 215Q262 142 218 59T125 -107T28 -264H-98Z" />
<glyph unicode="&#x201c;" glyph-name="quotedblleft" horiz-adv-x="709" d="M496 961L487 983Q520 1057 564 1139T658 1305T756 1462H881Q845 1382 807 1293T734 1118T675 961H496ZM131 961L124 983Q157 1057 200 1139T292 1305T389 1462H516Q489 1402 461 1337T405
1205T354 1077T310 961H131Z" />
<glyph unicode="&#x201d;" glyph-name="quotedblright" horiz-adv-x="709" d="M488 961Q525 1041 562 1130T633 1305T691 1462H873L881 1440Q850 1366 806 1284T712 1118T613 961H488ZM123 961Q160 1041 198 1130T271 1305T329 1462H508L516 1440Q484 1366 441
1284T348 1118T250 961H123Z" />
<glyph unicode="&#x201e;" glyph-name="quotedblbase" horiz-adv-x="851" d="M264 -264Q301 -184 339 -95T412 80T470 238H650L658 215Q626 142 582 59T489 -107T393 -264H264ZM-98 -264Q-62 -184 -24 -95T48 80T107 238H287L295 215Q262 142 218 59T125 -107T28
-264H-98Z" />
<glyph unicode="&#x2022;" glyph-name="bullet" horiz-adv-x="770" d="M424 507Q333 507 273 562T213 743Q213 829 241 883T318 962T429 988Q489 988 537 965T613 889T641 752Q641 668 613 614T535 533T424 507Z" />
<glyph unicode="&#x2039;" glyph-name="guilsinglleft" horiz-adv-x="571" d="M309 118L81 550L82 579L473 965L555 883L254 545L424 168L309 118Z" />
<glyph unicode="&#x203a;" glyph-name="guilsinglright" horiz-adv-x="571" d="M99 118L16 200L317 537L147 915L262 965L489 533L488 507L99 118Z" />
</font>
</defs>
</svg>
