<?xml version="1.0" standalone="no"?>
<!DOCTYPE svg PUBLIC "-//W3C//DTD SVG 1.1//EN" "http://www.w3.org/Graphics/SVG/1.1/DTD/svg11.dtd">
<svg xmlns="http://www.w3.org/2000/svg">
<defs >
<font id="FiraSans" horiz-adv-x="562" ><font-face
    font-family="Fira Sans SemiBold"
    units-per-em="1000"
    panose-1="2 11 7 3 5 0 0 2 0 4"
    ascent="935"
    descent="-265"
    alphabetic="0" />
<glyph unicode=" " glyph-name="space" horiz-adv-x="235" />
<glyph unicode="!" glyph-name="exclam" horiz-adv-x="232" d="M55 249L100 692H250L170 249H55ZM51 -16T30 6T8 61Q8 100 35 127T102 155Q135 155 156 134T177 79Q177 40 150 12T84 -16Q51 -16 30 6Z" />
<glyph unicode="&quot;" glyph-name="quotedbl" horiz-adv-x="421" d="M86 417L108 692H238L182 417H86ZM282 417L304 692H434L378 417H282Z" />
<glyph unicode="#" glyph-name="numbersign" horiz-adv-x="539" d="M550 442H479L426 244H485L471 148H400L360 0H243L283 148H172L132 0H15L55 148H-2L11 244H81L134 442H76L89 538H160L197 674H314L277 538H388L425 674H542L505 538H563L550 442ZM309 244L362
442H251L198 244H309Z" />
<glyph unicode="$" glyph-name="dollar" horiz-adv-x="536" d="M414 377T457 331T501 213Q501 132 447 70T284 -7L262 -160H158L179 -9Q59 4 -12 85L70 162Q134 96 229 96Q284 96 319 122T354 196Q354 231 331 252T249 296Q160 328 118 373T76 482Q76 562 130
617T281 683L301 829H406L384 680Q476 664 543 599L468 524Q401 579 327 579Q278 579 250 559T222 500Q222 468 245 448T333 405Q414 377 457 331Z" />
<glyph unicode="%" glyph-name="percent" horiz-adv-x="842" d="M669 718L116 19L196 -38L750 661L669 718ZM152 333T110 374T67 483Q67 531 88 578T154 656T262 687Q329 687 371 647T413 539Q413 491 393 444T328 365T219 333Q152 333 110 374ZM272 420T291 456T310
537Q310 600 256 600Q208 600 189 563T170 485Q170 420 225 420Q272 420 291 456ZM533 -16T491 25T449 134Q449 182 470 229T535 307T644 338Q711 338 753 298T795 190Q795 142 775 95T710 16T600 -16Q533 -16 491 25ZM653 71T672 107T691 188Q691 252 638 252Q590
252 571 215T552 136Q552 71 607 71Q653 71 672 107Z" />
<glyph unicode="&amp;" glyph-name="ampersand" horiz-adv-x="748" d="M446 708T498 666T551 557Q551 499 513 456T391 362L515 226Q556 293 583 363L697 324Q650 229 585 149L682 46L566 -16L495 64Q444 23 390 4T272 -16Q207 -16 158 7T83 70T57 161Q57 227
92 277T214 377Q175 421 158 456T141 532Q141 576 163 616T234 682T356 708Q446 708 498 666ZM317 614T296 592T274 534Q274 510 285 488T320 438Q372 470 395 496T419 556Q419 583 401 598T354 614Q317 614 296 592ZM238 267T222 237T205 169Q205 131 229 109T297
87Q364 87 428 136L284 297Q238 267 222 237Z" />
<glyph unicode="&apos;" glyph-name="quotesingle" horiz-adv-x="225" d="M86 417L108 692H238L182 417H86Z" />
<glyph unicode="(" glyph-name="parenleft" horiz-adv-x="316" d="M375 793Q267 661 216 523T164 223Q164 129 184 55T248 -99L152 -154Q110 -80 85 -27T42 92T25 239Q25 366 55 468T142 660T290 857L375 793Z" />
<glyph unicode=")" glyph-name="parenright" horiz-adv-x="316" d="M229 780T254 727T297 607T314 460Q314 334 284 232T197 40T49 -157L-35 -93Q73 40 124 177T175 476Q175 571 155 645T91 799L187 854Q229 780 254 727Z" />
<glyph unicode="*" glyph-name="asterisk" horiz-adv-x="438" d="M467 541L321 515L407 411L299 337L247 465L162 336L72 410L186 516L47 541L99 655L223 594L221 741H351L309 594L444 658L467 541Z" />
<glyph unicode="+" glyph-name="plus" horiz-adv-x="513" d="M354 542L333 387H481L465 276H317L295 122H177L199 276H52L67 387H215L236 542H354Z" />
<glyph unicode="," glyph-name="comma" horiz-adv-x="241" d="M135 155T156 134T178 80Q178 57 170 35T137 -29L52 -175H-31L37 1Q9 21 9 60Q9 99 36 127T102 155Q135 155 156 134Z" />
<glyph unicode="-" glyph-name="hyphen" horiz-adv-x="398" d="M45 257L60 369H366L351 257H45Z" />
<glyph unicode="." glyph-name="period" horiz-adv-x="240" d="M51 -16T30 6T8 61Q8 100 35 127T102 155Q135 155 156 134T177 79Q177 40 150 12T84 -16Q51 -16 30 6Z" />
<glyph unicode="/" glyph-name="slash" horiz-adv-x="511" d="M386 815L505 786L150 -110L30 -80L386 815Z" />
<glyph unicode="0" glyph-name="zero" horiz-adv-x="570" d="M234 687T167 617T72 445T43 238Q43 115 96 50T248 -16Q355 -16 422 55T517 229T546 435Q546 557 494 622T342 687Q234 687 167 617ZM370 581T388 554T407 464Q407 382 391 296T341 150T256 91Q220
91 202 119T184 210Q184 292 199 378T249 522T335 581Q370 581 388 554Z" />
<glyph unicode="1" glyph-name="one" horiz-adv-x="447" d="M418 674L324 0H186L260 524L102 434L54 539L293 674H418Z" />
<glyph unicode="2" glyph-name="two" horiz-adv-x="503" d="M381 687T435 638T489 511Q489 459 465 409T372 286T168 109L447 111L416 0H-7L7 104Q159 240 227 307T319 415T343 499Q343 537 322 557T263 577Q227 577 196 560T128 506L49 580Q100 633 157 660T285
687Q381 687 435 638Z" />
<glyph unicode="3" glyph-name="three" horiz-adv-x="506" d="M381 687T432 642T483 527Q483 469 446 423T330 356Q387 350 423 315T459 217Q459 163 430 110T339 20T185 -16Q115 -16 62 10T-25 85L62 157Q89 124 119 109T188 94Q245 94 281 130T317 227Q317 268
292 285T217 302H161L190 402H226Q285 402 314 433T344 509Q344 544 323 562T264 580Q227 580 193 565T123 520L60 602Q113 645 168 666T287 687Q381 687 432 642Z" />
<glyph unicode="4" glyph-name="four" horiz-adv-x="548" d="M525 258L510 150H433L412 0H275L295 150H13L26 246L275 689L392 644L180 258H311L350 423H471L448 258H525Z" />
<glyph unicode="5" glyph-name="five" horiz-adv-x="519" d="M483 571H237L215 416Q262 439 317 439Q392 439 436 391T481 255Q481 194 452 132T358 27T196 -16Q126 -16 76 10T-10 82L76 155Q101 124 131 109T200 93Q267 93 302 139T338 249Q338 340 256 340Q232
340 211 335T165 316H67L117 674H513L483 571Z" />
<glyph unicode="6" glyph-name="six" horiz-adv-x="548" d="M428 451T473 404T518 270Q518 208 491 142T404 30T255 -16Q146 -16 94 47T41 225Q41 345 81 451T198 622T378 687Q463 687 521 642L459 557Q422 584 372 584Q312 584 267 532T202 387Q272 451 355 451Q428
451 473 404ZM303 88T329 117T367 187T378 267Q378 312 361 331T311 351Q279 351 248 334T189 287Q183 236 183 204Q183 142 201 115T260 88Q303 88 329 117Z" />
<glyph unicode="7" glyph-name="seven" horiz-adv-x="453" d="M491 674L478 576L153 -15L28 28L330 565H56L71 674H491Z" />
<glyph unicode="8" glyph-name="eight" horiz-adv-x="565" d="M523 304T523 203Q523 142 488 92T390 13T244 -16Q174 -16 123 7T46 72T19 165Q19 222 54 270T171 351Q92 401 92 489Q92 541 120 586T204 659T335 687Q426 687 484 645T543 529Q543 476 512 434T412
359Q523 304 523 203ZM275 590T251 561T227 494Q227 461 245 441T304 405L322 398Q372 428 389 458T407 521Q407 553 387 571T329 590Q275 590 251 561ZM314 88T348 122T382 206Q382 238 360 258T285 300L257 310Q161 263 161 173Q161 133 186 111T256 88Q314 88
348 122Z" />
<glyph unicode="9" glyph-name="nine" horiz-adv-x="543" d="M423 687T479 629T535 471Q535 296 435 160T70 -27L52 75Q186 108 261 160T367 305Q305 236 219 236Q172 236 135 258T77 322T55 420Q55 485 83 546T171 647T318 687Q423 687 479 629ZM299 338T329
356T387 407Q393 451 393 479Q393 535 373 559T312 584Q249 584 222 535T195 424Q195 380 214 359T266 338Q299 338 329 356Z" />
<glyph unicode=":" glyph-name="colon" horiz-adv-x="240" d="M51 -16T30 6T8 61Q8 100 35 127T102 155Q135 155 156 134T177 79Q177 40 150 12T84 -16Q51 -16 30 6ZM100 335T79 357T57 412Q57 451 84 478T151 506Q184 506 205 485T226 430Q226 391 199 363T133
335Q100 335 79 357Z" />
<glyph unicode=";" glyph-name="semicolon" horiz-adv-x="243" d="M136 155T157 134T179 80Q179 57 171 35T138 -29L53 -175H-30L38 1Q10 21 10 60Q10 99 37 127T103 155Q136 155 157 134ZM103 335T82 357T60 412Q60 451 87 478T154 506Q187 506 208 485T229 430Q229
391 202 363T136 335Q103 335 82 357Z" />
<glyph unicode="&lt;" glyph-name="less" horiz-adv-x="507" d="M465 570L502 461L164 332L460 201L400 96L38 268L55 397L465 570Z" />
<glyph unicode="=" glyph-name="equal" horiz-adv-x="506" d="M66 378L81 490H487L471 378H66ZM294 428L309 540H715L699 428H294Z" />
<glyph unicode="&gt;" glyph-name="greater" horiz-adv-x="505" d="M124 570L487 397L468 268L59 96L25 207L361 337L66 467L124 570Z" />
<glyph unicode="?" glyph-name="question" horiz-adv-x="467" d="M392 708T441 666T490 558Q490 508 471 474T425 420T354 377Q304 351 281 330T257 272Q257 261 260 249L135 229Q127 255 127 279Q127 325 144 355T187 404T252 445Q299 471 320 491T342 545Q342
569 325 582T278 595Q210 595 145 530L64 604Q165 708 300 708Q392 708 441 666ZM153 -16T132 6T110 61Q110 100 137 127T204 155Q237 155 258 134T279 79Q279 40 252 12T186 -16Q153 -16 132 6Z" />
<glyph unicode="@" glyph-name="at" horiz-adv-x="1011" d="M695 708T784 661T919 533T966 350Q966 272 940 193T858 59T721 5Q666 5 633 34T593 105Q540 9 443 9Q370 9 329 56T288 183Q288 256 314 328T399 450T552 500Q593 500 635 489T715 455L677 164Q675
148 675 142Q675 97 715 97Q756 97 784 137T825 237T839 354Q839 474 769 538T562 602Q424 602 338 538T214 377T176 183Q176 96 211 29T314 -75T480 -113Q526 -113 576 -103T670 -78L693 -179Q580 -220 469 -220Q342 -220 246 -169T98 -26T46 184Q46 303 102 424T276
626T571 708Q695 708 784 661ZM520 100T555 164L589 399Q568 408 542 408Q473 408 444 338T415 178Q415 100 470 100Q520 100 555 164Z" />
<glyph unicode="A" glyph-name="A" horiz-adv-x="577" d="M396 0L379 155H164L104 0H-47L260 692H437L549 0H396ZM206 264H367L332 590L206 264Z" />
<glyph unicode="B" glyph-name="B" horiz-adv-x="606" d="M494 354T531 321T569 220Q569 120 494 60T249 0H35L132 692H332Q451 692 517 655T584 535Q584 466 541 424T431 366Q494 354 531 321ZM262 586L238 411H307Q369 411 401 440T434 521Q434 557 409 571T334
586H262ZM350 109T384 140T419 230Q419 311 307 311H224L196 109H261Q350 109 384 140Z" />
<glyph unicode="C" glyph-name="C" horiz-adv-x="563" d="M520 708T595 628L516 551Q488 574 460 585T398 597Q326 597 281 545T215 417T195 267Q195 182 229 141T324 100Q363 100 396 115T468 158L526 69Q427 -16 304 -16Q226 -16 168 17T77 114T44 269Q44 373
80 473T195 641T394 708Q520 708 595 628Z" />
<glyph unicode="D" glyph-name="D" horiz-adv-x="641" d="M451 692T536 635T621 430Q621 310 583 214T458 59T232 0H35L132 692H310Q451 692 536 635ZM262 584L196 108H254Q371 108 421 204T471 430Q471 519 432 551T320 584H262Z" />
<glyph unicode="E" glyph-name="E" horiz-adv-x="520" d="M539 692L509 584H262L237 405H451L438 299H223L196 108H460L444 0H35L132 692H539Z" />
<glyph unicode="F" glyph-name="F" horiz-adv-x="480" d="M529 692L498 584H262L235 389H441L426 282H220L181 0H35L132 692H529Z" />
<glyph unicode="G" glyph-name="G" horiz-adv-x="632" d="M546 708T629 622L546 548Q513 575 483 587T413 599Q335 599 286 546T215 411T193 245Q193 165 223 130T317 95Q372 95 421 120L446 288H350L351 395H602L555 56Q500 21 437 3T306 -16Q177 -16 110 54T43
259Q43 370 82 472T205 641T415 708Q546 708 629 622Z" />
<glyph unicode="H" glyph-name="H" horiz-adv-x="660" d="M180 0H35L132 692H278L239 419H463L502 692H647L550 0H405L447 303H223L180 0Z" />
<glyph unicode="I" glyph-name="I" horiz-adv-x="291" d="M278 692L181 0H35L132 692H278Z" />
<glyph unicode="J" glyph-name="J" horiz-adv-x="308" d="M216 101Q205 21 171 -30T87 -111T-29 -162L-56 -56Q-10 -39 15 -17T53 35T71 111L153 692H299L216 101Z" />
<glyph unicode="K" glyph-name="K" horiz-adv-x="613" d="M35 0L132 692H278L181 0H35ZM419 0L238 369L507 692H665L391 371L586 0H419Z" />
<glyph unicode="L" glyph-name="L" horiz-adv-x="502" d="M278 692L197 119H467L435 0H35L132 692H278Z" />
<glyph unicode="M" glyph-name="M" horiz-adv-x="774" d="M697 0H555L579 283Q592 443 613 572L429 74H290L235 571Q229 445 196 275L144 0H2L152 692H331L378 207L550 692H741L697 0Z" />
<glyph unicode="N" glyph-name="N" horiz-adv-x="659" d="M550 0H364L221 569V528Q221 396 203 262L166 0H35L132 692H316L462 123Q460 181 460 206Q460 291 474 396L516 692H647L550 0Z" />
<glyph unicode="O" glyph-name="O" horiz-adv-x="682" d="M524 708T592 634T661 425Q661 321 626 221T511 52T305 -16Q181 -16 113 58T44 266Q44 369 79 470T194 639T401 708Q524 708 592 634ZM318 598T274 542T212 408T194 257Q194 172 224 134T314 95Q388 95
432 151T493 285T511 437Q511 521 481 559T391 598Q318 598 274 542Z" />
<glyph unicode="P" glyph-name="P" horiz-adv-x="587" d="M463 692T529 644T596 501Q596 433 565 373T466 275T292 236H214L181 0H35L132 692H342Q463 692 529 644ZM375 344T409 388T444 496Q444 586 329 586H262L229 344H292Q375 344 409 388Z" />
<glyph unicode="Q" glyph-name="Q" horiz-adv-x="681" d="M661 305T614 198T464 41Q527 39 570 23T651 -23L548 -138Q500 -77 446 -47T305 -16Q181 -16 113 58T44 266Q44 369 79 470T194 639T401 708Q524 708 592 634T661 425Q661 305 614 198ZM194 95T314 95Q388
95 432 151T493 287T511 445Q511 524 481 561T391 598Q318 598 274 542T212 406T194 251Q194 95 314 95Z" />
<glyph unicode="R" glyph-name="R" horiz-adv-x="605" d="M594 440T558 385T432 295L565 0H405L296 271H218L181 0H35L132 692H345Q468 692 531 645T594 511Q594 440 558 385ZM233 375H311Q381 375 412 413T443 505Q443 548 416 567T330 586H262L233 375Z" />
<glyph unicode="S" glyph-name="S" horiz-adv-x="557" d="M473 708T559 619L479 540Q448 570 414 584T338 598Q288 598 257 575T225 512Q225 490 235 475T271 447T344 418Q432 390 477 345T522 223Q522 162 492 108T397 19T232 -16Q151 -16 90 11T-12 83L73 167Q106
133 145 116T236 98Q297 98 333 126T369 202Q369 239 345 261T256 305Q159 338 116 382T73 496Q73 550 102 598T191 677T334 708Q473 708 559 619Z" />
<glyph unicode="T" glyph-name="T" horiz-adv-x="526" d="M584 692L552 577H379L298 0H153L234 577H53L69 692H584Z" />
<glyph unicode="U" glyph-name="U" horiz-adv-x="645" d="M577 226Q567 155 530 101T431 15T285 -16Q171 -16 113 38T54 186Q54 208 57 230L122 692H268L203 233Q200 211 200 193Q200 144 223 121T295 97Q356 97 389 131T432 237L497 692H642L577 226Z" />
<glyph unicode="V" glyph-name="V" horiz-adv-x="558" d="M627 692L333 0H157L51 692H202L261 122L476 692H627Z" />
<glyph unicode="W" glyph-name="W" horiz-adv-x="833" d="M879 692L662 0H473L454 540L280 0H96L75 692H217L214 114L398 692H553L571 114L740 692H879Z" />
<glyph unicode="X" glyph-name="X" horiz-adv-x="563" d="M606 692L379 373L527 0H370L282 278L118 0H-40L206 368L73 692H229L303 457L449 692H606Z" />
<glyph unicode="Y" glyph-name="Y" horiz-adv-x="574" d="M639 692L360 261L323 0H177L214 260L55 692H211L302 378L483 692H639Z" />
<glyph unicode="Z" glyph-name="Z" horiz-adv-x="530" d="M-18 0L-3 112L373 576H96L112 692H556L541 579L169 119H479L448 0H-18Z" />
<glyph unicode="[" glyph-name="bracketleft" horiz-adv-x="315" d="M365 821L349 713H235L132 -14H247L232 -121H-16L117 821H365Z" />
<glyph unicode="\" glyph-name="backslash" horiz-adv-x="511" d="M276 813L383 -82L258 -110L153 786L276 813Z" />
<glyph unicode="]" glyph-name="bracketright" horiz-adv-x="315" d="M355 821L222 -121H-25L-10 -13H104L207 713H92L107 821H355Z" />
<glyph unicode="^" glyph-name="asciicircum" horiz-adv-x="545" d="M418 843L560 527H421L339 734L201 527H59L290 843H418Z" />
<glyph unicode="_" glyph-name="underscore" horiz-adv-x="511" d="M-50 -164L-34 -51H456L441 -164H-50Z" />
<glyph unicode="`" glyph-name="grave" horiz-adv-x="323" d="M156 827L352 697L312 628L94 718L156 827Z" />
<glyph unicode="a" glyph-name="a" horiz-adv-x="571" d="M441 546T540 493L490 145Q488 127 488 121Q488 105 494 96T517 79L477 -14Q379 -4 361 74Q296 -16 203 -16Q121 -16 76 40T31 193Q31 276 62 357T160 492T331 546Q441 546 540 493ZM276 443T242 405T193
310T177 193Q177 90 245 90Q276 90 302 110T355 169L393 431Q364 443 328 443Q276 443 242 405Z" />
<glyph unicode="b" glyph-name="b" horiz-adv-x="581" d="M464 546T506 492T548 339Q548 253 520 173T424 38T245 -16Q191 -16 141 -6T35 26L135 741L277 757L239 483Q270 513 308 529T386 546Q464 546 506 492ZM277 440T224 375L186 103Q221 90 259 90Q309 90
341 128T389 224T404 339Q404 394 386 417T334 440Q277 440 224 375Z" />
<glyph unicode="c" glyph-name="c" horiz-adv-x="471" d="M422 546T489 481L419 398Q397 418 375 426T324 435Q247 435 214 364T180 204Q180 147 203 123T269 98Q297 98 321 107T378 136L431 43Q346 -16 252 -16Q149 -16 91 44T33 210Q33 286 63 363T159 493T323
546Q422 546 489 481Z" />
<glyph unicode="d" glyph-name="d" horiz-adv-x="586" d="M584 741L480 0H356L357 78Q328 35 289 10T199 -16Q117 -16 75 40T32 197Q32 276 59 356T142 491T284 546Q323 546 355 531T409 491L446 756L584 741ZM265 441T235 402T191 305T178 194Q178 138 195 114T243
90Q277 90 306 117T367 193L396 397Q363 441 314 441Q265 441 235 402Z" />
<glyph unicode="e" glyph-name="e" horiz-adv-x="529" d="M516 302T423 256T175 194Q180 91 274 91Q309 91 341 103T411 140L463 54Q366 -16 257 -16Q148 -16 91 43T33 206Q33 286 63 364T159 494T327 546Q417 546 466 506T516 403Q516 302 423 256ZM281 292T327
321T374 397Q374 418 361 433T317 448Q260 448 227 401T182 284Q281 292 327 321Z" />
<glyph unicode="f" glyph-name="f" horiz-adv-x="342" d="M313 650T294 633T269 577L262 530H387L357 429H248L195 51Q184 -29 153 -80T76 -163T-40 -220L-76 -116Q-15 -92 15 -58T55 47L108 429H26L40 530H122L130 585Q140 662 194 709T339 757Q415 757 481 714L431
628Q397 650 350 650Q313 650 294 633Z" />
<glyph unicode="g" glyph-name="g" horiz-adv-x="578" d="M447 546T546 493L479 34Q459 -101 394 -161T208 -221Q160 -221 108 -206T13 -165L61 -69Q137 -111 205 -111Q259 -111 294 -85T340 17L348 72Q319 39 283 20T205 0Q123 0 78 55T32 204Q32 286 63 364T163
494T336 546Q447 546 546 493ZM280 443T245 407T194 317T178 207Q178 107 248 107Q304 107 361 186L399 431Q368 443 333 443Q280 443 245 407Z" />
<glyph unicode="h" glyph-name="h" horiz-adv-x="571" d="M460 546T492 512T525 417Q525 395 523 383L469 0H329L379 355Q381 375 381 381Q381 408 372 418T344 429Q280 429 212 298L171 0H31L135 741L277 756L232 439Q262 488 306 517T402 546Q460 546 492 512Z" />
<glyph unicode="i" glyph-name="i" horiz-adv-x="278" d="M246 530L172 0H32L106 530H246ZM160 637T139 658T118 711Q118 751 145 777T212 803Q247 803 268 783T289 729Q289 689 262 663T195 637Q160 637 139 658Z" />
<glyph unicode="j" glyph-name="j" horiz-adv-x="277" d="M-93 -118Q-52 -101 -27 -82T15 -33T38 47L105 530H245L178 51Q167 -29 136 -80T59 -163T-57 -220L-93 -118ZM160 637T139 658T118 711Q118 751 145 777T212 803Q247 803 268 783T289 729Q289 689 262
663T195 637Q160 637 139 658Z" />
<glyph unicode="k" glyph-name="k" horiz-adv-x="561" d="M235 455Q310 546 412 546Q475 546 513 512T551 421Q551 293 403 235L506 0H351L248 257Q334 283 370 317T407 398Q407 420 395 432T359 445Q323 445 286 416T217 326L172 0H31L135 741L277 757L235 455Z" />
<glyph unicode="l" glyph-name="l" horiz-adv-x="288" d="M185 133L184 122Q184 98 207 98Q220 98 235 103L254 3Q208 -16 160 -16Q103 -16 73 13T42 100Q42 116 45 134L131 741L272 757L185 133Z" />
<glyph unicode="m" glyph-name="m" horiz-adv-x="835" d="M727 546T758 512T790 418Q790 396 788 384L734 0H594L645 355Q647 366 647 383Q647 410 638 419T609 429Q556 429 496 304L453 0H313L363 355Q365 375 365 381Q365 408 355 418T326 429Q298 429 269 394T214
299L172 0H32L106 530H227L223 440Q257 490 299 518T391 546Q438 546 469 520T507 445Q540 493 583 519T673 546Q727 546 758 512Z" />
<glyph unicode="n" glyph-name="n" horiz-adv-x="570" d="M461 546T493 512T526 417Q526 401 523 381L470 0H330L380 355Q382 375 382 380Q382 407 372 418T343 429Q282 429 214 298L172 0H32L106 530H227L223 434Q259 487 305 516T404 546Q461 546 493 512Z" />
<glyph unicode="o" glyph-name="o" horiz-adv-x="575" d="M147 -16T90 43T33 208Q33 288 62 365T156 494T324 546Q427 546 484 487T541 325Q541 245 513 167T420 37T251 -16Q147 -16 90 43ZM334 91T365 167T397 332Q397 388 377 414T315 440Q263 440 233 401T190
306T178 198Q178 143 198 117T260 91Q334 91 365 167Z" />
<glyph unicode="p" glyph-name="p" horiz-adv-x="581" d="M106 530H229L228 470Q301 546 386 546Q465 546 507 492T549 339Q549 255 521 174T429 38T268 -16Q214 -16 171 0L141 -205L1 -221L106 530ZM310 90T342 128T389 224T404 339Q404 394 386 417T334 440Q277
440 225 376L187 103Q220 90 260 90Q310 90 342 128Z" />
<glyph unicode="q" glyph-name="q" horiz-adv-x="575" d="M341 51Q321 24 284 4T202 -16Q121 -16 76 40T31 193Q31 278 62 358T161 492T332 546Q443 546 543 493L444 -205L303 -221L341 51ZM277 90T303 110T357 169L395 431Q364 443 329 443Q277 443 243 405T193
310T177 193Q177 90 246 90Q277 90 303 110Z" />
<glyph unicode="r" glyph-name="r" horiz-adv-x="390" d="M402 545T428 537L388 399Q366 406 343 406Q297 406 266 367T208 254L172 0H32L106 530H227L224 429Q252 486 291 515T375 545Q402 545 428 537Z" />
<glyph unicode="s" glyph-name="s" horiz-adv-x="471" d="M325 546T373 528T458 479L395 400Q367 421 334 432T269 443Q231 443 211 430T190 393Q190 378 199 368T229 348T293 325Q364 303 399 265T434 165Q434 113 407 72T328 8T201 -16Q134 -16 78 7T-14 69L58
144Q123 88 203 88Q248 88 270 106T293 149Q293 169 284 181T254 203T187 228Q116 252 83 287T50 380Q50 424 75 462T149 523T269 546Q325 546 373 528Z" />
<glyph unicode="t" glyph-name="t" horiz-adv-x="371" d="M207 167Q205 147 205 142Q205 118 215 108T245 98Q271 98 309 116L347 23Q316 4 280 -6T209 -16Q138 -16 101 21T63 129Q63 147 66 168L103 429H25L39 530H123L156 649L275 663L257 530H379L350 429H243L207
167Z" />
<glyph unicode="u" glyph-name="u" horiz-adv-x="566" d="M111 -16T78 19T44 116Q44 134 47 152L101 530H241L191 172Q189 152 189 145Q189 118 199 108T230 97Q261 97 289 122T346 190L394 530H534L460 0H338L343 83Q306 35 264 10T173 -16Q111 -16 78 19Z" />
<glyph unicode="v" glyph-name="v" horiz-adv-x="499" d="M540 530L300 0H132L35 530H186L231 112L391 530H540Z" />
<glyph unicode="w" glyph-name="w" horiz-adv-x="732" d="M761 530L576 0H406L388 403L256 0H87L47 530H187L192 105L338 530H478L496 105L626 530H761Z" />
<glyph unicode="x" glyph-name="x" horiz-adv-x="498" d="M518 530L336 278L467 0H314L241 201L113 0H-44L166 283L48 530H201L259 353L364 530H518Z" />
<glyph unicode="y" glyph-name="y" horiz-adv-x="502" d="M306 -3Q261 -103 184 -157T-11 -220L-15 -118Q62 -108 102 -82T174 0H124L35 530H182L226 95L396 530H543L306 -3Z" />
<glyph unicode="z" glyph-name="z" horiz-adv-x="445" d="M458 530L445 428L166 110H404L375 0H-23L-10 102L270 421H57L73 530H458Z" />
<glyph unicode="{" glyph-name="braceleft" horiz-adv-x="315" d="M354 738Q309 738 290 723T265 674L237 476Q229 416 203 389T124 347Q164 338 184 317T204 252Q204 232 202 220L173 21Q172 15 172 5Q172 -19 187 -28T242 -38L231 -139Q133 -139 87 -107T40
-8Q40 13 42 24L69 213Q71 224 71 243Q71 269 58 280T12 291L29 408Q67 408 84 427T108 491L134 680Q142 737 165 771T235 822T365 839L354 738Z" />
<glyph unicode="|" glyph-name="bar" horiz-adv-x="374" d="M328 809L200 -104H70L198 809H328Z" />
<glyph unicode="}" glyph-name="braceright" horiz-adv-x="315" d="M-15 -38Q30 -38 49 -24T74 26L102 224Q110 284 136 311T215 353Q175 362 155 383T135 448Q135 468 137 480L165 679Q166 685 166 696Q166 719 151 728T96 738L107 839Q206 839 252 807T298 708Q298
687 296 676L270 487Q267 469 267 457Q267 431 280 420T326 409L310 292Q272 292 254 273T230 209L204 20Q196 -37 174 -71T104 -122T-27 -139L-15 -38Z" />
<glyph unicode="~" glyph-name="asciitilde" horiz-adv-x="499" d="M296 236T275 246T229 273Q212 285 200 291T174 297Q148 297 130 283T95 241L22 286Q96 404 190 404Q220 404 241 395T285 368Q305 354 316 349T342 343Q367 343 384 357T419 396L492 351Q460
300 421 268T327 236Q296 236 275 246Z" />
<glyph unicode="&#xa0;" glyph-name="uni00A0" horiz-adv-x="235" />
<glyph unicode="&#xa1;" glyph-name="exclamdown" horiz-adv-x="230" d="M99 335T78 357T56 412Q56 451 83 478T150 506Q183 506 204 485T225 430Q225 391 198 363T132 335Q99 335 78 357ZM172 238L127 -204H-23L57 238H172Z" />
<glyph unicode="&#xa2;" glyph-name="cent" horiz-adv-x="471" d="M431 43Q358 -7 284 -14L263 -159H159L181 -7Q110 12 72 68T33 210Q33 277 56 346T130 468T258 539L279 690H382L362 543Q436 532 489 481L419 398Q397 418 375 426T324 435Q247 435 214 364T180
204Q180 147 203 123T269 98Q297 98 321 107T378 136L431 43Z" />
<glyph unicode="&#xa3;" glyph-name="sterling" horiz-adv-x="526" d="M238 183T222 156T166 109H471L439 0H-8L6 105Q44 116 64 131T92 169T106 228L118 313H52L63 390H129L143 492Q155 582 214 634T370 687Q434 687 479 663T556 590L464 529Q447 557 427 568T377
579Q293 579 281 487L267 390H454L443 313H257L245 230Q238 183 222 156Z" />
<glyph unicode="&#xa4;" glyph-name="currency" horiz-adv-x="560" d="M499 275T465 222L541 147L474 80L396 156Q344 126 279 126Q215 126 165 157L86 80L20 147L96 223Q63 276 63 341Q63 406 96 458L20 537L86 604L165 525Q215 556 279 556Q343 556 397 526L474
604L541 537L465 460Q499 407 499 341Q499 275 465 222ZM331 225T357 255T383 342Q383 398 357 428T281 458Q230 458 204 428T177 342Q177 286 203 256T281 225Q331 225 357 255Z" />
<glyph unicode="&#xa5;" glyph-name="yen" horiz-adv-x="552" d="M614 674L392 351H491L480 273H348L338 197H469L459 120H327L310 0H169L186 120H54L65 197H197L207 273H75L86 351H185L53 674H201L294 390L467 674H614Z" />
<glyph unicode="&#xa6;" glyph-name="brokenbar" horiz-adv-x="374" d="M328 809L277 443H146L198 809H328ZM252 262L200 -104H70L121 262H252Z" />
<glyph unicode="&#xa7;" glyph-name="section" horiz-adv-x="537" d="M421 433T454 401T488 317Q488 270 463 236T389 175Q412 156 422 134T433 81Q433 38 410 2T335 -58T206 -81Q153 -81 106 -66T24 -24L80 60Q139 20 206 20Q298 20 298 76Q298 93 290 104T260
126T193 152Q124 174 92 205T59 288Q59 373 161 428Q116 467 116 524Q116 599 176 642T333 686Q388 686 436 670T521 626L463 547Q403 586 337 586Q251 586 251 530Q251 506 271 491T354 455Q421 433 454 401ZM297 227T317 217Q340 237 351 255T362 292Q362 315
344 332T281 365Q244 378 226 387Q205 368 196 350T187 312Q187 289 201 273T253 243Q297 227 317 217Z" />
<glyph unicode="&#xa8;" glyph-name="dieresis" horiz-adv-x="435" d="M131 644T112 662T93 710Q93 745 117 768T177 791Q208 791 227 773T246 726Q246 691 222 668T162 644Q131 644 112 662ZM355 644T336 662T317 710Q317 745 341 768T401 791Q432 791 450 773T469
726Q469 691 445 668T385 644Q355 644 336 662Z" />
<glyph unicode="&#xa9;" glyph-name="copyright" horiz-adv-x="810" d="M521 762T597 720T717 603T761 433Q761 339 717 264T597 146T430 104Q338 104 262 146T141 263T96 433Q96 527 140 602T261 720T430 762Q521 762 597 720ZM359 689T303 657T214 566T181 433Q181
358 213 300T302 210T430 178Q500 178 556 210T645 300T677 433Q677 508 645 566T557 656T430 689Q359 689 303 657ZM505 629T559 581L514 523Q496 537 479 542T441 548Q405 548 384 521T363 434Q363 376 383 348T440 320Q463 320 482 327T521 350L562 289Q508
238 433 238Q352 238 305 289T258 434Q258 494 280 538T342 605T432 629Q505 629 559 581Z" />
<glyph unicode="&#xaa;" glyph-name="ordfeminine" horiz-adv-x="484" d="M130 266T97 299T63 383Q63 445 112 486T278 527H321L323 542Q324 548 324 559Q324 581 312 590T268 599Q221 599 150 578L130 662Q214 692 296 692Q372 692 410 662T448 567Q448 557 446
533L428 398Q426 386 426 381Q426 360 449 352L413 268Q377 271 354 284T318 324Q269 266 188 266Q130 266 97 299ZM274 358T302 394L311 457H280Q194 457 194 395Q194 358 232 358Q274 358 302 394ZM8 0L22 112H419L403 0H8Z" />
<glyph unicode="&#xab;" glyph-name="guillemotleft" horiz-adv-x="607" d="M259 551L340 493L182 285L281 77L189 19L35 239L47 330L259 551ZM520 551L601 493L443 285L542 77L450 19L296 239L308 330L520 551Z" />
<glyph unicode="&#xac;" glyph-name="logicalnot" horiz-adv-x="514" d="M481 383L444 120H319L340 271H51L67 383H481Z" />
<glyph unicode="&#xad;" glyph-name="uni00AD" horiz-adv-x="398" d="M45 257L60 369H366L351 257H45Z" />
<glyph unicode="&#xae;" glyph-name="registered" horiz-adv-x="638" d="M427 757T488 722T585 624T620 486Q620 410 585 349T489 253T351 218Q275 218 214 253T117 349T81 486Q81 562 116 624T213 721T351 757Q427 757 488 722ZM409 281T453 306T523 378T548
486Q548 547 523 594T453 668T351 694Q294 694 249 668T179 595T154 486Q154 425 179 379T249 307T351 281Q409 281 453 306ZM463 520T447 500T403 470L477 353H398L340 457H318V353H250V634H332Q463 634 463 547Q463 520 447 500ZM318 511H347Q393 511 393 549Q393
583 346 583H318V511Z" />
<glyph unicode="&#xaf;" glyph-name="overscore" horiz-adv-x="354" d="M379 658H86L99 758H393L379 658Z" />
<glyph unicode="&#xb0;" glyph-name="degree" horiz-adv-x="512" d="M164 372T122 411T79 518Q79 573 104 616T174 684T270 708Q338 708 380 669T423 562Q423 507 398 464T328 397T232 372Q164 372 122 411ZM277 456T300 484T324 559Q324 591 309 607T265 624Q225
624 202 596T178 521Q178 489 193 473T237 456Q277 456 300 484Z" />
<glyph unicode="&#xb1;" glyph-name="plusminus" horiz-adv-x="514" d="M18 0L33 112H439L423 0H18ZM363 603L342 448H490L474 337H326L304 183H186L208 337H61L76 448H224L245 603H363Z" />
<glyph unicode="&#xb2;" glyph-name="uni00B2" horiz-adv-x="391" d="M322 750T358 718T394 637Q394 596 371 560T310 492T198 404H372L350 321H63L73 399L114 433Q204 507 243 549T283 629Q283 648 272 658T239 668Q216 668 197 658T155 624L95 677Q165 750 258
750Q322 750 358 718Z" />
<glyph unicode="&#xb3;" glyph-name="uni00B3" horiz-adv-x="391" d="M324 750T359 722T395 649Q395 608 367 581T290 542Q331 539 356 517T381 455Q381 413 357 380T290 328T198 310Q98 310 51 377L115 430Q150 391 198 391Q231 391 251 409T272 461Q272 484
258 493T211 503H173L196 577H219Q250 577 269 592T288 634Q288 670 242 670Q198 670 150 635L103 694Q174 750 260 750Q324 750 359 722Z" />
<glyph unicode="&#xb4;" glyph-name="acute" horiz-adv-x="324" d="M315 827L360 718L121 626L89 699L315 827Z" />
<glyph unicode="&#xb5;" glyph-name="uni00B5" horiz-adv-x="575" d="M480 127T480 80Q480 33 486 -2L357 -14Q350 7 348 25T346 72Q293 -11 218 -11Q175 -11 150 16Q156 -5 156 -34Q156 -65 149 -111L136 -204L1 -219L106 530H246L194 159Q193 153 193 141Q193
94 239 94Q266 94 294 111T346 166L396 530H536L487 180Q480 127 480 80Z" />
<glyph unicode="&#xb6;" glyph-name="paragraph" horiz-adv-x="766" d="M705 692L579 -204L455 -221L568 590H469L359 -204L235 -221L303 268Q202 272 150 320T98 448Q98 524 134 579T237 663T389 692H705Z" />
<glyph unicode="&#xb7;" glyph-name="middot" horiz-adv-x="239" d="M84 223T63 245T41 300Q41 339 68 366T135 394Q168 394 189 373T210 318Q210 279 183 251T117 223Q84 223 63 245Z" />
<glyph unicode="&#xb8;" glyph-name="cedilla" horiz-adv-x="306" d="M130 -50Q173 -54 196 -77T219 -138Q219 -168 203 -195T152 -239T66 -257Q3 -257 -39 -226L3 -161Q30 -177 64 -177Q87 -177 101 -168T115 -142Q116 -123 97 -116T30 -109L61 16H141L130 -50Z" />
<glyph unicode="&#xb9;" glyph-name="uni00B9" horiz-adv-x="391" d="M354 741L295 321H190L234 638L135 582L98 654L258 741H354Z" />
<glyph unicode="&#xba;" glyph-name="ordmasculine" horiz-adv-x="491" d="M389 692T436 647T484 518Q484 445 455 388T373 299T249 266Q163 266 115 311T67 439Q67 512 96 569T179 659T303 692Q389 692 436 647ZM246 598T222 550T198 436Q198 360 256 360Q306
360 329 408T353 524Q353 562 339 580T296 598Q246 598 222 550ZM6 0L21 112H427L411 0H6Z" />
<glyph unicode="&#xbb;" glyph-name="guillemotright" horiz-adv-x="607" d="M162 551L316 330L304 239L92 19L11 77L169 285L70 493L162 551ZM423 551L577 330L565 239L353 19L272 77L430 285L331 493L423 551Z" />
<glyph unicode="&#xbc;" glyph-name="onequarter" horiz-adv-x="933" d="M347 692L288 272H183L227 589L128 533L91 605L251 692H347ZM695 757L773 715L258 -84L179 -42L695 757ZM892 167L880 87H833L821 0H720L732 87H544L554 160L712 429L798 396L666 167H744L775
264H858L844 167H892Z" />
<glyph unicode="&#xbd;" glyph-name="onehalf" horiz-adv-x="933" d="M347 692L288 272H183L227 589L128 533L91 605L251 692H347ZM695 757L773 715L258 -84L179 -42L695 757ZM819 429T855 397T891 316Q891 275 868 239T807 171T695 83H869L847 0H560L570 78L611
112Q701 186 740 228T780 308Q780 327 769 337T736 347Q713 347 694 337T652 303L592 356Q662 429 755 429Q819 429 855 397Z" />
<glyph unicode="&#xbe;" glyph-name="threequarters" horiz-adv-x="933" d="M317 701T352 673T388 600Q388 559 360 532T283 493Q324 490 349 468T374 406Q374 364 350 331T283 279T191 261Q91 261 44 328L108 381Q143 342 191 342Q224 342 244 360T265 412Q265
435 251 444T204 454H166L189 528H212Q243 528 262 543T281 585Q281 621 235 621Q191 621 143 586L96 645Q167 701 253 701Q317 701 352 673ZM695 757L773 715L258 -84L179 -42L695 757ZM892 167L880 87H833L821 0H720L732 87H544L554 160L712 429L798 396L666
167H744L775 264H858L844 167H892Z" />
<glyph unicode="&#xbf;" glyph-name="questiondown" horiz-adv-x="467" d="M308 508T329 486T351 431Q351 392 324 365T257 337Q224 337 203 358T182 413Q182 452 209 480T275 508Q308 508 329 486ZM69 -221T20 -180T-29 -75Q-29 -24 -10 10T36 64T107 107Q141
125 160 137T191 169T204 214Q204 226 201 238L326 257Q334 233 334 208Q334 164 317 134T274 84T210 44Q163 18 141 -3T119 -59Q119 -83 135 -95T184 -108Q251 -108 316 -43L397 -118Q296 -221 161 -221Q69 -221 20 -180Z" />
<glyph unicode="&#xc0;" glyph-name="Agrave" horiz-adv-x="577" d="M396 0L379 155H164L104 0H-47L260 692H437L549 0H396ZM206 264H367L332 590L206 264ZM306 939L502 820L464 749L246 830L306 939Z" />
<glyph unicode="&#xc1;" glyph-name="Aacute" horiz-adv-x="577" d="M396 0L379 155H164L104 0H-47L260 692H437L549 0H396ZM206 264H367L332 590L206 264ZM465 940L509 831L270 749L240 820L465 940Z" />
<glyph unicode="&#xc2;" glyph-name="Acircumflex" horiz-adv-x="577" d="M396 0L379 155H164L104 0H-47L260 692H437L549 0H396ZM206 264H367L332 590L206 264ZM227 756L179 816L335 941H421L542 816L485 756L367 840L227 756Z" />
<glyph unicode="&#xc3;" glyph-name="Atilde" horiz-adv-x="577" d="M396 0L379 155H164L104 0H-47L260 692H437L549 0H396ZM206 264H367L332 590L206 264ZM402 766T387 773T352 793Q339 802 331 806T313 811Q295 811 282 800T252 765L184 804Q210 853 245 883T319
914Q341 914 356 907T390 886Q402 877 410 873T427 868Q443 868 456 878T487 913L555 874Q529 824 494 795T422 766Q402 766 387 773Z" />
<glyph unicode="&#xc4;" glyph-name="Adieresis" horiz-adv-x="577" d="M396 0L379 155H164L104 0H-47L260 692H437L549 0H396ZM206 264H367L332 590L206 264ZM219 770T200 788T181 836Q181 871 205 894T265 917Q296 917 315 899T334 852Q334 817 310 794T250
770Q219 770 200 788ZM443 770T424 788T405 836Q405 871 429 894T489 917Q520 917 538 899T557 852Q557 817 533 794T473 770Q443 770 424 788Z" />
<glyph unicode="&#xc5;" glyph-name="Aring" horiz-adv-x="577" d="M396 0L379 155H164L104 0H-47L260 692H437L549 0H396ZM206 264H367L332 590L206 264ZM442 986T474 954T506 873Q506 836 487 805T435 754T359 735Q305 735 273 767T241 848Q241 884 260 916T312
967T388 986Q442 986 474 954ZM356 913T341 894T325 851Q325 831 335 820T365 809Q391 809 406 827T422 870Q422 891 412 902T382 913Q356 913 341 894Z" />
<glyph unicode="&#xc6;" glyph-name="AE" horiz-adv-x="826" d="M782 584H505L519 403H762L749 297H527L542 108H768L753 0H411L403 155H174L100 0H-56L303 692H813L782 584ZM227 264H397L380 583L227 264Z" />
<glyph unicode="&#xc7;" glyph-name="Ccedilla" horiz-adv-x="563" d="M443 -2T342 -14L336 -50Q379 -54 402 -77T425 -138Q425 -168 409 -195T358 -239T272 -257Q209 -257 167 -226L209 -161Q236 -177 270 -177Q293 -177 307 -168T321 -142Q322 -123 303 -116T236
-109L260 -13Q160 0 102 73T44 269Q44 373 80 473T195 641T394 708Q520 708 595 628L516 551Q488 574 460 585T398 597Q326 597 281 545T215 417T195 267Q195 182 229 141T324 100Q363 100 396 115T468 158L526 69Q443 -2 342 -14Z" />
<glyph unicode="&#xc8;" glyph-name="Egrave" horiz-adv-x="520" d="M539 692L509 584H262L237 405H451L438 299H223L196 108H460L444 0H35L132 692H539ZM295 939L491 820L453 749L235 830L295 939Z" />
<glyph unicode="&#xc9;" glyph-name="Eacute" horiz-adv-x="520" d="M539 692L509 584H262L237 405H451L438 299H223L196 108H460L444 0H35L132 692H539ZM454 940L498 831L259 749L229 820L454 940Z" />
<glyph unicode="&#xca;" glyph-name="Ecircumflex" horiz-adv-x="520" d="M539 692L509 584H262L237 405H451L438 299H223L196 108H460L444 0H35L132 692H539ZM216 756L168 816L324 941H410L531 816L474 756L356 840L216 756Z" />
<glyph unicode="&#xcb;" glyph-name="Edieresis" horiz-adv-x="520" d="M539 692L509 584H262L237 405H451L438 299H223L196 108H460L444 0H35L132 692H539ZM208 770T189 788T170 836Q170 871 194 894T254 917Q285 917 304 899T323 852Q323 817 299 794T239 770Q208
770 189 788ZM432 770T413 788T394 836Q394 871 418 894T478 917Q509 917 527 899T546 852Q546 817 522 794T462 770Q432 770 413 788Z" />
<glyph unicode="&#xcc;" glyph-name="Igrave" horiz-adv-x="291" d="M278 692L181 0H35L132 692H278ZM162 939L358 820L320 749L102 830L162 939Z" />
<glyph unicode="&#xcd;" glyph-name="Iacute" horiz-adv-x="291" d="M278 692L181 0H35L132 692H278ZM321 940L365 831L126 749L96 820L321 940Z" />
<glyph unicode="&#xce;" glyph-name="Icircumflex" horiz-adv-x="291" d="M278 692L181 0H35L132 692H278ZM83 756L35 816L191 941H277L398 816L341 756L223 840L83 756Z" />
<glyph unicode="&#xcf;" glyph-name="Idieresis" horiz-adv-x="291" d="M278 692L181 0H35L132 692H278ZM75 770T56 788T37 836Q37 871 61 894T121 917Q152 917 171 899T190 852Q190 817 166 794T106 770Q75 770 56 788ZM299 770T280 788T261 836Q261 871 285
894T345 917Q376 917 394 899T413 852Q413 817 389 794T329 770Q299 770 280 788Z" />
<glyph unicode="&#xd0;" glyph-name="Eth" horiz-adv-x="651" d="M461 692T546 635T631 430Q631 310 593 214T468 59T242 0H45L88 307H19L31 399H101L142 692H320Q461 692 546 635ZM381 108T431 204T481 430Q481 519 442 551T330 584H272L246 399H385L372 307H234L206
108H264Q381 108 431 204Z" />
<glyph unicode="&#xd1;" glyph-name="Ntilde" horiz-adv-x="659" d="M550 0H364L221 569V528Q221 396 203 262L166 0H35L132 692H316L462 123Q460 181 460 206Q460 291 474 396L516 692H647L550 0ZM449 766T434 773T399 793Q386 802 378 806T360 811Q342 811 329
800T299 765L231 804Q257 853 292 883T366 914Q388 914 403 907T437 886Q449 877 457 873T474 868Q490 868 503 878T534 913L602 874Q576 824 541 795T469 766Q449 766 434 773Z" />
<glyph unicode="&#xd2;" glyph-name="Ograve" horiz-adv-x="682" d="M524 708T592 634T661 425Q661 321 626 221T511 52T305 -16Q181 -16 113 58T44 266Q44 369 79 470T194 639T401 708Q524 708 592 634ZM318 598T274 542T212 408T194 257Q194 172 224 134T314
95Q388 95 432 151T493 285T511 437Q511 521 481 559T391 598Q318 598 274 542ZM360 939L556 820L518 749L300 830L360 939Z" />
<glyph unicode="&#xd3;" glyph-name="Oacute" horiz-adv-x="682" d="M524 708T592 634T661 425Q661 321 626 221T511 52T305 -16Q181 -16 113 58T44 266Q44 369 79 470T194 639T401 708Q524 708 592 634ZM318 598T274 542T212 408T194 257Q194 172 224 134T314
95Q388 95 432 151T493 285T511 437Q511 521 481 559T391 598Q318 598 274 542ZM519 940L563 831L324 749L294 820L519 940Z" />
<glyph unicode="&#xd4;" glyph-name="Ocircumflex" horiz-adv-x="682" d="M524 708T592 634T661 425Q661 321 626 221T511 52T305 -16Q181 -16 113 58T44 266Q44 369 79 470T194 639T401 708Q524 708 592 634ZM318 598T274 542T212 408T194 257Q194 172 224 134T314
95Q388 95 432 151T493 285T511 437Q511 521 481 559T391 598Q318 598 274 542ZM281 756L233 816L389 941H475L596 816L539 756L421 840L281 756Z" />
<glyph unicode="&#xd5;" glyph-name="Otilde" horiz-adv-x="682" d="M524 708T592 634T661 425Q661 321 626 221T511 52T305 -16Q181 -16 113 58T44 266Q44 369 79 470T194 639T401 708Q524 708 592 634ZM318 598T274 542T212 408T194 257Q194 172 224 134T314
95Q388 95 432 151T493 285T511 437Q511 521 481 559T391 598Q318 598 274 542ZM456 766T441 773T406 793Q393 802 385 806T367 811Q349 811 336 800T306 765L238 804Q264 853 299 883T373 914Q395 914 410 907T444 886Q456 877 464 873T481 868Q497 868 510 878T541
913L609 874Q583 824 548 795T476 766Q456 766 441 773Z" />
<glyph unicode="&#xd6;" glyph-name="Odieresis" horiz-adv-x="682" d="M524 708T592 634T661 425Q661 321 626 221T511 52T305 -16Q181 -16 113 58T44 266Q44 369 79 470T194 639T401 708Q524 708 592 634ZM318 598T274 542T212 408T194 257Q194 172 224 134T314
95Q388 95 432 151T493 285T511 437Q511 521 481 559T391 598Q318 598 274 542ZM273 770T254 788T235 836Q235 871 259 894T319 917Q350 917 369 899T388 852Q388 817 364 794T304 770Q273 770 254 788ZM497 770T478 788T459 836Q459 871 483 894T543 917Q574 917
592 899T611 852Q611 817 587 794T527 770Q497 770 478 788Z" />
<glyph unicode="&#xd7;" glyph-name="multiply" horiz-adv-x="506" d="M400 505L470 424L338 308L439 186L351 109L253 230L119 109L48 189L180 306L80 427L168 505L266 384L400 505Z" />
<glyph unicode="&#xd8;" glyph-name="Oslash" horiz-adv-x="682" d="M608 630T634 569T661 425Q661 321 626 221T511 52T305 -16Q274 -16 250 -12L198 -133L89 -103L148 27Q97 63 71 123T44 266Q44 369 79 470T194 639T401 708Q432 708 453 704L508 826L616 796L557
665Q608 630 634 569ZM318 598T273 542T210 406T192 251Q192 169 218 132L421 596Q403 598 391 598Q318 598 273 542ZM388 95T432 151T495 288T513 445Q513 527 487 562L285 97Q294 95 314 95Q388 95 432 151Z" />
<glyph unicode="&#xd9;" glyph-name="Ugrave" horiz-adv-x="645" d="M577 226Q567 155 530 101T431 15T285 -16Q171 -16 113 38T54 186Q54 208 57 230L122 692H268L203 233Q200 211 200 193Q200 144 223 121T295 97Q356 97 389 131T432 237L497 692H642L577 226ZM339
939L535 820L497 749L279 830L339 939Z" />
<glyph unicode="&#xda;" glyph-name="Uacute" horiz-adv-x="645" d="M577 226Q567 155 530 101T431 15T285 -16Q171 -16 113 38T54 186Q54 208 57 230L122 692H268L203 233Q200 211 200 193Q200 144 223 121T295 97Q356 97 389 131T432 237L497 692H642L577 226ZM498
940L542 831L303 749L273 820L498 940Z" />
<glyph unicode="&#xdb;" glyph-name="Ucircumflex" horiz-adv-x="645" d="M577 226Q567 155 530 101T431 15T285 -16Q171 -16 113 38T54 186Q54 208 57 230L122 692H268L203 233Q200 211 200 193Q200 144 223 121T295 97Q356 97 389 131T432 237L497 692H642L577
226ZM260 756L212 816L368 941H454L575 816L518 756L400 840L260 756Z" />
<glyph unicode="&#xdc;" glyph-name="Udieresis" horiz-adv-x="645" d="M577 226Q567 155 530 101T431 15T285 -16Q171 -16 113 38T54 186Q54 208 57 230L122 692H268L203 233Q200 211 200 193Q200 144 223 121T295 97Q356 97 389 131T432 237L497 692H642L577
226ZM252 770T233 788T214 836Q214 871 238 894T298 917Q329 917 348 899T367 852Q367 817 343 794T283 770Q252 770 233 788ZM476 770T457 788T438 836Q438 871 462 894T522 917Q553 917 571 899T590 852Q590 817 566 794T506 770Q476 770 457 788Z" />
<glyph unicode="&#xdd;" glyph-name="Yacute" horiz-adv-x="574" d="M639 692L360 261L323 0H177L214 260L55 692H211L302 378L483 692H639ZM465 940L509 831L270 749L240 820L465 940Z" />
<glyph unicode="&#xde;" glyph-name="Thorn" horiz-adv-x="587" d="M448 581T513 533T579 385Q579 319 550 259T453 158T275 117H197L181 0H35L132 692H278L262 581H326Q448 581 513 533ZM358 225T393 272T428 383Q428 431 399 453T313 475H248L213 225H275Q358
225 393 272Z" />
<glyph unicode="&#xdf;" glyph-name="germandbls" horiz-adv-x="593" d="M-93 -116Q-33 -93 -3 -62T36 36L106 537Q120 641 185 699T358 757Q444 757 491 718T539 617Q539 574 519 548T463 493Q436 471 424 457T412 423Q412 404 424 390T464 351Q493 327 512 308T544
257T558 184Q558 135 535 89T462 14T340 -16Q305 -16 273 -8T217 15L269 109Q296 94 329 94Q373 94 393 120T414 176Q414 209 399 231T350 282Q317 311 301 334T284 393Q284 435 300 460T350 516Q378 541 391 559T404 607Q404 630 389 642T348 655Q306 655 280
625T246 536L179 51Q167 -29 137 -80T60 -163T-57 -220L-93 -116Z" />
<glyph unicode="&#xe0;" glyph-name="agrave" horiz-adv-x="571" d="M441 546T540 493L490 145Q488 127 488 121Q488 105 494 96T517 79L477 -14Q379 -4 361 74Q296 -16 203 -16Q121 -16 76 40T31 193Q31 276 62 357T160 492T331 546Q441 546 540 493ZM276 443T242
405T193 310T177 193Q177 90 245 90Q276 90 302 110T355 169L393 431Q364 443 328 443Q276 443 242 405ZM310 827L506 697L466 628L248 718L310 827Z" />
<glyph unicode="&#xe1;" glyph-name="aacute" horiz-adv-x="571" d="M441 546T540 493L490 145Q488 127 488 121Q488 105 494 96T517 79L477 -14Q379 -4 361 74Q296 -16 203 -16Q121 -16 76 40T31 193Q31 276 62 357T160 492T331 546Q441 546 540 493ZM276 443T242
405T193 310T177 193Q177 90 245 90Q276 90 302 110T355 169L393 431Q364 443 328 443Q276 443 242 405ZM459 827L504 718L265 626L233 699L459 827Z" />
<glyph unicode="&#xe2;" glyph-name="acircumflex" horiz-adv-x="571" d="M441 546T540 493L490 145Q488 127 488 121Q488 105 494 96T517 79L477 -14Q379 -4 361 74Q296 -16 203 -16Q121 -16 76 40T31 193Q31 276 62 357T160 492T331 546Q441 546 540 493ZM276
443T242 405T193 310T177 193Q177 90 245 90Q276 90 302 110T355 169L393 431Q364 443 328 443Q276 443 242 405ZM226 624L179 684L335 815H422L542 684L483 624L367 713L226 624Z" />
<glyph unicode="&#xe3;" glyph-name="atilde" horiz-adv-x="571" d="M441 546T540 493L490 145Q488 127 488 121Q488 105 494 96T517 79L477 -14Q379 -4 361 74Q296 -16 203 -16Q121 -16 76 40T31 193Q31 276 62 357T160 492T331 546Q441 546 540 493ZM276 443T242
405T193 310T177 193Q177 90 245 90Q276 90 302 110T355 169L393 431Q364 443 328 443Q276 443 242 405ZM400 640T385 647T350 667Q337 676 329 680T311 685Q293 685 280 674T250 639L182 678Q208 727 243 757T317 788Q339 788 354 781T388 760Q400 751 408 747T425
742Q441 742 454 752T485 787L553 748Q527 698 492 669T420 640Q400 640 385 647Z" />
<glyph unicode="&#xe4;" glyph-name="adieresis" horiz-adv-x="571" d="M441 546T540 493L490 145Q488 127 488 121Q488 105 494 96T517 79L477 -14Q379 -4 361 74Q296 -16 203 -16Q121 -16 76 40T31 193Q31 276 62 357T160 492T331 546Q441 546 540 493ZM276
443T242 405T193 310T177 193Q177 90 245 90Q276 90 302 110T355 169L393 431Q364 443 328 443Q276 443 242 405ZM218 644T199 662T180 710Q180 745 204 768T264 791Q295 791 314 773T333 726Q333 691 309 668T249 644Q218 644 199 662ZM442 644T423 662T404 710Q404
745 428 768T488 791Q519 791 537 773T556 726Q556 691 532 668T472 644Q442 644 423 662Z" />
<glyph unicode="&#xe5;" glyph-name="aring" horiz-adv-x="571" d="M441 546T540 493L490 145Q488 127 488 121Q488 105 494 96T517 79L477 -14Q379 -4 361 74Q296 -16 203 -16Q121 -16 76 40T31 193Q31 276 62 357T160 492T331 546Q441 546 540 493ZM276 443T242
405T193 310T177 193Q177 90 245 90Q276 90 302 110T355 169L393 431Q364 443 328 443Q276 443 242 405ZM439 860T471 828T503 747Q503 710 484 679T432 628T356 609Q302 609 270 641T238 722Q238 758 257 790T309 841T385 860Q439 860 471 828ZM353 787T338 768T322
725Q322 705 332 694T362 683Q388 683 403 701T419 744Q419 765 409 776T379 787Q353 787 338 768Z" />
<glyph unicode="&#xe6;" glyph-name="ae" horiz-adv-x="829" d="M349 546T387 527T447 472Q478 505 525 525T627 546Q687 546 730 527T795 476T817 403Q817 302 723 256T473 196Q475 139 501 115T574 91Q609 91 641 103T711 140L763 54Q666 -16 557 -16Q491 -16
444 7T369 73Q327 25 280 5T175 -16Q101 -16 57 23T13 127Q13 209 75 263T284 318H349Q357 355 367 377Q363 406 336 422T267 439Q204 439 125 414L103 510Q198 546 287 546Q349 546 387 527ZM559 448T526 401T480 285Q579 294 626 323T674 396Q674 417 661 432T616
448Q559 448 526 401ZM289 234Q163 234 163 142Q163 86 220 86Q253 86 281 103T339 156Q337 167 336 191T336 234H289Z" />
<glyph unicode="&#xe7;" glyph-name="ccedilla" horiz-adv-x="471" d="M356 -9T276 -15L270 -50Q313 -54 336 -77T359 -138Q359 -168 343 -195T292 -239T206 -257Q143 -257 101 -226L143 -161Q170 -177 204 -177Q227 -177 241 -168T255 -142Q256 -123 237 -116T170
-109L194 -10Q117 6 75 63T33 210Q33 286 63 363T159 493T323 546Q422 546 489 481L419 398Q397 418 375 426T324 435Q247 435 214 364T180 204Q180 147 203 123T269 98Q297 98 321 107T378 136L431 43Q356 -9 276 -15Z" />
<glyph unicode="&#xe8;" glyph-name="egrave" horiz-adv-x="529" d="M516 302T423 256T175 194Q180 91 274 91Q309 91 341 103T411 140L463 54Q366 -16 257 -16Q148 -16 91 43T33 206Q33 286 63 364T159 494T327 546Q417 546 466 506T516 403Q516 302 423 256ZM281
292T327 321T374 397Q374 418 361 433T317 448Q260 448 227 401T182 284Q281 292 327 321ZM283 827L479 697L439 628L221 718L283 827Z" />
<glyph unicode="&#xe9;" glyph-name="eacute" horiz-adv-x="529" d="M516 302T423 256T175 194Q180 91 274 91Q309 91 341 103T411 140L463 54Q366 -16 257 -16Q148 -16 91 43T33 206Q33 286 63 364T159 494T327 546Q417 546 466 506T516 403Q516 302 423 256ZM281
292T327 321T374 397Q374 418 361 433T317 448Q260 448 227 401T182 284Q281 292 327 321ZM432 827L477 718L238 626L206 699L432 827Z" />
<glyph unicode="&#xea;" glyph-name="ecircumflex" horiz-adv-x="529" d="M516 302T423 256T175 194Q180 91 274 91Q309 91 341 103T411 140L463 54Q366 -16 257 -16Q148 -16 91 43T33 206Q33 286 63 364T159 494T327 546Q417 546 466 506T516 403Q516 302 423
256ZM281 292T327 321T374 397Q374 418 361 433T317 448Q260 448 227 401T182 284Q281 292 327 321ZM199 624L152 684L308 815H395L515 684L456 624L340 713L199 624Z" />
<glyph unicode="&#xeb;" glyph-name="edieresis" horiz-adv-x="529" d="M516 302T423 256T175 194Q180 91 274 91Q309 91 341 103T411 140L463 54Q366 -16 257 -16Q148 -16 91 43T33 206Q33 286 63 364T159 494T327 546Q417 546 466 506T516 403Q516 302 423 256ZM281
292T327 321T374 397Q374 418 361 433T317 448Q260 448 227 401T182 284Q281 292 327 321ZM191 644T172 662T153 710Q153 745 177 768T237 791Q268 791 287 773T306 726Q306 691 282 668T222 644Q191 644 172 662ZM415 644T396 662T377 710Q377 745 401 768T461
791Q492 791 510 773T529 726Q529 691 505 668T445 644Q415 644 396 662Z" />
<glyph unicode="&#xec;" glyph-name="igrave" horiz-adv-x="278" d="M246 530L172 0H32L106 530H246ZM144 827L340 697L300 628L82 718L144 827Z" />
<glyph unicode="&#xed;" glyph-name="iacute" horiz-adv-x="278" d="M246 530L172 0H32L106 530H246ZM293 827L338 718L99 626L67 699L293 827Z" />
<glyph unicode="&#xee;" glyph-name="icircumflex" horiz-adv-x="278" d="M246 530L172 0H32L106 530H246ZM60 624L13 684L169 815H256L376 684L317 624L201 713L60 624Z" />
<glyph unicode="&#xef;" glyph-name="idieresis" horiz-adv-x="278" d="M246 530L172 0H32L106 530H246ZM52 644T33 662T14 710Q14 745 38 768T98 791Q129 791 148 773T167 726Q167 691 143 668T83 644Q52 644 33 662ZM276 644T257 662T238 710Q238 745 262 768T322
791Q353 791 371 773T390 726Q390 691 366 668T306 644Q276 644 257 662Z" />
<glyph unicode="&#xf0;" glyph-name="eth" horiz-adv-x="574" d="M473 610T504 539T535 375Q535 264 502 175T402 35T243 -16Q181 -16 133 9T58 81T30 193Q30 261 57 326T138 435T268 478Q350 478 399 427Q392 478 374 516T318 590L250 530L165 573L236 637Q192
652 144 660L183 756Q260 741 321 715L404 793L470 728L403 666Q473 610 504 539ZM319 90T350 153T392 328Q358 377 295 377Q229 377 201 320T173 189Q173 90 252 90Q319 90 350 153Z" />
<glyph unicode="&#xf1;" glyph-name="ntilde" horiz-adv-x="570" d="M461 546T493 512T526 417Q526 401 523 381L470 0H330L380 355Q382 375 382 380Q382 407 372 418T343 429Q282 429 214 298L172 0H32L106 530H227L223 434Q259 487 305 516T404 546Q461 546
493 512ZM383 640T368 647T333 667Q320 676 312 680T294 685Q276 685 263 674T233 639L165 678Q191 727 226 757T300 788Q322 788 337 781T371 760Q383 751 391 747T408 742Q424 742 437 752T468 787L536 748Q510 698 475 669T403 640Q383 640 368 647Z" />
<glyph unicode="&#xf2;" glyph-name="ograve" horiz-adv-x="575" d="M147 -16T90 43T33 208Q33 288 62 365T156 494T324 546Q427 546 484 487T541 325Q541 245 513 167T420 37T251 -16Q147 -16 90 43ZM334 91T365 167T397 332Q397 388 377 414T315 440Q263 440
233 401T190 306T178 198Q178 143 198 117T260 91Q334 91 365 167ZM288 827L484 697L444 628L226 718L288 827Z" />
<glyph unicode="&#xf3;" glyph-name="oacute" horiz-adv-x="575" d="M147 -16T90 43T33 208Q33 288 62 365T156 494T324 546Q427 546 484 487T541 325Q541 245 513 167T420 37T251 -16Q147 -16 90 43ZM334 91T365 167T397 332Q397 388 377 414T315 440Q263 440
233 401T190 306T178 198Q178 143 198 117T260 91Q334 91 365 167ZM437 827L482 718L243 626L211 699L437 827Z" />
<glyph unicode="&#xf4;" glyph-name="ocircumflex" horiz-adv-x="575" d="M147 -16T90 43T33 208Q33 288 62 365T156 494T324 546Q427 546 484 487T541 325Q541 245 513 167T420 37T251 -16Q147 -16 90 43ZM334 91T365 167T397 332Q397 388 377 414T315 440Q263
440 233 401T190 306T178 198Q178 143 198 117T260 91Q334 91 365 167ZM204 624L157 684L313 815H400L520 684L461 624L345 713L204 624Z" />
<glyph unicode="&#xf5;" glyph-name="otilde" horiz-adv-x="575" d="M147 -16T90 43T33 208Q33 288 62 365T156 494T324 546Q427 546 484 487T541 325Q541 245 513 167T420 37T251 -16Q147 -16 90 43ZM334 91T365 167T397 332Q397 388 377 414T315 440Q263 440
233 401T190 306T178 198Q178 143 198 117T260 91Q334 91 365 167ZM378 640T363 647T328 667Q315 676 307 680T289 685Q271 685 258 674T228 639L160 678Q186 727 221 757T295 788Q317 788 332 781T366 760Q378 751 386 747T403 742Q419 742 432 752T463 787L531
748Q505 698 470 669T398 640Q378 640 363 647Z" />
<glyph unicode="&#xf6;" glyph-name="odieresis" horiz-adv-x="575" d="M147 -16T90 43T33 208Q33 288 62 365T156 494T324 546Q427 546 484 487T541 325Q541 245 513 167T420 37T251 -16Q147 -16 90 43ZM334 91T365 167T397 332Q397 388 377 414T315 440Q263
440 233 401T190 306T178 198Q178 143 198 117T260 91Q334 91 365 167ZM196 644T177 662T158 710Q158 745 182 768T242 791Q273 791 292 773T311 726Q311 691 287 668T227 644Q196 644 177 662ZM420 644T401 662T382 710Q382 745 406 768T466 791Q497 791 515 773T534
726Q534 691 510 668T450 644Q420 644 401 662Z" />
<glyph unicode="&#xf7;" glyph-name="divide" horiz-adv-x="505" d="M191 9T170 31T148 86Q148 125 175 152T242 180Q275 180 296 159T317 104Q317 65 290 37T224 9Q191 9 170 31ZM257 485T236 507T214 562Q214 601 241 628T308 656Q341 656 362 635T383 580Q383
541 356 513T290 485Q257 485 236 507ZM52 276L67 388H473L457 276H52Z" />
<glyph unicode="&#xf8;" glyph-name="oslash" horiz-adv-x="575" d="M499 477T520 431T541 326Q541 245 513 167T420 37T251 -16Q230 -16 212 -13L158 -134L57 -103L115 24Q75 53 54 100T33 208Q33 288 62 365T156 494T324 546Q345 546 363 543L418 664L520 633L460
506Q499 477 520 431ZM262 440T229 401T182 306T168 201Q168 147 185 123L333 439Q328 440 317 440Q262 440 229 401ZM313 91T346 130T393 224T407 328Q407 376 391 405L244 92Q249 91 259 91Q313 91 346 130Z" />
<glyph unicode="&#xf9;" glyph-name="ugrave" horiz-adv-x="566" d="M111 -16T78 19T44 116Q44 134 47 152L101 530H241L191 172Q189 152 189 145Q189 118 199 108T230 97Q261 97 289 122T346 190L394 530H534L460 0H338L343 83Q306 35 264 10T173 -16Q111 -16
78 19ZM286 827L482 697L442 628L224 718L286 827Z" />
<glyph unicode="&#xfa;" glyph-name="uacute" horiz-adv-x="566" d="M111 -16T78 19T44 116Q44 134 47 152L101 530H241L191 172Q189 152 189 145Q189 118 199 108T230 97Q261 97 289 122T346 190L394 530H534L460 0H338L343 83Q306 35 264 10T173 -16Q111 -16
78 19ZM435 827L480 718L241 626L209 699L435 827Z" />
<glyph unicode="&#xfb;" glyph-name="ucircumflex" horiz-adv-x="566" d="M111 -16T78 19T44 116Q44 134 47 152L101 530H241L191 172Q189 152 189 145Q189 118 199 108T230 97Q261 97 289 122T346 190L394 530H534L460 0H338L343 83Q306 35 264 10T173 -16Q111
-16 78 19ZM202 624L155 684L311 815H398L518 684L459 624L343 713L202 624Z" />
<glyph unicode="&#xfc;" glyph-name="udieresis" horiz-adv-x="566" d="M111 -16T78 19T44 116Q44 134 47 152L101 530H241L191 172Q189 152 189 145Q189 118 199 108T230 97Q261 97 289 122T346 190L394 530H534L460 0H338L343 83Q306 35 264 10T173 -16Q111
-16 78 19ZM194 644T175 662T156 710Q156 745 180 768T240 791Q271 791 290 773T309 726Q309 691 285 668T225 644Q194 644 175 662ZM418 644T399 662T380 710Q380 745 404 768T464 791Q495 791 513 773T532 726Q532 691 508 668T448 644Q418 644 399 662Z" />
<glyph unicode="&#xfd;" glyph-name="yacute" horiz-adv-x="502" d="M306 -3Q261 -103 184 -157T-11 -220L-15 -118Q62 -108 102 -82T174 0H124L35 530H182L226 95L396 530H543L306 -3ZM406 827L451 718L212 626L180 699L406 827Z" />
<glyph unicode="&#xfe;" glyph-name="thorn" horiz-adv-x="581" d="M465 546T506 493T548 339Q548 254 521 173T430 38T265 -16Q214 -16 171 0L142 -205L0 -222L135 741L277 757L238 484Q271 514 309 530T386 546Q465 546 506 493ZM309 90T341 128T389 224T404
339Q404 394 386 417T333 440Q277 440 224 375L186 103Q225 90 259 90Q309 90 341 128Z" />
<glyph unicode="&#xff;" glyph-name="ydieresis" horiz-adv-x="502" d="M306 -3Q261 -103 184 -157T-11 -220L-15 -118Q62 -108 102 -82T174 0H124L35 530H182L226 95L396 530H543L306 -3ZM165 644T146 662T127 710Q127 745 151 768T211 791Q242 791 261 773T280
726Q280 691 256 668T196 644Q165 644 146 662ZM389 644T370 662T351 710Q351 745 375 768T435 791Q466 791 484 773T503 726Q503 691 479 668T419 644Q389 644 370 662Z" />
<glyph unicode="&#x2013;" glyph-name="endash" horiz-adv-x="511" d="M22 257L37 369H503L487 257H22Z" />
<glyph unicode="&#x2014;" glyph-name="emdash" horiz-adv-x="781" d="M22 257L37 369H772L757 257H22Z" />
<glyph unicode="&#x2018;" glyph-name="quoteleft" horiz-adv-x="235" d="M117 468T97 487T76 535Q76 557 83 575T107 621L195 764H272L207 606Q234 585 234 549Q234 515 209 492T148 468Q117 468 97 487Z" />
<glyph unicode="&#x2019;" glyph-name="quoteright" horiz-adv-x="235" d="M217 763T237 744T258 696Q258 674 251 656T227 610L139 467H62L127 625Q100 646 100 682Q100 716 125 739T186 763Q217 763 237 744Z" />
<glyph unicode="&#x201a;" glyph-name="quotesinglbase" horiz-adv-x="235" d="M128 134T148 115T169 67Q169 45 162 27T138 -19L50 -162H-27L38 -4Q11 17 11 53Q11 87 36 110T97 134Q128 134 148 115Z" />
<glyph unicode="&#x201c;" glyph-name="quotedblleft" horiz-adv-x="434" d="M117 468T97 487T76 535Q76 557 83 575T107 621L195 764H272L207 606Q234 585 234 549Q234 515 209 492T148 468Q117 468 97 487ZM316 468T296 487T275 535Q275 557 282 575T306 621L394
764H471L406 606Q433 585 433 549Q433 515 408 492T347 468Q316 468 296 487Z" />
<glyph unicode="&#x201d;" glyph-name="quotedblright" horiz-adv-x="434" d="M217 763T237 744T258 696Q258 674 251 656T227 610L139 467H62L127 625Q100 646 100 682Q100 716 125 739T186 763Q217 763 237 744ZM416 763T436 744T457 696Q457 674 450 656T426
610L338 467H261L326 625Q299 646 299 682Q299 716 324 739T385 763Q416 763 436 744Z" />
<glyph unicode="&#x201e;" glyph-name="quotedblbase" horiz-adv-x="434" d="M128 134T148 115T169 67Q169 45 162 27T138 -19L50 -162H-27L38 -4Q11 17 11 53Q11 87 36 110T97 134Q128 134 148 115ZM327 134T347 115T368 67Q368 45 361 27T337 -19L249 -162H172L237
-4Q210 17 210 53Q210 87 235 110T296 134Q327 134 347 115Z" />
<glyph unicode="&#x2022;" glyph-name="bullet" horiz-adv-x="332" d="M243 474T275 442T308 358Q308 317 288 283T235 229T161 209Q110 209 78 241T46 325Q46 366 66 400T119 454T192 474Q243 474 275 442Z" />
<glyph unicode="&#x2039;" glyph-name="guilsinglleft" horiz-adv-x="346" d="M259 551L340 493L182 285L281 77L189 19L35 239L47 330L259 551Z" />
<glyph unicode="&#x203a;" glyph-name="guilsinglright" horiz-adv-x="346" d="M162 551L316 330L304 239L92 19L11 77L169 285L70 493L162 551Z" />
</font>
</defs>
</svg>
