<?xml version="1.0" standalone="no"?>
<!DOCTYPE svg PUBLIC "-//W3C//DTD SVG 1.1//EN" "http://www.w3.org/Graphics/SVG/1.1/DTD/svg11.dtd">
<svg xmlns="http://www.w3.org/2000/svg">
<defs >
<font id="FiraSans" horiz-adv-x="560" ><font-face
    font-family="Fira Sans Medium"
    units-per-em="1000"
    panose-1="2 11 6 3 5 0 0 2 0 4"
    ascent="935"
    descent="-265"
    alphabetic="0" />
<glyph unicode=" " glyph-name="space" horiz-adv-x="242" />
<glyph unicode="!" glyph-name="exclam" horiz-adv-x="233" d="M60 244L108 691H244L165 244H60ZM53 -15T33 6T12 58Q12 95 37 121T100 147Q132 147 152 127T172 75Q172 38 147 12T84 -15Q53 -15 33 6Z" />
<glyph unicode="&quot;" glyph-name="quotedbl" horiz-adv-x="413" d="M89 420L111 691H232L177 420H89ZM281 420L303 691H424L369 420H281Z" />
<glyph unicode="#" glyph-name="numbersign" horiz-adv-x="531" d="M542 443H470L415 240H477L464 152H391L350 0H245L286 152H163L122 0H17L58 152H-2L11 240H82L136 443H76L89 532H160L198 673H304L266 532H389L427 673H532L494 532H555L542 443ZM310 240L365
443H242L187 240H310Z" />
<glyph unicode="$" glyph-name="dollar" horiz-adv-x="533" d="M405 372T449 327T494 210Q494 130 440 69T278 -7L256 -158H159L180 -9Q119 -3 72 21T-9 83L67 153Q128 87 227 87Q286 87 324 115T362 196Q362 232 338 255T252 301Q163 332 121 376T79 485Q79 565
132 618T280 681L301 827H398L376 678Q466 664 534 599L465 530Q397 586 320 586Q269 586 239 565T209 500Q209 465 233 444T324 400Q405 372 449 327Z" />
<glyph unicode="%" glyph-name="percent" horiz-adv-x="836" d="M669 716L115 17L190 -36L744 663L669 716ZM153 335T112 376T71 483Q71 531 91 577T155 654T261 685Q327 685 368 645T410 539Q410 492 390 445T327 367T219 335Q153 335 112 376ZM273 415T293 454T313
537Q313 605 257 605Q207 605 187 567T167 485Q167 415 224 415Q273 415 293 454ZM528 -15T487 26T445 133Q445 180 466 227T530 304T636 335Q702 335 743 295T785 189Q785 142 765 95T702 17T594 -15Q528 -15 487 26ZM648 65T668 104T688 187Q688 255 632 255Q582
255 562 217T542 135Q542 65 599 65Q648 65 668 104Z" />
<glyph unicode="&amp;" glyph-name="ampersand" horiz-adv-x="741" d="M440 706T491 665T543 557Q543 498 503 455T380 364L512 218Q554 284 583 360L688 324Q639 224 577 147L673 44L570 -15L496 69Q446 27 392 6T272 -15Q209 -15 162 8T89 71T63 161Q63 227
97 277T219 378Q181 421 163 456T145 532Q145 577 167 616T237 681T353 706Q440 706 491 665ZM312 620T289 597T266 534Q266 508 278 484T315 432Q371 464 397 492T423 556Q423 586 404 603T352 620Q312 620 289 597ZM230 273T213 241T195 168Q195 126 220 103T292
80Q367 80 434 136L282 306Q230 273 213 241Z" />
<glyph unicode="&apos;" glyph-name="quotesingle" horiz-adv-x="221" d="M89 420L111 691H232L177 420H89Z" />
<glyph unicode="(" glyph-name="parenleft" horiz-adv-x="316" d="M370 796Q259 661 208 525T156 225Q156 129 177 54T242 -102L156 -151Q114 -78 89 -26T47 93T30 239Q30 366 60 467T146 657T294 854L370 796Z" />
<glyph unicode=")" glyph-name="parenright" horiz-adv-x="316" d="M225 778T250 726T293 607T310 460Q310 334 280 232T194 42T46 -154L-30 -96Q81 40 132 176T184 475Q184 571 163 646T98 802L183 851Q225 778 250 726Z" />
<glyph unicode="*" glyph-name="asterisk" horiz-adv-x="436" d="M464 547L315 519L401 411L302 343L248 473L159 343L77 410L192 520L51 547L98 651L225 590L226 741H345L304 591L442 654L464 547Z" />
<glyph unicode="+" glyph-name="plus" horiz-adv-x="508" d="M346 535L324 382H471L457 281H310L288 128H180L202 281H55L70 382H216L237 535H346Z" />
<glyph unicode="," glyph-name="comma" horiz-adv-x="241" d="M132 147T152 127T173 75Q173 54 165 34T136 -25L51 -172H-28L39 1Q13 22 13 57Q13 94 38 120T101 147Q132 147 152 127Z" />
<glyph unicode="-" glyph-name="hyphen" horiz-adv-x="398" d="M49 262L63 364H362L348 262H49Z" />
<glyph unicode="." glyph-name="period" horiz-adv-x="240" d="M53 -15T33 6T12 58Q12 95 37 121T100 147Q132 147 152 127T172 75Q172 38 147 12T84 -15Q53 -15 33 6Z" />
<glyph unicode="/" glyph-name="slash" horiz-adv-x="512" d="M392 813L500 787L144 -108L36 -81L392 813Z" />
<glyph unicode="0" glyph-name="zero" horiz-adv-x="565" d="M234 685T169 615T75 442T47 235Q47 114 98 50T245 -15Q350 -15 415 55T509 229T537 436Q537 556 486 620T339 685Q234 685 169 615ZM372 588T391 559T411 461Q411 376 395 289T343 142T252 82Q213
82 194 112T174 210Q174 295 190 382T242 528T333 588Q372 588 391 559Z" />
<glyph unicode="1" glyph-name="one" horiz-adv-x="442" d="M406 673L312 0H187L263 535L102 444L59 539L294 673H406Z" />
<glyph unicode="2" glyph-name="two" horiz-adv-x="499" d="M376 685T428 637T481 511Q481 458 456 407T361 283T154 99L437 101L409 0H-4L8 96Q163 235 232 304T325 415T350 502Q350 542 327 563T266 584Q227 584 195 567T127 512L54 580Q104 633 160 659T283
685Q376 685 428 637Z" />
<glyph unicode="3" glyph-name="three" horiz-adv-x="502" d="M375 685T425 640T475 525Q475 467 438 422T322 355Q379 350 415 315T451 217Q451 163 422 110T333 21T183 -15Q115 -15 64 10T-21 84L59 149Q85 115 116 100T186 85Q247 85 285 124T323 227Q323 270
297 288T218 306H163L190 397H225Q286 397 317 430T349 512Q349 548 327 567T266 587Q227 587 193 573T123 527L65 602Q116 644 169 664T284 685Q375 685 425 640Z" />
<glyph unicode="4" glyph-name="four" horiz-adv-x="542" d="M516 252L502 154H423L401 0H278L299 154H17L29 242L280 686L386 645L167 252H314L351 421H460L436 252H516Z" />
<glyph unicode="5" glyph-name="five" horiz-adv-x="512" d="M477 578H228L204 412Q253 436 307 436Q383 436 427 388T471 252Q471 192 442 130T351 27T194 -15Q126 -15 78 10T-7 80L72 147Q96 115 126 100T197 84Q246 84 278 108T326 170T342 249Q342 344 255
344Q230 344 209 339T162 321H70L120 673H505L477 578Z" />
<glyph unicode="6" glyph-name="six" horiz-adv-x="542" d="M419 448T463 401T508 267Q508 205 481 140T395 30T251 -15Q145 -15 95 48T44 224Q44 343 83 449T196 620T372 685Q455 685 512 640L456 563Q418 590 367 590Q303 590 256 533T189 377Q259 448 346 448Q419
448 463 401ZM302 80T330 110T370 182T382 266Q382 314 364 334T310 355Q274 355 240 336T177 282Q172 245 172 206Q172 139 192 110T256 80Q302 80 330 110Z" />
<glyph unicode="7" glyph-name="seven" horiz-adv-x="449" d="M484 673L472 583L145 -13L32 25L339 574H60L74 673H484Z" />
<glyph unicode="8" glyph-name="eight" horiz-adv-x="559" d="M513 303T513 203Q513 142 479 92T383 14T242 -15Q174 -15 125 8T49 71T22 164Q22 291 175 352Q95 403 95 490Q95 542 123 587T205 658T331 685Q418 685 476 643T534 528Q534 474 503 433T401 359Q513
303 513 203ZM269 595T243 565T217 494Q217 458 237 438T302 399L319 393Q373 424 392 455T411 522Q411 557 390 576T326 595Q269 595 243 565ZM313 80T349 115T386 206Q386 240 363 262T281 306L254 315Q151 266 151 170Q151 128 177 104T251 80Q313 80 349 115Z"
/>
<glyph unicode="9" glyph-name="nine" horiz-adv-x="536" d="M415 685T469 627T524 470Q524 295 428 162T73 -26L55 67Q191 101 268 158T373 311Q312 238 222 238Q176 238 139 260T80 324T59 421Q59 485 86 545T172 645T314 685Q415 685 469 627ZM297 331T330
351T391 407Q396 454 396 476Q396 537 375 563T309 590Q243 590 214 539T185 423Q185 377 205 354T261 331Q297 331 330 351Z" />
<glyph unicode=":" glyph-name="colon" horiz-adv-x="240" d="M53 -15T33 6T12 58Q12 95 37 121T100 147Q132 147 152 127T172 75Q172 38 147 12T84 -15Q53 -15 33 6ZM103 341T83 362T62 414Q62 451 87 477T150 503Q182 503 202 483T222 431Q222 394 197 368T134
341Q103 341 83 362Z" />
<glyph unicode=";" glyph-name="semicolon" horiz-adv-x="243" d="M133 147T153 127T174 75Q174 54 166 34T137 -25L52 -172H-27L40 1Q14 22 14 57Q14 94 39 120T102 147Q133 147 153 127ZM106 341T86 362T65 414Q65 451 90 477T153 503Q185 503 205 483T225 431Q225
394 200 368T137 341Q106 341 86 362Z" />
<glyph unicode="&lt;" glyph-name="less" horiz-adv-x="504" d="M461 565L496 464L155 332L453 198L398 101L42 273L58 392L461 565Z" />
<glyph unicode="=" glyph-name="equal" horiz-adv-x="503" d="M69 381L84 483H480L465 381H69ZM297 435L312 537H708L693 435H297Z" />
<glyph unicode="&gt;" glyph-name="greater" horiz-adv-x="502" d="M123 565L479 392L463 273L60 101L28 203L367 337L69 470L123 565Z" />
<glyph unicode="?" glyph-name="question" horiz-adv-x="463" d="M387 706T435 664T483 558Q483 508 464 475T418 422T346 379Q311 360 292 347T259 315T246 269Q246 259 249 244L137 226Q128 250 128 276Q128 321 146 352T189 401T255 442Q304 468 327 489T350
548Q350 575 332 589T280 604Q209 604 141 536L68 604Q165 706 298 706Q387 706 435 664ZM151 -15T131 6T110 58Q110 95 135 121T198 147Q230 147 250 127T270 75Q270 38 245 12T182 -15Q151 -15 131 6Z" />
<glyph unicode="@" glyph-name="at" horiz-adv-x="1012" d="M694 706T782 660T916 532T962 350Q962 273 937 194T857 60T719 6Q665 6 633 35T595 106Q539 9 445 9Q373 9 332 56T291 184Q291 257 317 329T401 449T552 498Q637 498 712 453L673 165Q672 157 672
143Q672 118 681 105T715 92Q759 92 788 133T831 235T845 355Q845 477 773 543T564 609Q424 609 336 543T209 380T170 183Q170 95 206 27T311 -81T478 -120Q571 -120 670 -85L692 -178Q579 -218 469 -218Q344 -218 249 -167T102 -25T50 184Q50 303 105 423T277
625T571 706Q694 706 782 660ZM503 94T526 116T564 166L598 403Q575 413 545 413Q471 413 439 342T407 179Q407 136 422 115T468 94Q503 94 526 116Z" />
<glyph unicode="A" glyph-name="A" horiz-adv-x="574" d="M405 0L385 160H157L93 0H-43L267 691H427L542 0H405ZM197 260H373L332 595L197 260Z" />
<glyph unicode="B" glyph-name="B" horiz-adv-x="605" d="M487 354T525 321T563 220Q563 120 490 60T250 0H43L140 691H337Q450 691 514 653T578 535Q578 466 535 423T425 365Q487 354 525 321ZM256 594L230 407H309Q372 407 408 438T444 524Q444 563 417 578T339
594H256ZM353 99T390 133T428 228Q428 315 310 315H217L187 99H259Q353 99 390 133Z" />
<glyph unicode="C" glyph-name="C" d="M514 706T591 629L519 559Q490 582 461 593T398 604Q323 604 275 551T206 421T185 265Q185 176 221 134T320 91Q361 91 395 106T468 149L521 67Q479 31 425 8T304 -15Q187 -15 118 59T49 269Q49 371 85 471T199 639T394 706Q514
706 591 629Z" />
<glyph unicode="D" glyph-name="D" horiz-adv-x="641" d="M447 691T531 634T615 429Q615 310 577 214T453 59T231 0H43L140 691H307Q447 691 531 634ZM257 592L188 99H250Q334 99 386 148T459 272T481 430Q481 525 438 558T318 592H257Z" />
<glyph unicode="E" glyph-name="E" horiz-adv-x="523" d="M536 691L508 593H257L229 400H448L435 302H216L188 99H457L443 0H43L140 691H536Z" />
<glyph unicode="F" glyph-name="F" horiz-adv-x="482" d="M526 691L499 593H257L228 386H438L425 288H214L174 0H43L140 691H526Z" />
<glyph unicode="G" glyph-name="G" horiz-adv-x="630" d="M541 706T623 622L547 555Q513 582 483 594T411 606Q331 606 280 552T206 415T183 246Q183 162 216 124T316 86Q375 86 428 114L454 293H352V391H596L550 55Q438 -15 305 -15Q181 -15 115 55T48 259Q48
368 86 470T207 639T412 706Q541 706 623 622Z" />
<glyph unicode="H" glyph-name="H" horiz-adv-x="664" d="M173 0H43L140 691H271L231 414H474L513 691H644L547 0H416L459 309H217L173 0Z" />
<glyph unicode="I" glyph-name="I" horiz-adv-x="291" d="M271 691L174 0H43L140 691H271Z" />
<glyph unicode="J" glyph-name="J" horiz-adv-x="306" d="M206 99Q191 -12 132 -68T-28 -155L-53 -59Q-7 -42 19 -20T57 32T76 108L159 691H289L206 99Z" />
<glyph unicode="K" glyph-name="K" horiz-adv-x="605" d="M43 0L140 691H271L174 0H43ZM423 0L231 369L510 691H654L371 369L575 0H423Z" />
<glyph unicode="L" glyph-name="L" horiz-adv-x="499" d="M271 691L189 108H461L432 0H43L140 691H271Z" />
<glyph unicode="M" glyph-name="M" horiz-adv-x="774" d="M690 0H563L586 292Q598 459 616 578L422 75H297L234 576Q227 457 191 283L136 0H9L160 691H321L377 202L558 691H733L690 0Z" />
<glyph unicode="N" glyph-name="N" horiz-adv-x="664" d="M547 0H380L221 580Q222 508 218 438T200 276L162 0H43L140 691H307L468 111Q467 135 467 180Q467 274 480 373L526 691H644L547 0Z" />
<glyph unicode="O" glyph-name="O" horiz-adv-x="683" d="M522 706T590 633T658 424Q658 321 623 221T509 53T306 -15Q185 -15 117 58T49 266Q49 368 84 468T198 637T401 706Q522 706 590 633ZM316 605T269 549T203 413T184 258Q184 86 313 86Q391 86 437 142T503
278T522 434Q522 523 490 564T393 605Q316 605 269 549Z" />
<glyph unicode="P" glyph-name="P" horiz-adv-x="583" d="M459 691T524 644T590 503Q590 434 560 375T462 279T289 241H208L174 0H43L140 691H340Q459 691 524 644ZM379 340T416 386T453 499Q453 549 422 571T329 594H257L222 340H289Q379 340 416 386Z" />
<glyph unicode="Q" glyph-name="Q" horiz-adv-x="681" d="M658 303T611 195T461 40Q520 38 563 22T642 -24L549 -128Q499 -69 447 -42T306 -15Q185 -15 117 58T49 266Q49 368 84 468T198 637T401 706Q522 706 590 633T658 424Q658 303 611 195ZM184 86T313 86Q391
86 438 143T503 281T522 443Q522 605 393 605Q316 605 269 548T203 411T184 252Q184 86 313 86Z" />
<glyph unicode="R" glyph-name="R" horiz-adv-x="603" d="M588 443T550 386T422 298L557 0H413L299 277H213L174 0H43L140 691H342Q464 691 526 646T588 513Q588 443 550 386ZM226 372H310Q385 372 418 412T452 508Q452 554 423 574T330 595H257L226 372Z" />
<glyph unicode="S" glyph-name="S" horiz-adv-x="552" d="M465 706T550 619L476 547Q444 577 410 591T334 605Q280 605 247 580T213 512Q213 488 224 472T260 442T335 412Q422 385 468 341T514 219Q514 160 484 107T390 19T229 -15Q79 -15 -9 82L69 158Q102 124
141 107T232 89Q299 89 337 119T376 203Q376 241 351 264T259 311Q164 343 121 386T77 499Q77 551 106 598T192 676T331 706Q465 706 550 619Z" />
<glyph unicode="T" glyph-name="T" horiz-adv-x="522" d="M578 691L549 586H371L289 0H158L240 586H56L71 691H578Z" />
<glyph unicode="U" glyph-name="U" horiz-adv-x="648" d="M573 224Q558 116 483 51T287 -15Q177 -15 120 38T62 184Q62 206 65 228L130 691H261L196 230Q193 208 193 189Q193 138 218 113T295 88Q360 88 396 125T443 235L507 691H638L573 224Z" />
<glyph unicode="V" glyph-name="V" horiz-adv-x="556" d="M620 691L321 0H166L55 691H191L258 117L485 691H620Z" />
<glyph unicode="W" glyph-name="W" horiz-adv-x="829" d="M872 691L650 0H480L454 551L270 0H105L78 691H205L210 105L404 691H543L570 105L748 691H872Z" />
<glyph unicode="X" glyph-name="X" horiz-adv-x="554" d="M595 691L367 372L517 0H376L280 285L105 0H-38L212 368L76 691H217L298 449L453 691H595Z" />
<glyph unicode="Y" glyph-name="Y" horiz-adv-x="566" d="M628 691L349 262L312 0H180L217 261L58 691H197L297 370L487 691H628Z" />
<glyph unicode="Z" glyph-name="Z" horiz-adv-x="526" d="M-15 0L-1 101L385 586H101L115 691H549L535 589L152 108H470L441 0H-15Z" />
<glyph unicode="[" glyph-name="bracketleft" horiz-adv-x="315" d="M359 820L345 720H229L125 -21H241L227 -120H-8L124 820H359Z" />
<glyph unicode="\" glyph-name="backslash" horiz-adv-x="512" d="M270 811L376 -84L265 -108L160 787L270 811Z" />
<glyph unicode="]" glyph-name="bracketright" horiz-adv-x="315" d="M348 820L216 -120H-20L-6 -21H110L215 721H99L113 820H348Z" />
<glyph unicode="^" glyph-name="asciicircum" horiz-adv-x="542" d="M409 842L552 527H425L339 741L193 527H64L295 842H409Z" />
<glyph unicode="_" glyph-name="underscore" horiz-adv-x="512" d="M-47 -158L-33 -55H455L441 -158H-47Z" />
<glyph unicode="`" glyph-name="grave" horiz-adv-x="315" d="M151 820L344 694L307 631L94 720L151 820Z" />
<glyph unicode="a" glyph-name="a" horiz-adv-x="571" d="M435 544T533 493L482 138Q480 120 480 115Q480 98 486 88T510 71L474 -13Q381 -3 365 75Q299 -15 207 -15Q126 -15 82 41T37 192Q37 274 67 355T164 490T331 544Q435 544 533 493ZM274 450T238 411T186
312T169 192Q169 82 242 82Q276 82 304 103T362 166L400 436Q368 450 329 450Q274 450 238 411Z" />
<glyph unicode="b" glyph-name="b" horiz-adv-x="580" d="M458 544T500 490T543 337Q543 252 515 172T419 39T245 -15Q194 -15 147 -6T42 25L143 741L270 755L232 481Q300 544 381 544Q458 544 500 490ZM303 448T275 430T218 380L179 95Q219 81 257 81Q310 81
345 121T396 220T412 339Q412 448 336 448Q303 448 275 430Z" />
<glyph unicode="c" glyph-name="c" horiz-adv-x="471" d="M420 544T484 481L420 405Q397 426 374 434T323 443Q242 443 207 369T171 201Q171 142 195 116T265 89Q294 89 319 98T378 128L426 43Q343 -15 251 -15Q150 -15 94 44T38 208Q38 284 68 361T162 491T322
544Q420 544 484 481Z" />
<glyph unicode="d" glyph-name="d" horiz-adv-x="586" d="M577 740L473 0H362L363 81Q300 -15 204 -15Q123 -15 80 41T37 197Q37 275 63 355T146 489T288 544Q366 544 415 486L453 753L577 740ZM262 448T230 407T183 308T169 193Q169 82 241 82Q279 82 310 110T374
190L403 398Q385 423 364 435T314 448Q262 448 230 407Z" />
<glyph unicode="e" glyph-name="e" horiz-adv-x="525" d="M509 302T416 256T167 194Q171 84 270 84Q306 84 339 95T408 133L457 53Q361 -15 256 -15Q150 -15 94 43T38 205Q38 285 67 362T161 492T326 544Q384 544 425 525T488 474T509 404Q509 302 416 256ZM279
289T329 318T379 399Q379 420 365 436T319 453Q256 453 221 403T173 279Q279 289 329 318Z" />
<glyph unicode="f" glyph-name="f" horiz-adv-x="339" d="M306 658T286 640T261 582L253 529H378L352 437H240L185 45Q174 -33 146 -82T73 -161T-39 -218L-73 -124Q-32 -107 -7 -89T35 -40T59 42L115 437H29L42 529H127L136 590Q146 665 198 710T336 755Q410 755
473 714L428 634Q390 658 345 658Q306 658 286 640Z" />
<glyph unicode="g" glyph-name="g" horiz-adv-x="578" d="M443 544T539 493L470 28Q451 -104 387 -162T208 -220Q161 -220 110 -205T17 -165L61 -76Q94 -95 131 -106T205 -118Q261 -118 298 -91T346 16L354 74Q325 40 288 20T209 0Q128 0 83 55T38 202Q38 285
69 363T167 492T336 544Q443 544 539 493ZM278 450T241 413T187 320T170 204Q170 148 190 123T245 97Q279 97 308 119T367 182L407 436Q388 444 372 447T334 450Q278 450 241 413Z" />
<glyph unicode="h" glyph-name="h" horiz-adv-x="574" d="M455 544T488 510T521 414Q521 392 519 380L465 0H339L390 359Q392 379 392 385Q392 415 381 427T349 439Q279 439 206 303L165 0H39L143 740L270 753L225 436Q257 486 301 515T396 544Q455 544 488 510Z" />
<glyph unicode="i" glyph-name="i" horiz-adv-x="278" d="M239 529L165 0H39L113 529H239ZM164 642T144 661T124 711Q124 748 149 772T211 797Q243 797 263 778T283 727Q283 691 258 667T196 642Q164 642 144 661Z" />
<glyph unicode="j" glyph-name="j" horiz-adv-x="277" d="M-87 -126Q-46 -108 -21 -90T21 -40T44 42L113 529H239L171 45Q160 -33 131 -82T59 -161T-54 -218L-87 -126ZM164 642T144 661T124 711Q124 748 149 772T211 797Q243 797 263 778T283 727Q283 691 258
667T196 642Q164 642 144 661Z" />
<glyph unicode="k" glyph-name="k" horiz-adv-x="557" d="M228 449Q303 544 405 544Q466 544 503 510T541 420Q541 357 503 310T389 235L496 0H357L247 257Q335 283 373 317T411 401Q411 425 398 438T360 451Q322 451 282 419T210 323L165 0H39L143 741L270 755L228 449Z" />
<glyph unicode="l" glyph-name="l" horiz-adv-x="288" d="M177 125L176 114Q176 100 182 94T200 88Q210 88 230 94L249 4Q208 -15 161 -15Q108 -15 79 13T50 97Q50 118 52 130L138 741L266 755L177 125Z" />
<glyph unicode="m" glyph-name="m" horiz-adv-x="839" d="M723 544T755 510T787 415Q787 393 785 381L731 0H605L656 359Q658 379 658 386Q658 416 647 427T614 439Q557 439 491 308L447 0H321L372 359Q374 379 374 386Q374 416 363 427T330 439Q273 439 207 304L165
0H39L113 529H222L217 436Q291 544 386 544Q432 544 463 517T502 441Q536 490 579 517T669 544Q723 544 755 510Z" />
<glyph unicode="n" glyph-name="n" horiz-adv-x="573" d="M456 544T488 510T521 414Q521 398 518 378L465 0H339L390 359Q392 377 392 384Q392 414 380 426T347 439Q279 439 208 303L165 0H39L113 529H222L217 431Q295 544 399 544Q456 544 488 510Z" />
<glyph unicode="o" glyph-name="o" horiz-adv-x="576" d="M150 -15T95 44T39 208Q39 286 67 363T160 492T324 544Q426 544 481 485T537 322Q537 244 509 167T417 38T252 -15Q150 -15 95 44ZM314 82T347 123T393 223T406 336Q406 447 317 447Q262 447 229 407T183
309T169 198Q169 82 259 82Q314 82 347 123Z" />
<glyph unicode="p" glyph-name="p" horiz-adv-x="580" d="M113 529H223L222 467Q294 544 380 544Q457 544 500 490T543 337Q543 253 515 173T423 39T262 -15Q212 -15 164 1L134 -205L8 -220L113 529ZM311 81T346 121T397 220T413 339Q413 448 336 448Q303 448
275 430T218 380L179 95Q219 81 258 81Q311 81 346 121Z" />
<glyph unicode="q" glyph-name="q" horiz-adv-x="575" d="M348 54Q327 26 289 6T207 -15Q126 -15 82 41T37 192Q37 275 67 356T164 490T332 544Q438 544 536 493L436 -205L310 -220L348 54ZM277 82T305 103T363 166L402 436Q384 444 368 447T330 450Q275 450 239
411T186 312T169 192Q169 82 243 82Q277 82 305 103Z" />
<glyph unicode="r" glyph-name="r" horiz-adv-x="387" d="M396 543T423 535L386 412Q362 418 342 418Q295 418 262 378T202 261L165 0H39L113 529H222L218 426Q247 484 286 513T370 543Q396 543 423 535Z" />
<glyph unicode="s" glyph-name="s" horiz-adv-x="468" d="M375 544T452 477L394 406Q334 449 267 449Q226 449 204 434T181 393Q181 369 202 356T285 322Q358 299 393 262T428 163Q428 110 400 70T319 7T198 -15Q132 -15 79 8T-10 67L56 136Q120 81 201 81Q251
81 275 101T300 149Q300 170 291 183T259 207T192 233Q119 256 87 291T54 383Q54 425 78 462T151 521T267 544Q375 544 452 477Z" />
<glyph unicode="t" glyph-name="t" horiz-adv-x="367" d="M197 159Q195 139 195 134Q195 110 205 100T237 89Q265 89 305 108L341 23Q280 -15 208 -15Q141 -15 105 20T68 121Q68 139 71 160L110 437H28L41 529H128L161 649L267 661L249 529H371L344 437H236L197 159Z" />
<glyph unicode="u" glyph-name="u" horiz-adv-x="569" d="M119 -15T86 19T52 115Q52 133 55 152L108 529H234L183 168Q181 148 181 140Q181 111 192 99T227 87Q262 87 293 115T356 189L404 529H530L456 0H347L352 87Q315 38 273 12T181 -15Q119 -15 86 19Z" />
<glyph unicode="v" glyph-name="v" horiz-adv-x="496" d="M532 529L289 0H138L39 529H175L227 103L398 529H532Z" />
<glyph unicode="w" glyph-name="w" horiz-adv-x="726" d="M751 529L565 0H408L387 415L248 0H92L50 529H176L188 94L340 529H469L492 94L630 529H751Z" />
<glyph unicode="x" glyph-name="x" horiz-adv-x="493" d="M511 529L325 277L459 0H320L239 207L102 0H-40L173 283L52 529H191L256 347L370 529H511Z" />
<glyph unicode="y" glyph-name="y" horiz-adv-x="498" d="M295 -3Q252 -100 178 -154T-9 -218L-13 -125Q64 -113 103 -86T176 0H131L39 529H171L223 88L403 529H534L295 -3Z" />
<glyph unicode="z" glyph-name="z" horiz-adv-x="441" d="M452 529L440 437L150 100H396L370 0H-20L-8 92L282 429H62L76 529H452Z" />
<glyph unicode="{" glyph-name="braceleft" horiz-adv-x="315" d="M351 746Q305 746 284 731T258 680L228 470Q220 412 196 387T121 347Q159 337 177 318T196 257Q196 237 194 225L164 15Q163 9 163 -1Q163 -26 179 -36T237 -46L228 -138Q134 -138 90 -107T45
-10Q45 11 47 22L74 220Q77 237 77 250Q77 276 64 286T16 297L32 402Q70 402 88 421T112 484L140 683Q148 739 170 772T237 822T361 838L351 746Z" />
<glyph unicode="|" glyph-name="bar" horiz-adv-x="380" d="M324 809L197 -104H81L208 809H324Z" />
<glyph unicode="}" glyph-name="braceright" horiz-adv-x="315" d="M-12 -46Q34 -46 55 -31T81 20L111 230Q119 288 143 313T218 353Q180 363 162 382T143 443Q143 463 145 475L175 685Q176 691 176 701Q176 726 160 736T102 746L111 838Q205 838 249 807T294
710Q294 689 292 678L265 480Q262 464 262 450Q262 424 275 414T323 403L307 298Q269 298 251 279T227 216L199 17Q191 -39 169 -72T102 -122T-22 -138L-12 -46Z" />
<glyph unicode="~" glyph-name="asciitilde" horiz-adv-x="494" d="M294 240T273 249T229 276Q211 289 200 295T174 301Q148 301 130 286T94 245L26 287Q96 398 188 398Q217 398 236 389T279 363Q298 350 310 344T337 338Q362 338 381 352T416 390L483 348Q453
300 415 270T324 240Q294 240 273 249Z" />
<glyph unicode="&#xa0;" glyph-name="uni00A0" horiz-adv-x="242" />
<glyph unicode="&#xa1;" glyph-name="exclamdown" horiz-adv-x="232" d="M102 341T82 362T61 414Q61 451 86 477T149 503Q181 503 201 483T221 431Q221 394 196 368T133 341Q102 341 82 362ZM168 241L121 -204H-15L63 241H168Z" />
<glyph unicode="&#xa2;" glyph-name="cent" horiz-adv-x="471" d="M426 43Q355 -6 281 -13L260 -158H163L185 -7Q115 11 77 67T38 208Q38 275 61 345T135 468T262 538L283 688H379L358 542Q434 531 484 481L420 405Q397 426 374 434T323 443Q242 443 207 369T171
201Q171 142 195 116T265 89Q294 89 319 98T378 128L426 43Z" />
<glyph unicode="&#xa3;" glyph-name="sterling" horiz-adv-x="522" d="M330 586T303 561T270 488L256 388H448L438 316H246L233 222Q226 174 210 147T155 99H462L434 0H-5L7 96Q45 108 64 123T93 161T108 223L121 316H55L66 388H131L146 493Q158 581 215 633T367
685Q487 685 548 591L465 535Q447 563 426 574T374 586Q330 586 303 561Z" />
<glyph unicode="&#xa4;" glyph-name="currency" d="M497 273T462 221L538 146L475 83L397 159Q346 128 279 128Q215 128 164 160L86 83L23 146L100 223Q66 274 66 341Q66 406 99 459L23 538L86 601L164 522Q215 554 279 554Q346 554 397 523L475 601L538 538L462
461Q497 409 497 341Q497 273 462 221ZM334 219T361 251T389 342Q389 400 362 432T281 464Q228 464 200 432T172 342Q172 283 200 251T281 219Q334 219 361 251Z" />
<glyph unicode="&#xa5;" glyph-name="yen" horiz-adv-x="546" d="M605 673L379 349H482L472 276H338L327 196H460L450 124H317L300 0H173L190 124H57L67 196H200L211 276H78L88 349H191L56 673H190L291 385L472 673H605Z" />
<glyph unicode="&#xa6;" glyph-name="brokenbar" horiz-adv-x="380" d="M324 809L273 443H157L208 809H324ZM248 262L197 -104H81L132 262H248Z" />
<glyph unicode="&#xa7;" glyph-name="section" horiz-adv-x="534" d="M413 430T447 397T481 314Q481 269 457 236T384 174Q427 137 427 81Q427 39 404 3T331 -55T205 -78Q153 -78 108 -63T28 -23L79 55Q136 15 207 15Q259 15 281 32T304 76Q304 95 295 107T265
129T198 155Q128 177 96 208T64 291Q64 378 164 430Q120 468 120 524Q120 598 179 640T331 683Q435 683 514 625L461 552Q402 592 333 592Q285 592 264 575T242 531Q242 505 263 489T345 451Q413 430 447 397ZM292 225T317 213Q343 234 354 252T365 292Q365 317
347 334T282 368Q254 377 225 391Q200 370 191 352T181 311Q181 286 196 270T250 240Q292 225 317 213Z" />
<glyph unicode="&#xa8;" glyph-name="dieresis" horiz-adv-x="420" d="M129 647T111 664T93 708Q93 741 115 762T171 784Q199 784 217 767T235 723Q235 690 213 669T157 647Q129 647 111 664ZM348 647T330 664T312 708Q312 741 334 762T390 784Q418 784 436 767T454
723Q454 690 432 669T376 647Q348 647 330 664Z" />
<glyph unicode="&#xa9;" glyph-name="copyright" horiz-adv-x="810" d="M520 758T594 717T712 601T755 433Q755 340 712 266T595 151T430 109Q340 109 265 150T146 266T102 433Q102 526 145 600T264 716T430 758Q520 758 594 717ZM359 691T302 659T213 567T180
433Q180 358 212 300T301 209T430 177Q501 177 557 209T646 299T678 433Q678 508 646 567T557 658T430 691Q359 691 302 659ZM502 628T556 582L514 527Q480 553 440 553Q403 553 381 524T358 434Q358 374 379 345T439 316Q463 316 482 323T521 347L559 290Q506
240 433 240Q354 240 308 291T261 434Q261 494 283 538T345 605T432 628Q502 628 556 582Z" />
<glyph unicode="&#xaa;" glyph-name="ordfeminine" horiz-adv-x="487" d="M134 267T101 300T67 384Q67 445 116 486T280 527H327L329 543Q331 557 331 562Q331 586 317 595T271 605Q223 605 154 583L134 662Q215 691 296 691Q371 691 408 662T445 569Q445 560
443 538L423 393Q422 387 422 377Q422 366 427 359T445 346L412 269Q377 272 355 285T322 326Q273 267 192 267Q134 267 101 300ZM277 352T309 394L318 460H281Q232 460 210 442T188 393Q188 352 229 352Q277 352 309 394ZM12 0L27 102H416L401 0H12Z" />
<glyph unicode="&#xab;" glyph-name="guillemotleft" horiz-adv-x="596" d="M259 547L332 494L173 286L274 77L192 25L40 244L51 327L259 547ZM512 547L585 494L426 286L527 77L445 25L293 244L304 327L512 547Z" />
<glyph unicode="&#xac;" glyph-name="logicalnot" horiz-adv-x="508" d="M471 377L436 126H322L343 275H55L69 377H471Z" />
<glyph unicode="&#xad;" glyph-name="uni00AD" horiz-adv-x="398" d="M49 262L63 364H362L348 262H49Z" />
<glyph unicode="&#xae;" glyph-name="registered" horiz-adv-x="639" d="M426 755T486 720T582 624T617 488Q617 414 583 354T487 259T351 224Q277 224 217 258T121 353T86 488Q86 562 121 623T216 720T351 755Q426 755 486 720ZM409 283T454 309T524 381T549
488Q549 549 524 596T454 669T351 696Q295 696 250 670T180 596T154 488Q154 428 179 382T249 309T351 283Q409 283 454 309ZM462 520T446 501T401 471L475 355H400L341 459H318V355H253V634H334Q462 634 462 548Q462 520 446 501ZM318 511H347Q396 511 396 549Q396
585 346 585H318V511Z" />
<glyph unicode="&#xaf;" glyph-name="overscore" horiz-adv-x="348" d="M373 661H86L98 752H386L373 661Z" />
<glyph unicode="&#xb0;" glyph-name="degree" horiz-adv-x="514" d="M167 375T125 413T83 518Q83 572 108 615T175 682T270 706Q336 706 378 668T420 562Q420 509 395 466T328 399T233 375Q167 375 125 413ZM279 453T303 483T328 560Q328 593 312 610T266 628Q224
628 200 598T175 520Q175 487 191 470T237 453Q279 453 303 483Z" />
<glyph unicode="&#xb1;" glyph-name="plusminus" horiz-adv-x="508" d="M19 0L34 102H430L415 0H19ZM353 585L331 432H478L464 331H317L295 178H187L209 331H62L77 432H223L244 585H353Z" />
<glyph unicode="&#xb2;" glyph-name="uni00B2" horiz-adv-x="392" d="M320 749T355 718T390 637Q390 595 366 558T304 488T191 398H368L347 321H66L76 394L114 425Q206 502 247 546T289 631Q289 651 277 661T242 672Q218 672 199 662T156 628L100 677Q167 749
258 749Q320 749 355 718Z" />
<glyph unicode="&#xb3;" glyph-name="uni00B3" horiz-adv-x="392" d="M322 749T357 721T392 649Q392 607 365 581T288 542Q328 538 352 516T377 455Q377 413 354 380T289 329T199 310Q150 310 114 327T55 376L115 425Q150 386 199 386Q234 386 256 406T278 461Q278
486 263 496T214 506H177L198 574H220Q253 574 273 591T293 636Q293 655 281 665T245 675Q199 675 152 639L108 694Q176 749 260 749Q322 749 357 721Z" />
<glyph unicode="&#xb4;" glyph-name="acute" horiz-adv-x="316" d="M311 820L351 720L118 630L89 695L311 820Z" />
<glyph unicode="&#xb5;" glyph-name="uni00B5" horiz-adv-x="577" d="M475 127T475 82Q475 38 482 -2L365 -13Q358 9 356 28T354 76Q297 -11 218 -11Q171 -11 147 18Q152 -4 152 -28Q152 -59 145 -107L131 -204L8 -217L113 529H239L187 157Q185 143 185 138Q185
85 237 85Q304 85 355 166L405 529H531L482 179Q475 127 475 82Z" />
<glyph unicode="&#xb6;" glyph-name="paragraph" horiz-adv-x="755" d="M689 691L563 -204L452 -219L565 597H461L349 -204L238 -219L306 272Q206 276 155 323T104 450Q104 525 140 579T241 662T390 691H689Z" />
<glyph unicode="&#xb7;" glyph-name="middot" horiz-adv-x="239" d="M87 228T67 249T46 301Q46 338 71 364T134 390Q166 390 186 370T206 318Q206 281 181 255T118 228Q87 228 67 249Z" />
<glyph unicode="&#xb8;" glyph-name="cedilla" horiz-adv-x="296" d="M122 -52Q165 -56 187 -79T209 -138Q209 -167 193 -193T144 -236T63 -253Q3 -253 -38 -223L0 -162Q27 -178 61 -178Q84 -178 98 -169T114 -141Q114 -121 96 -114T30 -106L60 16H134L122 -52Z" />
<glyph unicode="&#xb9;" glyph-name="uni00B9" horiz-adv-x="392" d="M349 740L290 321H194L238 644L138 587L103 654L261 740H349Z" />
<glyph unicode="&#xba;" glyph-name="ordmasculine" horiz-adv-x="492" d="M388 691T434 646T481 518Q481 446 453 389T372 300T250 267Q165 267 119 312T72 440Q72 512 100 569T181 658T303 691Q388 691 434 646ZM244 604T218 555T192 436Q192 354 256 354Q309
354 335 404T361 524Q361 604 298 604Q244 604 218 555ZM10 0L25 102H421L406 0H10Z" />
<glyph unicode="&#xbb;" glyph-name="guillemotright" horiz-adv-x="596" d="M156 547L308 327L297 244L88 25L15 77L175 286L74 494L156 547ZM409 547L561 327L550 244L341 25L268 77L428 286L327 494L409 547Z" />
<glyph unicode="&#xbc;" glyph-name="onequarter" horiz-adv-x="928" d="M342 691L283 272H187L231 595L131 538L96 605L254 691H342ZM696 755L767 717L253 -82L180 -44L696 755ZM882 164L871 90H824L811 0H717L729 90H543L552 157L712 428L791 397L655 164H741L769
263H848L834 164H882Z" />
<glyph unicode="&#xbd;" glyph-name="onehalf" horiz-adv-x="928" d="M342 691L283 272H187L231 595L131 538L96 605L254 691H342ZM696 755L767 717L253 -82L180 -44L696 755ZM811 428T846 397T881 316Q881 274 857 237T795 167T682 77H859L838 0H557L567 73L605
104Q697 181 738 225T780 310Q780 330 768 340T733 351Q709 351 690 341T647 307L591 356Q658 428 749 428Q811 428 846 397Z" />
<glyph unicode="&#xbe;" glyph-name="threequarters" horiz-adv-x="928" d="M315 700T350 672T385 600Q385 558 358 532T281 493Q321 489 345 467T370 406Q370 364 347 331T282 280T192 261Q143 261 107 278T48 327L108 376Q143 337 192 337Q227 337 249 357T271
412Q271 437 256 447T207 457H170L191 525H213Q246 525 266 542T286 587Q286 606 274 616T238 626Q192 626 145 590L101 645Q169 700 253 700Q315 700 350 672ZM696 755L767 717L253 -82L180 -44L696 755ZM882 164L871 90H824L811 0H717L729 90H543L552 157L712
428L791 397L655 164H741L769 263H848L834 164H882Z" />
<glyph unicode="&#xbf;" glyph-name="questiondown" horiz-adv-x="463" d="M305 508T325 487T346 435Q346 398 321 372T258 346Q226 346 206 366T186 418Q186 455 211 481T274 508Q305 508 325 487ZM70 -220T22 -179T-26 -75Q-26 -24 -7 9T39 62T110 105Q145 124
164 137T197 169T211 217Q211 229 208 242L320 260Q329 238 329 211Q329 166 312 136T269 86T203 45Q155 19 131 -3T107 -63Q107 -89 125 -103T178 -117Q249 -117 315 -50L389 -118Q292 -220 159 -220Q70 -220 22 -179Z" />
<glyph unicode="&#xc0;" glyph-name="Agrave" horiz-adv-x="574" d="M405 0L385 160H157L93 0H-43L267 691H427L542 0H405ZM197 260H373L332 595L197 260ZM302 930L495 815L459 751L247 830L302 930Z" />
<glyph unicode="&#xc1;" glyph-name="Aacute" horiz-adv-x="574" d="M405 0L385 160H157L93 0H-43L267 691H427L542 0H405ZM197 260H373L332 595L197 260ZM461 931L501 831L267 751L240 816L461 931Z" />
<glyph unicode="&#xc2;" glyph-name="Acircumflex" horiz-adv-x="574" d="M405 0L385 160H157L93 0H-43L267 691H427L542 0H405ZM197 260H373L332 595L197 260ZM226 757L182 812L335 933H414L534 812L483 757L365 840L226 757Z" />
<glyph unicode="&#xc3;" glyph-name="Atilde" horiz-adv-x="574" d="M405 0L385 160H157L93 0H-43L267 691H427L542 0H405ZM197 260H373L332 595L197 260ZM400 770T385 777T350 799Q341 806 331 811T312 817Q294 817 281 806T250 770L187 807Q212 853 245 881T317
910Q339 910 354 903T387 882Q399 873 407 869T424 864Q440 864 454 875T484 909L549 872Q522 824 489 797T421 770Q400 770 385 777Z" />
<glyph unicode="&#xc4;" glyph-name="Adieresis" horiz-adv-x="574" d="M405 0L385 160H157L93 0H-43L267 691H427L542 0H405ZM197 260H373L332 595L197 260ZM223 773T205 790T187 834Q187 867 209 888T265 910Q293 910 311 893T329 849Q329 816 307 795T251 773Q223
773 205 790ZM442 773T424 790T406 834Q406 867 428 888T484 910Q512 910 530 893T548 849Q548 816 526 795T470 773Q442 773 424 790Z" />
<glyph unicode="&#xc5;" glyph-name="Aring" horiz-adv-x="574" d="M405 0L385 160H157L93 0H-43L267 691H427L542 0H405ZM197 260H373L332 595L197 260ZM437 979T468 949T499 871Q499 836 481 806T431 757T359 739Q307 739 276 769T245 848Q245 882 263 912T313
961T385 979Q437 979 468 949ZM354 913T339 894T323 850Q323 829 333 818T363 806Q391 806 406 825T422 869Q422 890 411 901T381 913Q354 913 339 894Z" />
<glyph unicode="&#xc6;" glyph-name="AE" horiz-adv-x="821" d="M774 593H488L505 399H751L738 301H513L531 99H757L743 0H414L403 160H164L86 0H-54L307 691H802L774 593ZM213 260H397L375 591L213 260Z" />
<glyph unicode="&#xc7;" glyph-name="Ccedilla" d="M440 -3T340 -13L333 -52Q376 -56 398 -79T420 -138Q420 -167 404 -193T355 -236T274 -253Q214 -253 173 -223L211 -162Q238 -178 272 -178Q295 -178 309 -169T325 -141Q325 -121 307 -114T241 -106L264 -13Q164
0 107 73T49 269Q49 371 85 471T199 639T394 706Q514 706 591 629L519 559Q490 582 461 593T398 604Q323 604 275 551T206 421T185 265Q185 176 221 134T320 91Q361 91 395 106T468 149L521 67Q440 -3 340 -13Z" />
<glyph unicode="&#xc8;" glyph-name="Egrave" horiz-adv-x="523" d="M536 691L508 593H257L229 400H448L435 302H216L188 99H457L443 0H43L140 691H536ZM296 930L489 815L453 751L241 830L296 930Z" />
<glyph unicode="&#xc9;" glyph-name="Eacute" horiz-adv-x="523" d="M536 691L508 593H257L229 400H448L435 302H216L188 99H457L443 0H43L140 691H536ZM455 931L495 831L261 751L234 816L455 931Z" />
<glyph unicode="&#xca;" glyph-name="Ecircumflex" horiz-adv-x="523" d="M536 691L508 593H257L229 400H448L435 302H216L188 99H457L443 0H43L140 691H536ZM220 757L176 812L329 933H408L528 812L477 757L359 840L220 757Z" />
<glyph unicode="&#xcb;" glyph-name="Edieresis" horiz-adv-x="523" d="M536 691L508 593H257L229 400H448L435 302H216L188 99H457L443 0H43L140 691H536ZM217 773T199 790T181 834Q181 867 203 888T259 910Q287 910 305 893T323 849Q323 816 301 795T245 773Q217
773 199 790ZM436 773T418 790T400 834Q400 867 422 888T478 910Q506 910 524 893T542 849Q542 816 520 795T464 773Q436 773 418 790Z" />
<glyph unicode="&#xcc;" glyph-name="Igrave" horiz-adv-x="291" d="M271 691L174 0H43L140 691H271ZM160 930L353 815L317 751L105 830L160 930Z" />
<glyph unicode="&#xcd;" glyph-name="Iacute" horiz-adv-x="291" d="M271 691L174 0H43L140 691H271ZM319 931L359 831L125 751L98 816L319 931Z" />
<glyph unicode="&#xce;" glyph-name="Icircumflex" horiz-adv-x="291" d="M271 691L174 0H43L140 691H271ZM84 757L40 812L193 933H272L392 812L341 757L223 840L84 757Z" />
<glyph unicode="&#xcf;" glyph-name="Idieresis" horiz-adv-x="291" d="M271 691L174 0H43L140 691H271ZM81 773T63 790T45 834Q45 867 67 888T123 910Q151 910 169 893T187 849Q187 816 165 795T109 773Q81 773 63 790ZM300 773T282 790T264 834Q264 867 286
888T342 910Q370 910 388 893T406 849Q406 816 384 795T328 773Q300 773 282 790Z" />
<glyph unicode="&#xd0;" glyph-name="Eth" horiz-adv-x="650" d="M457 691T541 634T625 429Q625 310 587 214T463 59T241 0H53L97 310H22L33 396H109L150 691H317Q457 691 541 634ZM344 99T396 148T469 272T491 430Q491 525 448 558T328 592H267L240 396H383L371
310H228L198 99H260Q344 99 396 148Z" />
<glyph unicode="&#xd1;" glyph-name="Ntilde" horiz-adv-x="664" d="M547 0H380L221 580Q222 508 218 438T200 276L162 0H43L140 691H307L468 111Q467 135 467 180Q467 274 480 373L526 691H644L547 0ZM453 770T438 777T403 799Q394 806 384 811T365 817Q347 817
334 806T303 770L240 807Q265 853 298 881T370 910Q392 910 407 903T440 882Q452 873 460 869T477 864Q493 864 507 875T537 909L602 872Q575 824 542 797T474 770Q453 770 438 777Z" />
<glyph unicode="&#xd2;" glyph-name="Ograve" horiz-adv-x="683" d="M522 706T590 633T658 424Q658 321 623 221T509 53T306 -15Q185 -15 117 58T49 266Q49 368 84 468T198 637T401 706Q522 706 590 633ZM316 605T269 549T203 413T184 258Q184 86 313 86Q391 86
437 142T503 278T522 434Q522 523 490 564T393 605Q316 605 269 549ZM359 930L552 815L516 751L304 830L359 930Z" />
<glyph unicode="&#xd3;" glyph-name="Oacute" horiz-adv-x="683" d="M522 706T590 633T658 424Q658 321 623 221T509 53T306 -15Q185 -15 117 58T49 266Q49 368 84 468T198 637T401 706Q522 706 590 633ZM316 605T269 549T203 413T184 258Q184 86 313 86Q391 86
437 142T503 278T522 434Q522 523 490 564T393 605Q316 605 269 549ZM518 931L558 831L324 751L297 816L518 931Z" />
<glyph unicode="&#xd4;" glyph-name="Ocircumflex" horiz-adv-x="683" d="M522 706T590 633T658 424Q658 321 623 221T509 53T306 -15Q185 -15 117 58T49 266Q49 368 84 468T198 637T401 706Q522 706 590 633ZM316 605T269 549T203 413T184 258Q184 86 313 86Q391
86 437 142T503 278T522 434Q522 523 490 564T393 605Q316 605 269 549ZM283 757L239 812L392 933H471L591 812L540 757L422 840L283 757Z" />
<glyph unicode="&#xd5;" glyph-name="Otilde" horiz-adv-x="683" d="M522 706T590 633T658 424Q658 321 623 221T509 53T306 -15Q185 -15 117 58T49 266Q49 368 84 468T198 637T401 706Q522 706 590 633ZM316 605T269 549T203 413T184 258Q184 86 313 86Q391 86
437 142T503 278T522 434Q522 523 490 564T393 605Q316 605 269 549ZM457 770T442 777T407 799Q398 806 388 811T369 817Q351 817 338 806T307 770L244 807Q269 853 302 881T374 910Q396 910 411 903T444 882Q456 873 464 869T481 864Q497 864 511 875T541 909L606
872Q579 824 546 797T478 770Q457 770 442 777Z" />
<glyph unicode="&#xd6;" glyph-name="Odieresis" horiz-adv-x="683" d="M522 706T590 633T658 424Q658 321 623 221T509 53T306 -15Q185 -15 117 58T49 266Q49 368 84 468T198 637T401 706Q522 706 590 633ZM316 605T269 549T203 413T184 258Q184 86 313 86Q391
86 437 142T503 278T522 434Q522 523 490 564T393 605Q316 605 269 549ZM280 773T262 790T244 834Q244 867 266 888T322 910Q350 910 368 893T386 849Q386 816 364 795T308 773Q280 773 262 790ZM499 773T481 790T463 834Q463 867 485 888T541 910Q569 910 587
893T605 849Q605 816 583 795T527 773Q499 773 481 790Z" />
<glyph unicode="&#xd7;" glyph-name="multiply" horiz-adv-x="503" d="M399 499L464 426L330 308L432 186L351 115L252 236L116 115L52 188L185 306L83 428L165 499L263 378L399 499Z" />
<glyph unicode="&#xd8;" glyph-name="Oslash" horiz-adv-x="683" d="M604 631T631 570T658 424Q658 321 623 221T509 53T306 -15Q279 -15 247 -10L195 -131L95 -104L154 27Q103 61 76 121T49 266Q49 368 84 468T198 637T401 706Q429 706 457 701L512 824L611 796L552
665Q604 631 631 570ZM316 605T269 548T202 411T182 252Q182 159 215 121L427 603Q405 605 393 605Q316 605 269 548ZM391 86T438 143T504 281T523 443Q523 535 490 572L279 88Q299 86 313 86Q391 86 438 143Z" />
<glyph unicode="&#xd9;" glyph-name="Ugrave" horiz-adv-x="648" d="M573 224Q558 116 483 51T287 -15Q177 -15 120 38T62 184Q62 206 65 228L130 691H261L196 230Q193 208 193 189Q193 138 218 113T295 88Q360 88 396 125T443 235L507 691H638L573 224ZM339 930L532
815L496 751L284 830L339 930Z" />
<glyph unicode="&#xda;" glyph-name="Uacute" horiz-adv-x="648" d="M573 224Q558 116 483 51T287 -15Q177 -15 120 38T62 184Q62 206 65 228L130 691H261L196 230Q193 208 193 189Q193 138 218 113T295 88Q360 88 396 125T443 235L507 691H638L573 224ZM498 931L538
831L304 751L277 816L498 931Z" />
<glyph unicode="&#xdb;" glyph-name="Ucircumflex" horiz-adv-x="648" d="M573 224Q558 116 483 51T287 -15Q177 -15 120 38T62 184Q62 206 65 228L130 691H261L196 230Q193 208 193 189Q193 138 218 113T295 88Q360 88 396 125T443 235L507 691H638L573 224ZM263
757L219 812L372 933H451L571 812L520 757L402 840L263 757Z" />
<glyph unicode="&#xdc;" glyph-name="Udieresis" horiz-adv-x="648" d="M573 224Q558 116 483 51T287 -15Q177 -15 120 38T62 184Q62 206 65 228L130 691H261L196 230Q193 208 193 189Q193 138 218 113T295 88Q360 88 396 125T443 235L507 691H638L573 224ZM260
773T242 790T224 834Q224 867 246 888T302 910Q330 910 348 893T366 849Q366 816 344 795T288 773Q260 773 242 790ZM479 773T461 790T443 834Q443 867 465 888T521 910Q549 910 567 893T585 849Q585 816 563 795T507 773Q479 773 461 790Z" />
<glyph unicode="&#xdd;" glyph-name="Yacute" horiz-adv-x="566" d="M628 691L349 262L312 0H180L217 261L58 691H197L297 370L487 691H628ZM459 931L499 831L265 751L238 816L459 931Z" />
<glyph unicode="&#xde;" glyph-name="Thorn" horiz-adv-x="583" d="M444 578T509 530T574 385Q574 319 545 259T449 160T272 120H191L174 0H43L140 691H271L255 578H324Q444 578 509 530ZM361 219T399 267T437 383Q437 435 406 458T313 481H242L205 219H272Q361
219 399 267Z" />
<glyph unicode="&#xdf;" glyph-name="germandbls" horiz-adv-x="591" d="M-87 -124Q-47 -108 -22 -91T19 -44T43 34L114 538Q128 641 191 698T358 755Q441 755 487 717T533 618Q533 574 514 548T456 492Q430 472 417 458T404 423Q404 403 417 387T458 349Q487
325 505 305T537 254T551 181Q551 134 528 89T456 14T339 -15Q272 -15 216 16L263 101Q292 85 329 85Q378 85 400 113T422 175Q422 210 406 233T355 287Q322 315 305 338T288 397Q288 439 305 464T356 518Q385 543 399 562T413 610Q413 635 396 648T351 661Q257
661 240 536L171 45Q160 -33 132 -82T59 -161T-53 -218L-87 -124Z" />
<glyph unicode="&#xe0;" glyph-name="agrave" horiz-adv-x="571" d="M435 544T533 493L482 138Q480 120 480 115Q480 98 486 88T510 71L474 -13Q381 -3 365 75Q299 -15 207 -15Q126 -15 82 41T37 192Q37 274 67 355T164 490T331 544Q435 544 533 493ZM274 450T238
411T186 312T169 192Q169 82 242 82Q276 82 304 103T362 166L400 436Q368 450 329 450Q274 450 238 411ZM308 820L501 694L464 631L251 720L308 820Z" />
<glyph unicode="&#xe1;" glyph-name="aacute" horiz-adv-x="571" d="M435 544T533 493L482 138Q480 120 480 115Q480 98 486 88T510 71L474 -13Q381 -3 365 75Q299 -15 207 -15Q126 -15 82 41T37 192Q37 274 67 355T164 490T331 544Q435 544 533 493ZM274 450T238
411T186 312T169 192Q169 82 242 82Q276 82 304 103T362 166L400 436Q368 450 329 450Q274 450 238 411ZM458 820L498 720L265 630L236 695L458 820Z" />
<glyph unicode="&#xe2;" glyph-name="acircumflex" horiz-adv-x="571" d="M435 544T533 493L482 138Q480 120 480 115Q480 98 486 88T510 71L474 -13Q381 -3 365 75Q299 -15 207 -15Q126 -15 82 41T37 192Q37 274 67 355T164 490T331 544Q435 544 533 493ZM274
450T238 411T186 312T169 192Q169 82 242 82Q276 82 304 103T362 166L400 436Q368 450 329 450Q274 450 238 411ZM227 627L183 682L337 808H416L536 682L481 627L366 715L227 627Z" />
<glyph unicode="&#xe3;" glyph-name="atilde" horiz-adv-x="571" d="M435 544T533 493L482 138Q480 120 480 115Q480 98 486 88T510 71L474 -13Q381 -3 365 75Q299 -15 207 -15Q126 -15 82 41T37 192Q37 274 67 355T164 490T331 544Q435 544 533 493ZM274 450T238
411T186 312T169 192Q169 82 242 82Q276 82 304 103T362 166L400 436Q368 450 329 450Q274 450 238 411ZM399 644T384 651T349 673Q340 680 330 685T311 691Q293 691 280 680T249 644L186 681Q211 727 244 755T316 784Q338 784 353 777T386 756Q398 747 406 743T423
738Q439 738 453 749T483 783L548 746Q521 698 488 671T420 644Q399 644 384 651Z" />
<glyph unicode="&#xe4;" glyph-name="adieresis" horiz-adv-x="571" d="M435 544T533 493L482 138Q480 120 480 115Q480 98 486 88T510 71L474 -13Q381 -3 365 75Q299 -15 207 -15Q126 -15 82 41T37 192Q37 274 67 355T164 490T331 544Q435 544 533 493ZM274 450T238
411T186 312T169 192Q169 82 242 82Q276 82 304 103T362 166L400 436Q368 450 329 450Q274 450 238 411ZM222 647T204 664T186 708Q186 741 208 762T264 784Q292 784 310 767T328 723Q328 690 306 669T250 647Q222 647 204 664ZM441 647T423 664T405 708Q405 741
427 762T483 784Q511 784 529 767T547 723Q547 690 525 669T469 647Q441 647 423 664Z" />
<glyph unicode="&#xe5;" glyph-name="aring" horiz-adv-x="571" d="M435 544T533 493L482 138Q480 120 480 115Q480 98 486 88T510 71L474 -13Q381 -3 365 75Q299 -15 207 -15Q126 -15 82 41T37 192Q37 274 67 355T164 490T331 544Q435 544 533 493ZM274 450T238
411T186 312T169 192Q169 82 242 82Q276 82 304 103T362 166L400 436Q368 450 329 450Q274 450 238 411ZM434 853T465 823T496 745Q496 710 478 680T428 631T356 613Q304 613 273 643T242 722Q242 756 260 786T310 835T382 853Q434 853 465 823ZM351 787T336 768T320
724Q320 703 330 692T360 680Q388 680 403 699T419 743Q419 764 408 775T378 787Q351 787 336 768Z" />
<glyph unicode="&#xe6;" glyph-name="ae" horiz-adv-x="826" d="M349 544T387 524T446 467Q476 502 523 523T626 544Q684 544 725 525T788 474T809 404Q809 302 716 257T465 197Q466 136 494 110T571 84Q606 84 639 95T709 133L757 53Q662 -15 556 -15Q491 -15
445 8T372 76Q330 27 283 6T178 -15Q104 -15 61 24T17 127Q17 208 79 261T284 315H353Q360 347 372 379Q368 410 340 428T268 446Q234 446 202 440T127 421L106 509Q200 544 287 544Q349 544 387 524ZM555 453T519 404T471 281Q578 291 629 319T680 398Q680 420
666 436T618 453Q555 453 519 404ZM290 237Q222 237 188 213T153 137Q153 78 215 78Q251 78 281 97T344 155Q342 166 342 192T342 237H290Z" />
<glyph unicode="&#xe7;" glyph-name="ccedilla" horiz-adv-x="471" d="M353 -8T273 -14L266 -52Q309 -56 331 -79T353 -138Q353 -167 337 -193T288 -236T207 -253Q147 -253 106 -223L144 -162Q171 -178 205 -178Q228 -178 242 -169T258 -141Q258 -121 240 -114T174
-106L198 -10Q121 5 80 62T38 208Q38 284 68 361T162 491T322 544Q420 544 484 481L420 405Q397 426 374 434T323 443Q242 443 207 369T171 201Q171 142 195 116T265 89Q294 89 319 98T378 128L426 43Q353 -8 273 -14Z" />
<glyph unicode="&#xe8;" glyph-name="egrave" horiz-adv-x="525" d="M509 302T416 256T167 194Q171 84 270 84Q306 84 339 95T408 133L457 53Q361 -15 256 -15Q150 -15 94 43T38 205Q38 285 67 362T161 492T326 544Q384 544 425 525T488 474T509 404Q509 302 416
256ZM279 289T329 318T379 399Q379 420 365 436T319 453Q256 453 221 403T173 279Q279 289 329 318ZM282 820L475 694L438 631L225 720L282 820Z" />
<glyph unicode="&#xe9;" glyph-name="eacute" horiz-adv-x="525" d="M509 302T416 256T167 194Q171 84 270 84Q306 84 339 95T408 133L457 53Q361 -15 256 -15Q150 -15 94 43T38 205Q38 285 67 362T161 492T326 544Q384 544 425 525T488 474T509 404Q509 302 416
256ZM279 289T329 318T379 399Q379 420 365 436T319 453Q256 453 221 403T173 279Q279 289 329 318ZM432 820L472 720L239 630L210 695L432 820Z" />
<glyph unicode="&#xea;" glyph-name="ecircumflex" horiz-adv-x="525" d="M509 302T416 256T167 194Q171 84 270 84Q306 84 339 95T408 133L457 53Q361 -15 256 -15Q150 -15 94 43T38 205Q38 285 67 362T161 492T326 544Q384 544 425 525T488 474T509 404Q509
302 416 256ZM279 289T329 318T379 399Q379 420 365 436T319 453Q256 453 221 403T173 279Q279 289 329 318ZM201 627L157 682L311 808H390L510 682L455 627L340 715L201 627Z" />
<glyph unicode="&#xeb;" glyph-name="edieresis" horiz-adv-x="525" d="M509 302T416 256T167 194Q171 84 270 84Q306 84 339 95T408 133L457 53Q361 -15 256 -15Q150 -15 94 43T38 205Q38 285 67 362T161 492T326 544Q384 544 425 525T488 474T509 404Q509 302
416 256ZM279 289T329 318T379 399Q379 420 365 436T319 453Q256 453 221 403T173 279Q279 289 329 318ZM196 647T178 664T160 708Q160 741 182 762T238 784Q266 784 284 767T302 723Q302 690 280 669T224 647Q196 647 178 664ZM415 647T397 664T379 708Q379 741
401 762T457 784Q485 784 503 767T521 723Q521 690 499 669T443 647Q415 647 397 664Z" />
<glyph unicode="&#xec;" glyph-name="igrave" horiz-adv-x="278" d="M239 529L165 0H39L113 529H239ZM143 820L336 694L299 631L86 720L143 820Z" />
<glyph unicode="&#xed;" glyph-name="iacute" horiz-adv-x="278" d="M239 529L165 0H39L113 529H239ZM293 820L333 720L100 630L71 695L293 820Z" />
<glyph unicode="&#xee;" glyph-name="icircumflex" horiz-adv-x="278" d="M239 529L165 0H39L113 529H239ZM62 627L18 682L172 808H251L371 682L316 627L201 715L62 627Z" />
<glyph unicode="&#xef;" glyph-name="idieresis" horiz-adv-x="278" d="M239 529L165 0H39L113 529H239ZM57 647T39 664T21 708Q21 741 43 762T99 784Q127 784 145 767T163 723Q163 690 141 669T85 647Q57 647 39 664ZM276 647T258 664T240 708Q240 741 262 762T318
784Q346 784 364 767T382 723Q382 690 360 669T304 647Q276 647 258 664Z" />
<glyph unicode="&#xf0;" glyph-name="eth" horiz-adv-x="574" d="M468 610T498 539T529 376Q529 264 497 176T399 36T242 -15Q182 -15 135 9T62 81T35 192Q35 259 61 325T142 434T272 477Q356 477 405 423Q400 477 381 518T322 595L251 533L173 573L247 640Q209
655 152 666L186 754Q270 737 325 711L408 788L469 728L400 664Q468 610 498 539ZM321 81T355 148T399 328Q365 384 294 384Q224 384 194 325T164 189Q164 135 186 108T249 81Q321 81 355 148Z" />
<glyph unicode="&#xf1;" glyph-name="ntilde" horiz-adv-x="573" d="M456 544T488 510T521 414Q521 398 518 378L465 0H339L390 359Q392 377 392 384Q392 414 380 426T347 439Q279 439 208 303L165 0H39L113 529H222L217 431Q295 544 399 544Q456 544 488 510ZM383
644T368 651T333 673Q324 680 314 685T295 691Q277 691 264 680T233 644L170 681Q195 727 228 755T300 784Q322 784 337 777T370 756Q382 747 390 743T407 738Q423 738 437 749T467 783L532 746Q505 698 472 671T404 644Q383 644 368 651Z" />
<glyph unicode="&#xf2;" glyph-name="ograve" horiz-adv-x="576" d="M150 -15T95 44T39 208Q39 286 67 363T160 492T324 544Q426 544 481 485T537 322Q537 244 509 167T417 38T252 -15Q150 -15 95 44ZM314 82T347 123T393 223T406 336Q406 447 317 447Q262 447
229 407T183 309T169 198Q169 82 259 82Q314 82 347 123ZM289 820L482 694L445 631L232 720L289 820Z" />
<glyph unicode="&#xf3;" glyph-name="oacute" horiz-adv-x="576" d="M150 -15T95 44T39 208Q39 286 67 363T160 492T324 544Q426 544 481 485T537 322Q537 244 509 167T417 38T252 -15Q150 -15 95 44ZM314 82T347 123T393 223T406 336Q406 447 317 447Q262 447
229 407T183 309T169 198Q169 82 259 82Q314 82 347 123ZM439 820L479 720L246 630L217 695L439 820Z" />
<glyph unicode="&#xf4;" glyph-name="ocircumflex" horiz-adv-x="576" d="M150 -15T95 44T39 208Q39 286 67 363T160 492T324 544Q426 544 481 485T537 322Q537 244 509 167T417 38T252 -15Q150 -15 95 44ZM314 82T347 123T393 223T406 336Q406 447 317 447Q262
447 229 407T183 309T169 198Q169 82 259 82Q314 82 347 123ZM208 627L164 682L318 808H397L517 682L462 627L347 715L208 627Z" />
<glyph unicode="&#xf5;" glyph-name="otilde" horiz-adv-x="576" d="M150 -15T95 44T39 208Q39 286 67 363T160 492T324 544Q426 544 481 485T537 322Q537 244 509 167T417 38T252 -15Q150 -15 95 44ZM314 82T347 123T393 223T406 336Q406 447 317 447Q262 447
229 407T183 309T169 198Q169 82 259 82Q314 82 347 123ZM380 644T365 651T330 673Q321 680 311 685T292 691Q274 691 261 680T230 644L167 681Q192 727 225 755T297 784Q319 784 334 777T367 756Q379 747 387 743T404 738Q420 738 434 749T464 783L529 746Q502
698 469 671T401 644Q380 644 365 651Z" />
<glyph unicode="&#xf6;" glyph-name="odieresis" horiz-adv-x="576" d="M150 -15T95 44T39 208Q39 286 67 363T160 492T324 544Q426 544 481 485T537 322Q537 244 509 167T417 38T252 -15Q150 -15 95 44ZM314 82T347 123T393 223T406 336Q406 447 317 447Q262
447 229 407T183 309T169 198Q169 82 259 82Q314 82 347 123ZM203 647T185 664T167 708Q167 741 189 762T245 784Q273 784 291 767T309 723Q309 690 287 669T231 647Q203 647 185 664ZM422 647T404 664T386 708Q386 741 408 762T464 784Q492 784 510 767T528 723Q528
690 506 669T450 647Q422 647 404 664Z" />
<glyph unicode="&#xf7;" glyph-name="divide" horiz-adv-x="502" d="M192 16T172 37T151 89Q151 126 176 152T239 178Q271 178 291 158T311 106Q311 69 286 43T223 16Q192 16 172 37ZM258 487T238 508T217 560Q217 597 242 623T305 649Q337 649 357 629T377 577Q377
540 352 514T289 487Q258 487 238 508ZM55 281L70 383H466L451 281H55Z" />
<glyph unicode="&#xf8;" glyph-name="oslash" horiz-adv-x="576" d="M496 477T516 430T537 322Q537 244 509 167T417 38T252 -15Q229 -15 208 -12L155 -133L62 -104L120 23Q80 51 60 98T39 208Q39 286 67 363T160 492T324 544Q347 544 368 541L422 662L516 633L456
506Q496 477 516 430ZM261 447T226 407T177 309T162 199Q162 141 182 113L338 446Q332 447 318 447Q261 447 226 407ZM316 82T350 122T399 220T413 329Q413 385 394 415L239 83Q245 82 259 82Q316 82 350 122Z" />
<glyph unicode="&#xf9;" glyph-name="ugrave" horiz-adv-x="569" d="M119 -15T86 19T52 115Q52 133 55 152L108 529H234L183 168Q181 148 181 140Q181 111 192 99T227 87Q262 87 293 115T356 189L404 529H530L456 0H347L352 87Q315 38 273 12T181 -15Q119 -15
86 19ZM286 820L479 694L442 631L229 720L286 820Z" />
<glyph unicode="&#xfa;" glyph-name="uacute" horiz-adv-x="569" d="M119 -15T86 19T52 115Q52 133 55 152L108 529H234L183 168Q181 148 181 140Q181 111 192 99T227 87Q262 87 293 115T356 189L404 529H530L456 0H347L352 87Q315 38 273 12T181 -15Q119 -15
86 19ZM436 820L476 720L243 630L214 695L436 820Z" />
<glyph unicode="&#xfb;" glyph-name="ucircumflex" horiz-adv-x="569" d="M119 -15T86 19T52 115Q52 133 55 152L108 529H234L183 168Q181 148 181 140Q181 111 192 99T227 87Q262 87 293 115T356 189L404 529H530L456 0H347L352 87Q315 38 273 12T181 -15Q119
-15 86 19ZM205 627L161 682L315 808H394L514 682L459 627L344 715L205 627Z" />
<glyph unicode="&#xfc;" glyph-name="udieresis" horiz-adv-x="569" d="M119 -15T86 19T52 115Q52 133 55 152L108 529H234L183 168Q181 148 181 140Q181 111 192 99T227 87Q262 87 293 115T356 189L404 529H530L456 0H347L352 87Q315 38 273 12T181 -15Q119 -15
86 19ZM200 647T182 664T164 708Q164 741 186 762T242 784Q270 784 288 767T306 723Q306 690 284 669T228 647Q200 647 182 664ZM419 647T401 664T383 708Q383 741 405 762T461 784Q489 784 507 767T525 723Q525 690 503 669T447 647Q419 647 401 664Z" />
<glyph unicode="&#xfd;" glyph-name="yacute" horiz-adv-x="498" d="M295 -3Q252 -100 178 -154T-9 -218L-13 -125Q64 -113 103 -86T176 0H131L39 529H171L223 88L403 529H534L295 -3ZM403 820L443 720L210 630L181 695L403 820Z" />
<glyph unicode="&#xfe;" glyph-name="thorn" horiz-adv-x="580" d="M459 544T501 490T543 337Q543 253 515 173T423 39T259 -15Q207 -15 164 3L135 -205L7 -220L143 741L270 755L232 481Q265 511 303 527T381 544Q459 544 501 490ZM310 81T345 121T396 220T412
339Q412 448 335 448Q303 448 275 430T218 379L179 96Q218 81 257 81Q310 81 345 121Z" />
<glyph unicode="&#xff;" glyph-name="ydieresis" horiz-adv-x="498" d="M295 -3Q252 -100 178 -154T-9 -218L-13 -125Q64 -113 103 -86T176 0H131L39 529H171L223 88L403 529H534L295 -3ZM167 647T149 664T131 708Q131 741 153 762T209 784Q237 784 255 767T273
723Q273 690 251 669T195 647Q167 647 149 664ZM386 647T368 664T350 708Q350 741 372 762T428 784Q456 784 474 767T492 723Q492 690 470 669T414 647Q386 647 368 664Z" />
<glyph unicode="&#x2013;" glyph-name="endash" horiz-adv-x="512" d="M25 262L39 364H500L486 262H25Z" />
<glyph unicode="&#x2014;" glyph-name="emdash" horiz-adv-x="781" d="M25 262L39 364H769L755 262H25Z" />
<glyph unicode="&#x2018;" glyph-name="quoteleft" horiz-adv-x="232" d="M117 474T98 492T78 537Q78 557 84 574T107 618L195 760H267L202 603Q228 584 228 550Q228 518 205 496T147 474Q117 474 98 492Z" />
<glyph unicode="&#x2019;" glyph-name="quoteright" horiz-adv-x="232" d="M214 760T233 742T253 697Q253 677 247 660T224 616L136 474H64L129 631Q103 651 103 684Q103 716 126 738T184 760Q214 760 233 742Z" />
<glyph unicode="&#x201a;" glyph-name="quotesinglbase" horiz-adv-x="232" d="M125 126T144 108T164 63Q164 43 158 26T135 -18L47 -160H-25L40 -3Q14 17 14 50Q14 82 37 104T95 126Q125 126 144 108Z" />
<glyph unicode="&#x201c;" glyph-name="quotedblleft" horiz-adv-x="424" d="M116 474T97 492T77 537Q77 557 83 574T106 618L194 760H266L201 603Q227 584 227 550Q227 518 204 496T146 474Q116 474 97 492ZM309 474T290 492T270 537Q270 557 276 574T299 618L387
760H459L394 603Q420 584 420 550Q420 518 397 496T339 474Q309 474 290 492Z" />
<glyph unicode="&#x201d;" glyph-name="quotedblright" horiz-adv-x="424" d="M214 760T233 742T253 697Q253 677 247 660T224 616L136 474H64L129 631Q103 651 103 684Q103 716 126 738T184 760Q214 760 233 742ZM407 760T426 742T446 697Q446 677 440 660T417
616L329 474H257L322 631Q296 651 296 684Q296 716 319 738T377 760Q407 760 426 742Z" />
<glyph unicode="&#x201e;" glyph-name="quotedblbase" horiz-adv-x="424" d="M125 126T144 108T164 63Q164 43 158 26T135 -18L47 -160H-25L40 -3Q14 17 14 50Q14 82 37 104T95 126Q125 126 144 108ZM318 126T337 108T357 63Q357 43 351 26T328 -18L240 -160H168L233
-3Q207 17 207 50Q207 82 230 104T288 126Q318 126 337 108Z" />
<glyph unicode="&#x2022;" glyph-name="bullet" horiz-adv-x="328" d="M238 468T269 437T300 357Q300 318 281 286T230 234T160 215Q112 215 81 246T50 326Q50 365 69 397T120 449T189 468Q238 468 269 437Z" />
<glyph unicode="&#x2039;" glyph-name="guilsinglleft" horiz-adv-x="342" d="M259 547L332 494L173 286L274 77L192 25L40 244L51 327L259 547Z" />
<glyph unicode="&#x203a;" glyph-name="guilsinglright" horiz-adv-x="342" d="M156 547L308 327L297 244L88 25L15 77L175 286L74 494L156 547Z" />
</font>
</defs>
</svg>
