<?xml version="1.0" standalone="no"?>
<!DOCTYPE svg PUBLIC "-//W3C//DTD SVG 1.1//EN" "http://www.w3.org/Graphics/SVG/1.1/DTD/svg11.dtd">
<svg xmlns="http://www.w3.org/2000/svg">
<defs >
<font id="FiraSans" horiz-adv-x="538" ><font-face
    font-family="Fira Sans ExtraLight"
    units-per-em="1000"
    panose-1="2 11 4 3 5 0 0 2 0 4"
    ascent="935"
    descent="-265"
    alphabetic="0" />
<glyph unicode=" " glyph-name="space" horiz-adv-x="282" />
<glyph unicode="!" glyph-name="exclam" horiz-adv-x="239" d="M91 214L154 684H202L134 214H91ZM71 -11T61 0T50 26Q50 45 62 57T93 69Q110 69 120 59T130 32Q130 14 118 2T87 -11Q71 -11 61 0Z" />
<glyph unicode="&quot;" glyph-name="quotedbl" horiz-adv-x="348" d="M105 436L133 684H183L141 436H105ZM255 436L283 684H333L291 436H255Z" />
<glyph unicode="#" glyph-name="numbersign" horiz-adv-x="497" d="M509 454H430L367 225H440L434 186H357L306 0H260L311 186H124L73 0H28L79 186H4L10 225H89L152 454H79L84 493H162L209 664H254L207 493H394L441 664H487L440 493H514L509 454ZM321 225L384
454H197L134 225H321Z" />
<glyph unicode="$" glyph-name="dollar" horiz-adv-x="521" d="M236 634T193 600T150 503Q150 456 181 427T287 374Q371 347 413 307T455 202Q455 151 433 105T363 27T241 -10L222 -149H181L200 -11Q144 -8 98 14T17 72L47 99Q114 30 216 30Q281 30 324 53T387
115T408 199Q408 248 376 279T268 335Q181 364 142 402T103 501Q103 576 155 622T296 673L317 817H358L337 672Q384 668 421 650T491 600L462 571Q396 634 309 634Q236 634 193 600Z" />
<glyph unicode="%" glyph-name="percent" horiz-adv-x="780" d="M669 701L109 1L142 -21L702 678L669 701ZM159 354T125 390T90 486Q90 529 107 572T162 645T256 675Q314 675 348 640T383 544Q383 502 366 458T312 384T217 354Q159 354 125 390ZM262 390T289 416T328
478T340 546Q340 588 320 614T257 640Q211 640 184 614T145 553T134 484Q134 441 154 416T217 390Q262 390 289 416ZM486 -11T452 25T417 121Q417 164 434 208T489 281T583 311Q641 311 675 275T710 179Q710 137 693 93T639 19T544 -11Q486 -11 452 25ZM589 25T616
51T655 114T667 181Q667 223 647 249T584 275Q538 275 511 249T472 188T461 119Q461 76 481 51T544 25Q589 25 616 51Z" />
<glyph unicode="&amp;" glyph-name="ampersand" horiz-adv-x="719" d="M418 694T461 658T504 564Q504 523 486 491T428 429T318 363L503 162Q551 240 595 342L636 326Q586 214 530 133L637 16L599 -10L501 100Q454 46 397 18T266 -11Q183 -11 134 34T84 152Q84
218 121 269T253 371Q213 415 194 453T175 533Q175 575 195 612T256 671T350 694Q418 694 461 658ZM288 657T255 620T221 533Q221 500 236 467T291 390Q356 423 392 449T443 503T458 564Q458 607 428 632T350 657Q288 657 255 620ZM195 301T163 256T131 152Q131
96 167 63T268 29Q331 29 381 54T474 129L278 343Q195 301 163 256Z" />
<glyph unicode="&apos;" glyph-name="quotesingle" horiz-adv-x="198" d="M105 436L133 684H183L141 436H105Z" />
<glyph unicode="(" glyph-name="parenleft" horiz-adv-x="322" d="M342 814Q260 714 210 628T134 447T108 233Q108 132 134 56T212 -117L180 -133Q140 -65 116 -14T77 99T62 236Q62 360 90 459T172 644T314 836L342 814Z" />
<glyph unicode=")" glyph-name="parenright" horiz-adv-x="322" d="M208 763T231 714T269 602T285 465Q285 340 257 241T176 55T33 -136L5 -114Q87 -13 137 72T213 254T239 469Q239 569 213 646T136 817L168 833Q208 763 231 714Z" />
<glyph unicode="*" glyph-name="asterisk" horiz-adv-x="433" d="M441 589L283 547L363 422L324 395L255 527L149 395L115 422L230 546L84 589L102 629L244 575L261 735H307L278 577L432 631L441 589Z" />
<glyph unicode="+" glyph-name="plus" horiz-adv-x="489" d="M302 504L280 351H431L425 310H274L253 157H208L229 310H78L84 351H235L257 504H302Z" />
<glyph unicode="," glyph-name="comma" horiz-adv-x="195" d="M84 69T94 59T104 32Q104 21 100 10T85 -21L15 -146H-20L41 -5Q24 4 24 27Q24 44 36 56T67 69Q84 69 94 59Z" />
<glyph unicode="-" glyph-name="hyphen" horiz-adv-x="398" d="M74 292L80 334H338L332 292H74Z" />
<glyph unicode="." glyph-name="period" horiz-adv-x="196" d="M46 -11T36 0T25 26Q25 45 37 57T68 69Q85 69 95 59T105 32Q105 14 93 2T62 -11Q46 -11 36 0Z" />
<glyph unicode="/" glyph-name="slash" horiz-adv-x="518" d="M430 802L470 791L113 -98L74 -87L430 802Z" />
<glyph unicode="0" glyph-name="zero" horiz-adv-x="545" d="M242 675T184 605T98 430T71 222Q71 108 113 49T235 -11Q323 -11 381 59T467 234T494 443Q494 558 453 616T331 675Q242 675 184 605ZM447 636T447 450Q447 351 425 254T354 93T236 29Q118 29 118 216Q118
314 141 410T212 571T330 636Q447 636 447 450Z" />
<glyph unicode="1" glyph-name="one" horiz-adv-x="404" d="M336 664L243 0H197L283 608L102 504L85 542L297 664H336Z" />
<glyph unicode="2" glyph-name="two" horiz-adv-x="471" d="M351 675T394 634T438 522Q438 464 410 409T305 271T70 41L387 42L374 0H7L12 42Q180 199 259 284T364 418T390 521Q390 575 359 605T272 635Q224 635 187 616T111 557L80 585Q125 632 171 653T275 675Q351
675 394 634Z" />
<glyph unicode="3" glyph-name="three" horiz-adv-x="480" d="M350 675T391 635T433 528Q433 489 416 452T364 388T276 353Q334 351 370 314T406 209Q406 158 381 108T304 23T173 -11Q115 -11 72 11T-4 76L29 101Q58 62 92 46T173 30Q238 30 279 58T339 128T358
213Q358 332 223 332H180L191 370H223Q275 370 312 392T367 451T386 528Q386 579 356 608T273 637Q229 637 191 621T110 570L87 601Q132 639 177 657T276 675Q350 675 391 635Z" />
<glyph unicode="4" glyph-name="four" horiz-adv-x="512" d="M469 218L463 178H372L347 0H302L327 178H35L41 214L306 675L345 659L91 218H333L366 418H406L378 218H469Z" />
<glyph unicode="5" glyph-name="five" horiz-adv-x="480" d="M450 624H178L144 386Q200 419 262 419Q338 419 381 372T424 244Q424 187 399 128T321 29T185 -11Q127 -11 85 9T10 69L42 96Q70 62 104 46T186 30Q252 30 295 64T357 148T377 245Q377 310 344 345T254
381Q219 381 193 373T131 346H94L138 664H463L450 624Z" />
<glyph unicode="6" glyph-name="six" horiz-adv-x="519" d="M379 431T421 388T464 265Q464 204 440 140T366 33T241 -11Q151 -11 110 47T68 208Q68 321 102 429T203 606T360 675Q396 675 423 665T476 636L451 604Q410 636 359 636Q274 636 212 551T124 328Q202
431 312 431Q379 431 421 388ZM302 29T342 68T399 161T417 264Q417 328 387 360T306 392Q252 392 205 360T117 271Q114 234 114 203Q114 29 241 29Q302 29 342 68Z" />
<glyph unicode="7" glyph-name="seven" horiz-adv-x="433" d="M452 664L447 627L94 -7L51 8L396 624H83L88 664H452Z" />
<glyph unicode="8" glyph-name="eight" horiz-adv-x="532" d="M403 321T434 285T465 195Q465 134 435 87T352 15T229 -11Q142 -11 92 34T41 152Q41 218 82 272T217 359Q168 383 144 416T119 497Q119 550 146 590T220 653T321 675Q389 675 436 637T484 532Q484
469 450 428T338 350Q403 321 434 285ZM164 456T188 428T269 378L303 365Q376 401 407 440T439 532Q439 582 407 609T320 637Q253 637 209 598T164 498Q164 456 188 428ZM312 29T365 73T418 197Q418 243 388 272T290 329L256 343Q160 309 125 261T89 152Q89 95
127 62T230 29Q312 29 365 73Z" />
<glyph unicode="9" glyph-name="nine" horiz-adv-x="514" d="M390 675T432 623T475 476Q475 299 391 169T85 -19L76 18Q221 63 304 138T416 347Q379 301 333 276T235 250Q166 250 123 298T80 427Q80 485 104 542T178 637T304 675Q390 675 432 623ZM293 290T337
318T424 400Q428 439 428 475Q428 555 398 595T303 636Q240 636 201 603T144 521T127 425Q127 362 157 326T242 290Q293 290 337 318Z" />
<glyph unicode=":" glyph-name="colon" horiz-adv-x="196" d="M46 -11T36 0T25 26Q25 45 37 57T68 69Q85 69 95 59T105 32Q105 14 93 2T62 -11Q46 -11 36 0ZM102 387T92 398T81 424Q81 443 93 455T124 467Q141 467 151 457T161 430Q161 412 149 400T118 387Q102
387 92 398Z" />
<glyph unicode=";" glyph-name="semicolon" horiz-adv-x="197" d="M84 69T94 59T104 32Q104 21 100 10T85 -21L15 -146H-20L41 -5Q24 4 24 27Q24 44 36 56T67 69Q84 69 94 59ZM103 387T93 398T82 424Q82 443 94 455T125 467Q142 467 152 457T162 430Q162 412 150
400T119 387Q103 387 93 398Z" />
<glyph unicode="&lt;" glyph-name="less" horiz-adv-x="494" d="M444 521L458 481L122 332L414 180L392 142L76 313L81 353L444 521Z" />
<glyph unicode="=" glyph-name="equal" horiz-adv-x="491" d="M91 394L97 436H444L438 394H91ZM322 481L328 523H675L669 481H322Z" />
<glyph unicode="&gt;" glyph-name="greater" horiz-adv-x="494" d="M122 521L439 353L433 313L69 142L56 181L392 335L99 482L122 521Z" />
<glyph unicode="?" glyph-name="question" horiz-adv-x="442" d="M361 694T400 659T439 570Q439 526 422 495T379 443T312 397Q276 374 256 359T222 321T208 269Q208 250 214 224L172 215Q162 245 162 271Q162 308 178 335T217 381T279 424Q317 448 339 465T376
508T391 569Q391 608 364 631T288 655Q241 655 203 637T123 578L93 605Q139 652 186 673T291 694Q361 694 400 659ZM165 -12T155 -1T144 25Q144 44 156 56T187 68Q204 68 214 58T224 31Q224 13 212 1T181 -12Q165 -12 155 -1Z" />
<glyph unicode="@" glyph-name="at" horiz-adv-x="1018" d="M690 694T772 650T896 530T938 356Q938 274 915 196T843 65T720 13Q672 13 645 43T614 124Q552 15 453 15Q390 15 350 59T310 185Q310 253 335 321T415 436T552 482Q619 482 689 446L653 181Q650 162
650 141Q650 51 719 51Q778 51 817 98T874 215T892 357Q892 446 855 513T746 617T572 654Q420 654 320 580T174 396T127 177Q127 76 170 -1T291 -120T472 -162Q526 -162 572 -154T665 -129L674 -168Q622 -185 576 -194T470 -203Q357 -203 269 -156T131 -23T81 177Q81
295 132 414T294 613T573 694Q690 694 772 650ZM507 54T547 88T608 171L644 422Q621 433 600 438T553 444Q483 444 439 403T375 301T356 181Q356 119 383 87T458 54Q507 54 547 88Z" />
<glyph unicode="A" glyph-name="A" horiz-adv-x="560" d="M454 0L418 192H122L32 0H-17L310 684H369L503 0H454ZM142 234H410L334 645L142 234Z" />
<glyph unicode="B" glyph-name="B" horiz-adv-x="592" d="M452 354T490 320T529 217Q529 161 504 112T420 32T264 0H77L174 684H336Q432 684 486 646T541 534Q541 464 499 419T387 362Q452 354 490 320ZM215 643L179 380H321Q403 380 448 423T493 533Q493 643
339 643H215ZM382 41T430 92T479 218Q479 280 439 310T327 340H173L132 41H268Q382 41 430 92Z" />
<glyph unicode="C" glyph-name="C" horiz-adv-x="545" d="M455 694T493 679T565 632L537 603Q505 630 475 641T402 653Q305 653 243 592T152 441T124 260Q124 148 174 91T308 33Q358 33 394 47T469 91L494 56Q409 -11 305 -11Q200 -11 138 60T75 261Q75 361 109
460T216 627T401 694Q455 694 493 679Z" />
<glyph unicode="D" glyph-name="D" horiz-adv-x="626" d="M426 684T500 629T574 429Q574 315 539 218T424 61T219 0H77L174 684H305Q426 684 500 629ZM215 643L132 41H226Q333 41 400 97T496 242T526 430Q526 555 466 599T305 643H215Z" />
<glyph unicode="E" glyph-name="E" horiz-adv-x="502" d="M512 684L500 643H215L178 377H425L419 336H173L131 41H429L422 0H77L174 684H512Z" />
<glyph unicode="F" glyph-name="F" horiz-adv-x="475" d="M506 684L495 643H215L177 364H418L412 324H171L125 0H77L174 684H506Z" />
<glyph unicode="G" glyph-name="G" horiz-adv-x="612" d="M460 694T503 678T583 629L552 601Q519 628 485 640T406 653Q314 653 251 595T156 445T124 255Q124 143 174 87T316 31Q398 31 469 69L506 323H369V365H559L514 44Q417 -11 312 -11Q201 -11 138 58T75
260Q75 366 112 466T225 630T406 694Q460 694 503 678Z" />
<glyph unicode="H" glyph-name="H" horiz-adv-x="665" d="M125 0H77L174 684H221L179 381H520L562 684H610L514 0H466L514 339H173L125 0Z" />
<glyph unicode="I" glyph-name="I" horiz-adv-x="277" d="M221 684L125 0H77L174 684H221Z" />
<glyph unicode="J" glyph-name="J" horiz-adv-x="285" d="M152 89Q143 31 125 -4T73 -64T-22 -113L-33 -77Q16 -55 43 -34T84 17T104 95L187 684H235L152 89Z" />
<glyph unicode="K" glyph-name="K" horiz-adv-x="531" d="M77 0L174 684H222L125 0H77ZM438 0L181 367L516 684H574L236 365L494 0H438Z" />
<glyph unicode="L" glyph-name="L" horiz-adv-x="465" d="M221 684L132 44H418L405 0H77L174 684H221Z" />
<glyph unicode="M" glyph-name="M" horiz-adv-x="766" d="M658 0H612L625 335Q633 565 640 640L381 82H335L228 639Q216 576 160 337L80 0H35L198 684H263L365 138L615 684H685L658 0Z" />
<glyph unicode="N" glyph-name="N" horiz-adv-x="667" d="M516 0H456L206 639Q203 561 180 404L123 0H77L174 684H235L485 46Q490 133 506 255L567 684H612L516 0Z" />
<glyph unicode="O" glyph-name="O" horiz-adv-x="689" d="M513 694T575 625T637 425Q637 325 605 225T498 57T309 -11Q200 -11 138 60T75 261Q75 358 108 457T216 625T404 694Q513 694 575 625ZM304 653T242 591T152 437T124 259Q124 146 173 89T310 31Q411 31
473 94T562 248T588 427Q588 540 540 596T402 653Q304 653 242 591Z" />
<glyph unicode="P" glyph-name="P" horiz-adv-x="565" d="M435 684T492 642T549 514Q549 409 484 340T267 271H163L125 0H77L174 684H326Q435 684 492 642ZM396 313T448 369T500 514Q500 583 455 613T322 643H215L169 313H271Q396 313 448 369Z" />
<glyph unicode="Q" glyph-name="Q" horiz-adv-x="676" d="M637 343T615 259T543 108T416 16Q533 11 599 -52L564 -90Q518 -44 461 -28T309 -11Q200 -11 138 60T75 261Q75 358 108 457T216 625T404 694Q513 694 575 625T637 425Q637 343 615 259ZM124 145T173 88T310
31Q411 31 473 94T562 249T588 430Q588 541 540 597T402 653Q303 653 241 590T152 436T124 256Q124 145 173 88Z" />
<glyph unicode="R" glyph-name="R" horiz-adv-x="583" d="M547 454T503 397T365 319L510 0H457L317 313H169L125 0H77L174 684H339Q547 684 547 527Q547 454 503 397ZM299 353Q404 353 450 404T497 527Q497 586 459 614T335 643H215L174 353H299Z" />
<glyph unicode="S" glyph-name="S" horiz-adv-x="535" d="M382 694T426 675T506 619L475 590Q442 623 407 638T324 653Q248 653 202 616T155 518Q155 468 186 440T297 386Q385 358 427 317T469 203Q469 150 443 101T360 21T221 -11Q155 -11 106 11T17 76L49 105Q83
69 124 50T221 31Q289 31 334 56T399 120T420 202Q420 256 388 288T277 348Q185 378 146 415T107 516Q107 563 132 603T207 669T324 694Q382 694 426 675Z" />
<glyph unicode="T" glyph-name="T" horiz-adv-x="486" d="M535 684L523 640H320L230 0H182L272 640H68L74 684H535Z" />
<glyph unicode="U" glyph-name="U" horiz-adv-x="647" d="M535 210Q521 109 458 49T288 -11Q191 -11 143 36T94 167Q94 181 98 213L164 684H211L146 214Q143 190 143 170Q143 104 179 68T289 32Q377 32 426 81T488 217L554 684H601L535 210Z" />
<glyph unicode="V" glyph-name="V" horiz-adv-x="541" d="M580 684L261 0H206L79 684H128L239 48L530 684H580Z" />
<glyph unicode="W" glyph-name="W" horiz-adv-x="802" d="M829 684L579 0H521L453 632L207 0H149L92 684H139L186 48L432 684H487L555 46L783 684H829Z" />
<glyph unicode="X" glyph-name="X" horiz-adv-x="504" d="M521 684L292 370L454 0H403L261 336L28 0H-25L235 369L93 684H145L267 402L468 684H521Z" />
<glyph unicode="Y" glyph-name="Y" horiz-adv-x="512" d="M555 684L282 269L244 0H196L234 268L75 684H126L262 313L501 684H555Z" />
<glyph unicode="Z" glyph-name="Z" horiz-adv-x="512" d="M0 0L6 41L462 641H128L134 684H523L518 644L63 43H425L412 0H0Z" />
<glyph unicode="[" glyph-name="bracketleft" horiz-adv-x="314" d="M319 803L314 766H204L85 -74H195L190 -111H38L167 803H319Z" />
<glyph unicode="\" glyph-name="backslash" horiz-adv-x="518" d="M239 801L345 -88L304 -98L198 791L239 801Z" />
<glyph unicode="]" glyph-name="bracketright" horiz-adv-x="314" d="M300 803L171 -111H19L24 -74H134L252 766H143L148 803H300Z" />
<glyph unicode="^" glyph-name="asciicircum" horiz-adv-x="526" d="M362 830L502 527H449L338 781L154 527H100L325 830H362Z" />
<glyph unicode="_" glyph-name="underscore" horiz-adv-x="518" d="M-20 -115L-15 -73H440L434 -115H-20Z" />
<glyph unicode="`" glyph-name="grave" horiz-adv-x="262" d="M122 776L291 675L274 648L96 732L122 776Z" />
<glyph unicode="a" glyph-name="a" horiz-adv-x="556" d="M374 532T410 522T487 490L432 112Q429 93 429 78Q429 57 436 44T463 23L450 -11Q419 -2 403 16T387 71L388 86Q357 41 316 15T225 -11Q148 -11 105 43T61 192Q61 270 88 348T175 479T326 532Q374 532
410 522ZM252 494T204 447T133 331T110 193Q110 113 141 71T230 29Q278 29 317 58T392 145L438 467Q390 494 327 494Q252 494 204 447Z" />
<glyph unicode="b" glyph-name="b" horiz-adv-x="569" d="M427 532T468 482T509 337Q509 257 483 178T397 44T243 -11Q200 -11 163 -3T76 23L177 735L223 741L183 451Q259 532 352 532Q427 532 468 482ZM295 493T256 469T176 400L128 52Q155 40 181 35T244 29Q322
29 371 78T441 199T462 339Q462 416 432 454T345 493Q295 493 256 469Z" />
<glyph unicode="c" glyph-name="c" horiz-adv-x="465" d="M404 532T457 480L430 451Q407 472 381 482T319 493Q246 493 199 447T131 332T110 197Q110 114 147 73T250 31Q316 31 381 76L402 43Q332 -11 248 -11Q162 -11 112 44T62 199Q62 274 89 351T174 480T320
532Q404 532 457 480Z" />
<glyph unicode="d" glyph-name="d" horiz-adv-x="574" d="M532 735L428 0H389L398 113Q327 -11 220 -11Q146 -11 104 43T61 194Q61 270 86 348T166 479T306 532Q400 532 446 458L486 741L532 735ZM242 493T197 446T131 330T110 193Q110 114 140 72T226 29Q282
29 323 67T408 180L440 412Q397 493 312 493Q242 493 197 446Z" />
<glyph unicode="e" glyph-name="e" horiz-adv-x="512" d="M478 316T383 269T110 209V199Q110 113 147 72T250 30Q292 30 326 43T400 84L422 51Q380 20 338 5T248 -11Q160 -11 111 43T62 198Q62 277 91 354T179 481T327 532Q397 532 437 498T478 409Q478 316 383
269ZM262 493T217 458T146 366T113 247Q272 258 351 297T430 407Q430 445 404 469T327 493Q262 493 217 458Z" />
<glyph unicode="f" glyph-name="f" horiz-adv-x="315" d="M221 702T208 609L196 522H337L326 483H190L125 13Q116 -54 98 -92T50 -153T-33 -200L-48 -165Q-7 -145 17 -126T56 -74T80 15L145 483H55L61 522H150L163 613Q172 674 213 707T319 741Q350 741 378 733T435
706L415 674Q389 689 367 695T320 702Q221 702 208 609Z" />
<glyph unicode="g" glyph-name="g" horiz-adv-x="563" d="M377 532T414 522T491 490L420 2Q404 -107 349 -155T209 -203Q122 -203 39 -155L58 -121Q94 -141 130 -152T208 -164Q273 -164 317 -126T374 -1L388 94Q358 50 317 25T227 0Q150 0 106 55T62 204Q62 279
90 354T178 481T328 532Q377 532 414 522ZM254 494T205 448T133 335T111 201Q111 124 143 82T232 40Q326 40 396 154L441 467Q393 494 329 494Q254 494 205 448Z" />
<glyph unicode="h" glyph-name="h" horiz-adv-x="582" d="M433 532T464 500T495 408Q495 391 492 370L440 0H394L446 367Q449 387 449 404Q449 493 366 493Q308 493 258 445T162 312L118 0H72L176 735L223 741L172 384Q211 454 263 493T373 532Q433 532 464 500Z" />
<glyph unicode="i" glyph-name="i" horiz-adv-x="265" d="M192 522L118 0H72L146 522H192ZM178 674T169 682T160 705Q160 722 171 733T199 744Q214 744 222 736T231 713Q231 696 220 685T193 674Q178 674 169 682Z" />
<glyph unicode="j" glyph-name="j" horiz-adv-x="266" d="M-51 -166Q-10 -146 13 -127T52 -74T76 15L147 522H193L121 13Q112 -54 93 -92T45 -154T-38 -200L-51 -166ZM179 674T170 682T161 705Q161 722 172 733T200 744Q215 744 223 736T232 713Q232 696 221 685T194
674Q179 674 170 682Z" />
<glyph unicode="k" glyph-name="k" horiz-adv-x="515" d="M172 381Q214 459 265 495T373 532Q426 532 458 503T490 423Q490 359 445 312T314 237L433 0H382L258 253Q441 303 441 420Q441 494 364 494Q307 494 256 444T161 301L118 0H72L176 735L223 741L172 381Z" />
<glyph unicode="l" glyph-name="l" horiz-adv-x="280" d="M126 83Q125 77 125 67Q125 48 133 39T161 30Q178 30 200 38L211 2Q183 -11 155 -11Q119 -11 99 8T79 65Q79 71 81 89L172 735L218 741L126 83Z" />
<glyph unicode="m" glyph-name="m" horiz-adv-x="849" d="M706 532T734 500T763 408Q763 391 760 371L707 0H661L713 367Q716 388 716 405Q716 493 643 493Q593 493 548 446T457 314L413 0H367L419 367Q422 387 422 403Q422 493 349 493Q299 493 254 446T162 312L118
0H72L146 522H185L170 382Q253 532 360 532Q413 532 442 496T467 394Q507 461 554 496T654 532Q706 532 734 500Z" />
<glyph unicode="n" glyph-name="n" horiz-adv-x="581" d="M432 532T463 500T495 407Q495 389 492 369L440 0H394L446 367Q449 387 449 402Q449 493 366 493Q260 493 162 312L118 0H72L146 522H185L170 382Q210 454 262 493T374 532Q432 532 463 500Z" />
<glyph unicode="o" glyph-name="o" horiz-adv-x="566" d="M160 -11T111 44T62 199Q62 274 88 350T172 479T320 532Q408 532 456 478T505 325Q505 251 480 174T396 43T247 -11Q160 -11 111 44ZM322 30T369 77T436 192T457 327Q457 408 421 450T319 493Q244 493
198 445T131 329T110 196Q110 115 146 73T248 30Q322 30 369 77Z" />
<glyph unicode="p" glyph-name="p" horiz-adv-x="569" d="M146 522H186L180 448Q258 532 351 532Q426 532 467 482T508 337Q508 257 482 178T397 44T243 -11Q179 -11 120 12L90 -197L44 -203L146 522ZM321 29T370 78T440 199T461 339Q461 493 344 493Q294 493
255 469T176 400L127 52Q154 40 180 35T243 29Q321 29 370 78Z" />
<glyph unicode="q" glyph-name="q" horiz-adv-x="563" d="M387 82Q358 40 316 15T225 -11Q148 -11 105 43T61 192Q61 270 88 348T175 479T326 532Q374 532 412 522T491 490L393 -197L347 -203L387 82ZM323 29T395 145L441 467Q393 494 327 494Q252 494 204 447T133
331T110 193Q110 113 141 71T230 29Q323 29 395 145Z" />
<glyph unicode="r" glyph-name="r" horiz-adv-x="368" d="M370 532T391 525L378 483Q356 489 337 489Q280 489 240 443T162 305L118 0H72L146 522H186L170 388Q201 458 242 495T341 532Q370 532 391 525Z" />
<glyph unicode="s" glyph-name="s" horiz-adv-x="461" d="M306 532T344 518T415 475L390 447Q360 470 329 481T259 493Q200 493 165 468T129 397Q129 362 154 339T246 296Q324 271 358 237T392 147Q392 78 340 34T194 -11Q134 -11 91 7T13 58L40 86Q74 58 110
44T193 30Q263 30 303 59T344 144Q344 187 318 212T221 259Q143 283 113 315T82 396Q82 434 104 465T166 514T259 532Q306 532 344 518Z" />
<glyph unicode="t" glyph-name="t" horiz-adv-x="333" d="M134 125Q132 105 132 98Q132 30 199 30Q237 30 287 55L304 21Q251 -11 194 -11Q144 -11 115 16T86 95Q86 114 88 124L139 483H51L57 522H145L172 650L208 654L190 522H327L316 483H184L134 125Z" />
<glyph unicode="u" glyph-name="u" horiz-adv-x="577" d="M151 -11T119 22T87 116Q87 139 89 151L141 522H187L135 152Q133 140 133 119Q133 29 216 29Q275 29 325 78T414 209L458 522H504L430 0H393L409 145Q374 73 323 31T209 -11Q151 -11 119 22Z" />
<glyph unicode="v" glyph-name="v" horiz-adv-x="461" d="M481 522L226 0H168L54 522H104L202 41L429 522H481Z" />
<glyph unicode="w" glyph-name="w" horiz-adv-x="690" d="M700 522L496 0H435L378 478L186 0H124L65 522H110L162 38L357 522H412L470 37L654 522H700Z" />
<glyph unicode="x" glyph-name="x" horiz-adv-x="448" d="M449 522L254 276L399 0H347L223 249L30 0H-25L199 281L74 522H124L230 308L395 522H449Z" />
<glyph unicode="y" glyph-name="y" horiz-adv-x="458" d="M226 -4Q184 -93 135 -137T-5 -201L-8 -164Q46 -150 78 -131T131 -82T181 0H163L54 522H103L199 35L428 522H478L226 -4Z" />
<glyph unicode="z" glyph-name="z" horiz-adv-x="416" d="M418 522L413 485L56 41H346L336 0H-9L-3 37L354 481H84L90 522H418Z" />
<glyph unicode="{" glyph-name="braceleft" horiz-adv-x="326" d="M331 790Q286 790 263 770T233 706L197 448Q191 399 171 379T109 348Q141 341 156 325T171 276Q171 258 169 248L132 -10Q131 -18 131 -31Q131 -63 148 -77T204 -92L202 -127Q147 -127 118 -104T88
-32Q88 -26 90 -8L128 258Q129 264 129 274Q129 304 112 316T59 329L64 369Q143 369 154 444L191 710Q200 771 233 798T333 826L331 790Z" />
<glyph unicode="|" glyph-name="bar" horiz-adv-x="407" d="M301 803L175 -100H131L257 803H301Z" />
<glyph unicode="}" glyph-name="braceright" horiz-adv-x="325" d="M19 -92Q65 -92 87 -72T117 -7L153 251Q159 300 179 320T242 350Q210 357 195 373T179 423Q179 440 181 451L218 709Q220 725 220 732Q220 762 203 776T146 790L148 826Q202 826 232 802T262
730Q262 723 260 707L222 441Q221 435 221 424Q221 394 238 382T292 370L287 329Q207 329 196 255L159 -11Q150 -72 116 -99T17 -127L19 -92Z" />
<glyph unicode="~" glyph-name="asciitilde" horiz-adv-x="464" d="M292 268T274 276T231 299Q211 312 197 318T168 325Q144 325 128 314T90 280L62 299Q88 332 112 349T170 366Q192 366 209 358T252 335Q272 322 286 316T315 310Q338 310 354 321T390 354L418
335Q393 302 369 285T313 268Q292 268 274 276Z" />
<glyph unicode="&#xa0;" glyph-name="uni00A0" horiz-adv-x="283" />
<glyph unicode="&#xa1;" glyph-name="exclamdown" horiz-adv-x="239" d="M128 387T118 398T107 424Q107 443 119 455T150 467Q167 467 177 457T187 430Q187 412 175 400T144 387Q128 387 118 398ZM143 250L83 -195H35L100 250H143Z" />
<glyph unicode="&#xa2;" glyph-name="cent" horiz-adv-x="465" d="M246 493T199 447T131 332T110 197Q110 114 147 73T250 31Q316 31 381 76L402 43Q335 -10 254 -11L234 -149H194L213 -8Q142 3 102 56T62 199Q62 269 86 342T161 468T290 530L311 679H351L330
532Q407 529 457 480L430 451Q407 472 381 482T319 493Q246 493 199 447Z" />
<glyph unicode="&#xa3;" glyph-name="sterling" horiz-adv-x="504" d="M408 675T443 657T506 601L474 578Q451 608 425 621T360 635Q300 635 263 598T217 500L199 371H415L409 335H194L170 158Q163 110 145 85T86 41H415L403 0H17L22 40Q73 62 95 87T124 160L148
335H83L88 371H154L172 503Q183 579 231 627T359 675Q408 675 443 657Z" />
<glyph unicode="&#xa4;" glyph-name="currency" horiz-adv-x="560" d="M466 267T424 214L504 136L475 106L394 186Q347 150 280 150Q214 150 166 187L85 106L56 136L137 216Q96 268 96 341Q96 414 137 464L56 544L85 574L166 493Q214 531 280 531Q348 531 395
495L475 574L504 544L425 466Q466 414 466 341Q466 267 424 214ZM141 272T177 231T281 190Q349 190 385 231T421 341Q421 410 385 451T281 492Q213 492 177 451T141 341Q141 272 177 231Z" />
<glyph unicode="&#xa5;" glyph-name="yen" horiz-adv-x="502" d="M542 664L303 336H420L415 299H282L266 192H400L395 154H261L239 0H191L213 154H79L84 192H218L234 299H99L105 336H222L72 664H125L264 344L491 664H542Z" />
<glyph unicode="&#xa6;" glyph-name="brokenbar" horiz-adv-x="407" d="M301 803L251 443H207L257 803H301ZM225 262L175 -100H131L181 262H225Z" />
<glyph unicode="&#xa7;" glyph-name="section" horiz-adv-x="531" d="M260 636T230 609T199 540Q199 504 223 482T315 435Q386 409 417 378T448 300Q448 256 425 224T348 161Q393 128 393 72Q393 35 374 4T313 -47T210 -67Q122 -67 53 -21L76 12Q132 -28 211 -28Q283
-28 314 0T346 71Q346 105 322 127T235 172Q158 201 127 230T95 307Q95 351 119 384T198 448Q174 466 164 487T153 538Q153 597 199 635T326 674Q373 674 409 662T479 626L456 596Q425 616 395 626T326 636Q260 636 230 609ZM402 330T380 354T298 399Q263 411 227
430Q180 401 161 374T141 310Q141 276 164 254T251 208Q289 195 319 179Q367 209 384 236T402 297Q402 330 380 354Z" />
<glyph unicode="&#xa8;" glyph-name="dieresis" horiz-adv-x="309" d="M109 666T101 674T92 695Q92 711 102 721T129 732Q143 732 151 724T160 703Q160 687 149 677T122 666Q109 666 101 674ZM290 666T282 674T273 695Q273 711 283 721T310 732Q324 732 332 724T341
703Q341 687 331 677T304 666Q290 666 282 674Z" />
<glyph unicode="&#xa9;" glyph-name="copyright" horiz-adv-x="810" d="M512 732T578 694T683 589T721 435Q721 350 683 282T579 176T430 138Q348 138 282 176T177 281T139 435Q139 520 177 588T281 694T430 732Q512 732 578 694ZM358 697T301 664T211 571T178
435Q178 358 210 299T300 206T431 173Q502 173 559 206T649 299T682 435Q682 512 650 571T560 664T431 697Q358 697 301 664ZM461 612T483 604T528 580L507 552Q490 565 473 570T432 576Q392 576 362 543T331 436Q331 367 359 331T433 295Q459 295 478 302T516
324L535 295Q491 258 432 258Q368 258 328 306T288 436Q288 494 308 533T362 592T431 612Q461 612 483 604Z" />
<glyph unicode="&#xaa;" glyph-name="ordfeminine" horiz-adv-x="505" d="M161 275T131 305T100 383Q100 443 147 481T288 520H372L377 557Q379 573 379 580Q379 615 359 630T298 645Q243 645 180 622L169 658Q244 684 304 684Q363 684 393 659T424 584Q424 577
422 559L397 371Q396 366 395 360T394 346Q394 316 420 306L407 275Q381 281 368 295T353 340Q325 306 291 291T215 275Q161 275 131 305ZM261 313T295 332T353 385L367 485H288Q216 485 182 458T147 384Q147 350 166 332T221 313Q261 313 295 332ZM42 0L48 42H395L389
0H42Z" />
<glyph unicode="&#xab;" glyph-name="guillemotleft" horiz-adv-x="547" d="M269 514L298 495L131 288L240 81L209 62L79 272L82 303L269 514ZM474 514L503 495L336 288L445 81L414 62L284 272L287 303L474 514Z" />
<glyph unicode="&#xac;" glyph-name="logicalnot" horiz-adv-x="498" d="M437 340L415 178H368L385 299H77L82 340H437Z" />
<glyph unicode="&#xad;" glyph-name="uni00AD" horiz-adv-x="398" d="M74 292L80 334H338L332 292H74Z" />
<glyph unicode="&#xae;" glyph-name="registered" horiz-adv-x="639" d="M418 732T472 702T557 618T589 499Q589 435 558 381T472 295T353 263Q288 263 234 293T149 377T118 496Q118 560 149 614T234 700T353 732Q418 732 472 702ZM408 295T454 322T526 395T553
499Q553 556 527 602T455 674T353 700Q298 700 253 673T180 599T153 496Q153 439 179 393T252 321T353 295Q408 295 454 322ZM449 501T386 484L460 366H416L350 479H310V366H273V636H339Q395 636 422 617T449 556Q449 501 386 484ZM310 510H352Q412 510 412 556Q412
583 396 594T345 605H310V510Z" />
<glyph unicode="&#xaf;" glyph-name="overscore" horiz-adv-x="289" d="M317 679H88L95 718H323L317 679Z" />
<glyph unicode="&#xb0;" glyph-name="degree" horiz-adv-x="518" d="M183 400T148 433T112 526Q112 574 134 612T194 672T273 694Q330 694 365 661T401 569Q401 520 378 482T318 422T239 400Q183 400 148 433ZM290 437T324 473T358 569Q358 611 336 634T273 657Q222
657 188 621T154 525Q154 483 177 460T240 437Q290 437 324 473Z" />
<glyph unicode="&#xb1;" glyph-name="plusminus" horiz-adv-x="490" d="M35 0L41 42H388L382 0H35ZM303 510L281 357H432L426 316H275L254 163H209L230 316H79L85 357H236L258 510H303Z" />
<glyph unicode="&#xb2;" glyph-name="uni00B2" horiz-adv-x="398" d="M312 741T341 713T370 640Q370 598 346 559T284 483T175 388Q143 362 141 360H343L331 323H86L91 359L130 392Q202 454 240 491T303 565T327 640Q327 671 309 688T258 705Q228 705 204 693T155
657L128 682Q160 713 192 727T261 741Q312 741 341 713Z" />
<glyph unicode="&#xb3;" glyph-name="uni00B3" horiz-adv-x="398" d="M316 743T345 718T374 651Q374 608 347 579T274 542Q310 540 333 518T357 457Q357 395 313 355T201 315Q127 315 81 372L110 392Q129 370 151 361T201 351Q253 351 284 381T315 458Q315 523
231 523H201L212 557H230Q273 557 302 583T332 650Q332 678 313 693T262 708Q234 708 210 699T158 670L137 697Q168 720 198 731T265 743Q316 743 345 718Z" />
<glyph unicode="&#xb4;" glyph-name="acute" horiz-adv-x="265" d="M284 776L301 732L100 648L87 675L284 776Z" />
<glyph unicode="&#xb5;" glyph-name="uni00B5" horiz-adv-x="582" d="M446 128T446 87Q446 46 455 -1L413 -7Q406 25 404 48T403 106Q364 52 321 21T221 -11Q144 -11 119 47Q119 7 108 -76L91 -195L45 -200L146 522H192L139 146Q137 126 137 119Q137 72 161 51T226
30Q324 30 405 157L456 522H502L453 174Q446 128 446 87Z" />
<glyph unicode="&#xb6;" glyph-name="paragraph" horiz-adv-x="698" d="M603 684L479 -195L435 -203L554 644H419L302 -195L257 -203L328 298Q227 302 181 345T134 461Q134 566 203 625T389 684H603Z" />
<glyph unicode="&#xb7;" glyph-name="middot" horiz-adv-x="195" d="M87 281T77 292T66 318Q66 337 78 349T109 361Q126 361 136 351T146 324Q146 306 134 294T103 281Q87 281 77 292Z" />
<glyph unicode="&#xb8;" glyph-name="cedilla" horiz-adv-x="236" d="M65 -67Q149 -73 149 -137Q149 -176 119 -199T41 -223Q-4 -223 -35 -201L-16 -172Q8 -187 41 -187Q70 -187 88 -175T106 -138Q106 -115 88 -105T24 -95L47 16H80L65 -67Z" />
<glyph unicode="&#xb9;" glyph-name="uni00B9" horiz-adv-x="398" d="M318 736L260 323H218L270 689L158 628L142 658L283 736H318Z" />
<glyph unicode="&#xba;" glyph-name="ordmasculine" horiz-adv-x="498" d="M379 684T419 643T459 523Q459 454 435 398T363 308T253 275Q180 275 141 317T101 437Q101 505 126 561T197 651T306 684Q379 684 419 643ZM229 645T189 585T148 435Q148 376 175 345T254
313Q331 313 371 375T412 526Q412 585 385 615T306 645Q229 645 189 585ZM38 0L44 42H391L385 0H38Z" />
<glyph unicode="&#xbb;" glyph-name="guillemotright" horiz-adv-x="547" d="M140 514L270 303L267 272L79 62L51 81L218 288L109 495L140 514ZM345 514L475 303L472 272L284 62L256 81L423 288L314 495L345 514Z" />
<glyph unicode="&#xbc;" glyph-name="onequarter" horiz-adv-x="903" d="M311 684L253 271H211L263 637L151 576L135 606L276 684H311ZM706 746L738 730L219 -68L187 -52L706 746ZM830 141L825 106H769L754 0H712L728 106H539L543 137L713 420L747 406L588 141H733L754
260H791L774 141H830Z" />
<glyph unicode="&#xbd;" glyph-name="onehalf" horiz-adv-x="903" d="M311 684L253 271H211L263 637L151 576L135 606L276 684H311ZM706 746L738 730L219 -68L187 -52L706 746ZM772 418T801 390T830 317Q830 275 806 236T744 160T635 65Q603 39 601 37H803L791
0H546L551 36L590 69Q662 131 700 168T763 242T787 317Q787 348 769 365T718 382Q688 382 664 370T615 334L588 359Q620 390 652 404T721 418Q772 418 801 390Z" />
<glyph unicode="&#xbe;" glyph-name="threequarters" horiz-adv-x="903" d="M309 691T338 666T367 599Q367 556 340 527T267 490Q303 488 326 466T350 405Q350 343 306 303T194 263Q120 263 74 320L103 340Q122 318 144 309T194 299Q246 299 277 329T308 406Q308
471 224 471H194L205 505H223Q266 505 295 531T325 598Q325 626 306 641T255 656Q227 656 203 647T151 618L130 645Q161 668 191 679T258 691Q309 691 338 666ZM706 746L738 730L219 -68L187 -52L706 746ZM830 141L825 106H769L754 0H712L728 106H539L543 137L713
420L747 406L588 141H733L754 260H791L774 141H830Z" />
<glyph unicode="&#xbf;" glyph-name="questiondown" horiz-adv-x="441" d="M273 505T283 494T294 468Q294 449 282 437T251 425Q234 425 224 435T214 462Q214 480 226 492T257 505Q273 505 283 494ZM76 -203T37 -168T-2 -79Q-2 -35 15 -4T58 48T125 94Q161 117
181 132T215 170T229 222Q229 245 224 267L265 276Q275 246 275 220Q275 183 259 156T220 110T158 66Q120 42 98 25T61 -18T46 -78Q46 -117 73 -140T149 -164Q196 -164 235 -146T315 -87L344 -115Q298 -161 251 -182T147 -203Q76 -203 37 -168Z" />
<glyph unicode="&#xc0;" glyph-name="Agrave" horiz-adv-x="560" d="M454 0L418 192H122L32 0H-17L310 684H369L503 0H454ZM142 234H410L334 645L142 234ZM287 877L458 787L441 759L264 834L287 877Z" />
<glyph unicode="&#xc1;" glyph-name="Aacute" horiz-adv-x="560" d="M454 0L418 192H122L32 0H-17L310 684H369L503 0H454ZM142 234H410L334 645L142 234ZM437 878L453 834L252 759L241 787L437 878Z" />
<glyph unicode="&#xc2;" glyph-name="Acircumflex" horiz-adv-x="560" d="M454 0L418 192H122L32 0H-17L310 684H369L503 0H454ZM142 234H410L334 645L142 234ZM228 763L209 789L349 887H376L489 788L467 763L359 843L228 763Z" />
<glyph unicode="&#xc3;" glyph-name="Atilde" horiz-adv-x="560" d="M454 0L418 192H122L32 0H-17L310 684H369L503 0H454ZM142 234H410L334 645L142 234ZM400 796T386 802T351 821Q337 831 327 835T305 840Q286 840 274 832T242 800L215 819Q259 879 305 879Q322
879 335 873T368 855Q383 845 394 840T418 834Q434 834 448 844T481 878L509 861Q468 796 419 796Q400 796 386 802Z" />
<glyph unicode="&#xc4;" glyph-name="Adieresis" horiz-adv-x="560" d="M454 0L418 192H122L32 0H-17L310 684H369L503 0H454ZM142 234H410L334 645L142 234ZM253 792T245 800T236 821Q236 837 246 847T273 858Q287 858 295 850T304 829Q304 813 293 803T266 792Q253
792 245 800ZM434 792T426 800T417 821Q417 837 427 847T454 858Q468 858 476 850T485 829Q485 813 475 803T448 792Q434 792 426 800Z" />
<glyph unicode="&#xc5;" glyph-name="Aring" horiz-adv-x="560" d="M454 0L418 192H122L32 0H-17L310 684H369L503 0H454ZM142 234H410L334 645L142 234ZM413 941T436 919T459 863Q459 819 429 791T355 762Q317 762 294 784T271 841Q271 885 301 913T375 941Q413
941 436 919ZM344 911T326 891T308 841Q308 819 320 806T356 793Q387 793 404 813T422 862Q422 885 410 898T374 911Q344 911 326 891Z" />
<glyph unicode="&#xc6;" glyph-name="AE" horiz-adv-x="770" d="M725 643H396L428 377H686L681 336H433L468 41H697L690 0H426L405 188H115L17 0H-34L327 684H737L725 643ZM400 229L353 645L136 229H400Z" />
<glyph unicode="&#xc7;" glyph-name="Ccedilla" horiz-adv-x="545" d="M305 653T243 592T152 441T124 260Q124 148 174 91T308 33Q358 33 394 47T469 91L494 56Q415 -7 318 -11L308 -67Q392 -73 392 -137Q392 -176 362 -199T284 -223Q239 -223 208 -201L227 -172Q251
-187 284 -187Q313 -187 331 -175T349 -138Q349 -115 331 -105T267 -95L285 -10Q189 -3 132 67T75 261Q75 361 109 460T216 627T401 694Q455 694 493 679T565 632L537 603Q505 630 475 641T402 653Q305 653 243 592Z" />
<glyph unicode="&#xc8;" glyph-name="Egrave" horiz-adv-x="502" d="M512 684L500 643H215L178 377H425L419 336H173L131 41H429L422 0H77L174 684H512ZM294 877L465 787L448 759L271 834L294 877Z" />
<glyph unicode="&#xc9;" glyph-name="Eacute" horiz-adv-x="502" d="M512 684L500 643H215L178 377H425L419 336H173L131 41H429L422 0H77L174 684H512ZM444 878L460 834L259 759L248 787L444 878Z" />
<glyph unicode="&#xca;" glyph-name="Ecircumflex" horiz-adv-x="502" d="M512 684L500 643H215L178 377H425L419 336H173L131 41H429L422 0H77L174 684H512ZM235 763L216 789L356 887H383L496 788L474 763L366 843L235 763Z" />
<glyph unicode="&#xcb;" glyph-name="Edieresis" horiz-adv-x="502" d="M512 684L500 643H215L178 377H425L419 336H173L131 41H429L422 0H77L174 684H512ZM260 792T252 800T243 821Q243 837 253 847T280 858Q294 858 302 850T311 829Q311 813 300 803T273 792Q260
792 252 800ZM441 792T433 800T424 821Q424 837 434 847T461 858Q475 858 483 850T492 829Q492 813 482 803T455 792Q441 792 433 800Z" />
<glyph unicode="&#xcc;" glyph-name="Igrave" horiz-adv-x="277" d="M221 684L125 0H77L174 684H221ZM145 877L316 787L299 759L122 834L145 877Z" />
<glyph unicode="&#xcd;" glyph-name="Iacute" horiz-adv-x="277" d="M221 684L125 0H77L174 684H221ZM295 878L311 834L110 759L99 787L295 878Z" />
<glyph unicode="&#xce;" glyph-name="Icircumflex" horiz-adv-x="277" d="M221 684L125 0H77L174 684H221ZM86 763L67 789L207 887H234L347 788L325 763L217 843L86 763Z" />
<glyph unicode="&#xcf;" glyph-name="Idieresis" horiz-adv-x="277" d="M221 684L125 0H77L174 684H221ZM111 792T103 800T94 821Q94 837 104 847T131 858Q145 858 153 850T162 829Q162 813 151 803T124 792Q111 792 103 800ZM292 792T284 800T275 821Q275 837
285 847T312 858Q326 858 334 850T343 829Q343 813 333 803T306 792Q292 792 284 800Z" />
<glyph unicode="&#xd0;" glyph-name="Eth" horiz-adv-x="630" d="M429 684T503 629T577 429Q577 315 542 218T427 61T222 0H80L127 333H42L47 373H133L177 684H308Q429 684 503 629ZM336 41T403 97T499 242T529 430Q529 555 469 599T308 643H218L181 373H366L361
333H175L135 41H229Q336 41 403 97Z" />
<glyph unicode="&#xd1;" glyph-name="Ntilde" horiz-adv-x="667" d="M516 0H456L206 639Q203 561 180 404L123 0H77L174 684H235L485 46Q490 133 506 255L567 684H612L516 0ZM461 796T447 802T412 821Q398 831 388 835T366 840Q347 840 335 832T303 800L276 819Q320
879 366 879Q383 879 396 873T429 855Q444 845 455 840T479 834Q495 834 509 844T542 878L570 861Q529 796 480 796Q461 796 447 802Z" />
<glyph unicode="&#xd2;" glyph-name="Ograve" horiz-adv-x="689" d="M513 694T575 625T637 425Q637 325 605 225T498 57T309 -11Q200 -11 138 60T75 261Q75 358 108 457T216 625T404 694Q513 694 575 625ZM304 653T242 591T152 437T124 259Q124 146 173 89T310
31Q411 31 473 94T562 248T588 427Q588 540 540 596T402 653Q304 653 242 591ZM352 877L523 787L506 759L329 834L352 877Z" />
<glyph unicode="&#xd3;" glyph-name="Oacute" horiz-adv-x="689" d="M513 694T575 625T637 425Q637 325 605 225T498 57T309 -11Q200 -11 138 60T75 261Q75 358 108 457T216 625T404 694Q513 694 575 625ZM304 653T242 591T152 437T124 259Q124 146 173 89T310
31Q411 31 473 94T562 248T588 427Q588 540 540 596T402 653Q304 653 242 591ZM502 878L518 834L317 759L306 787L502 878Z" />
<glyph unicode="&#xd4;" glyph-name="Ocircumflex" horiz-adv-x="689" d="M513 694T575 625T637 425Q637 325 605 225T498 57T309 -11Q200 -11 138 60T75 261Q75 358 108 457T216 625T404 694Q513 694 575 625ZM304 653T242 591T152 437T124 259Q124 146 173 89T310
31Q411 31 473 94T562 248T588 427Q588 540 540 596T402 653Q304 653 242 591ZM293 763L274 789L414 887H441L554 788L532 763L424 843L293 763Z" />
<glyph unicode="&#xd5;" glyph-name="Otilde" horiz-adv-x="689" d="M513 694T575 625T637 425Q637 325 605 225T498 57T309 -11Q200 -11 138 60T75 261Q75 358 108 457T216 625T404 694Q513 694 575 625ZM304 653T242 591T152 437T124 259Q124 146 173 89T310
31Q411 31 473 94T562 248T588 427Q588 540 540 596T402 653Q304 653 242 591ZM465 796T451 802T416 821Q402 831 392 835T370 840Q351 840 339 832T307 800L280 819Q324 879 370 879Q387 879 400 873T433 855Q448 845 459 840T483 834Q499 834 513 844T546 878L574
861Q533 796 484 796Q465 796 451 802Z" />
<glyph unicode="&#xd6;" glyph-name="Odieresis" horiz-adv-x="689" d="M513 694T575 625T637 425Q637 325 605 225T498 57T309 -11Q200 -11 138 60T75 261Q75 358 108 457T216 625T404 694Q513 694 575 625ZM304 653T242 591T152 437T124 259Q124 146 173 89T310
31Q411 31 473 94T562 248T588 427Q588 540 540 596T402 653Q304 653 242 591ZM318 792T310 800T301 821Q301 837 311 847T338 858Q352 858 360 850T369 829Q369 813 358 803T331 792Q318 792 310 800ZM499 792T491 800T482 821Q482 837 492 847T519 858Q533 858
541 850T550 829Q550 813 540 803T513 792Q499 792 491 800Z" />
<glyph unicode="&#xd7;" glyph-name="multiply" horiz-adv-x="490" d="M398 466L426 436L281 307L390 178L356 149L249 278L105 149L77 179L221 307L113 437L147 466L253 336L398 466Z" />
<glyph unicode="&#xd8;" glyph-name="Oslash" horiz-adv-x="689" d="M576 638T606 577T637 425Q637 325 605 225T498 57T309 -11Q265 -11 227 1L176 -117L136 -105L190 17Q135 48 105 110T75 261Q75 358 108 457T216 625T404 694Q445 694 483 683L535 807L576
795L520 668Q576 638 606 577ZM124 107T211 55L469 644Q439 653 402 653Q303 653 241 590T152 436T124 256Q124 107 211 55ZM411 31T473 94T562 249T588 430Q588 583 498 631L241 42Q274 31 310 31Q411 31 473 94Z" />
<glyph unicode="&#xd9;" glyph-name="Ugrave" horiz-adv-x="647" d="M535 210Q521 109 458 49T288 -11Q191 -11 143 36T94 167Q94 181 98 213L164 684H211L146 214Q143 190 143 170Q143 104 179 68T289 32Q377 32 426 81T488 217L554 684H601L535 210ZM330 877L501
787L484 759L307 834L330 877Z" />
<glyph unicode="&#xda;" glyph-name="Uacute" horiz-adv-x="647" d="M535 210Q521 109 458 49T288 -11Q191 -11 143 36T94 167Q94 181 98 213L164 684H211L146 214Q143 190 143 170Q143 104 179 68T289 32Q377 32 426 81T488 217L554 684H601L535 210ZM480 878L496
834L295 759L284 787L480 878Z" />
<glyph unicode="&#xdb;" glyph-name="Ucircumflex" horiz-adv-x="647" d="M535 210Q521 109 458 49T288 -11Q191 -11 143 36T94 167Q94 181 98 213L164 684H211L146 214Q143 190 143 170Q143 104 179 68T289 32Q377 32 426 81T488 217L554 684H601L535 210ZM271
763L252 789L392 887H419L532 788L510 763L402 843L271 763Z" />
<glyph unicode="&#xdc;" glyph-name="Udieresis" horiz-adv-x="647" d="M535 210Q521 109 458 49T288 -11Q191 -11 143 36T94 167Q94 181 98 213L164 684H211L146 214Q143 190 143 170Q143 104 179 68T289 32Q377 32 426 81T488 217L554 684H601L535 210ZM296
792T288 800T279 821Q279 837 289 847T316 858Q330 858 338 850T347 829Q347 813 336 803T309 792Q296 792 288 800ZM477 792T469 800T460 821Q460 837 470 847T497 858Q511 858 519 850T528 829Q528 813 518 803T491 792Q477 792 469 800Z" />
<glyph unicode="&#xdd;" glyph-name="Yacute" horiz-adv-x="512" d="M555 684L282 269L244 0H196L234 268L75 684H126L262 313L501 684H555ZM410 878L426 834L225 759L214 787L410 878Z" />
<glyph unicode="&#xde;" glyph-name="Thorn" horiz-adv-x="565" d="M418 560T475 518T532 385Q532 322 506 267T416 176T249 140H145L125 0H77L174 684H221L204 560H309Q418 560 475 518ZM375 181T429 239T483 384Q483 457 439 488T306 519H198L150 181H253Q375
181 429 239Z" />
<glyph unicode="&#xdf;" glyph-name="germandbls" horiz-adv-x="578" d="M-51 -165Q-10 -145 13 -126T52 -74T76 15L151 542Q164 637 220 689T358 741Q423 741 462 709T502 625Q502 578 480 549T415 491Q384 469 370 453T355 414Q355 393 369 377T414 337Q446
312 465 292T499 241T514 167Q514 127 494 86T433 17T330 -11Q299 -11 270 -3T221 17L239 50Q284 30 327 30Q375 30 406 52T452 105T467 166Q467 216 444 247T378 312Q343 341 327 361T311 410Q311 444 328 465T381 510Q418 537 437 561T456 624Q456 661 430 681T358
702Q295 702 252 660T196 536L122 13Q113 -54 94 -92T46 -154T-37 -200L-51 -165Z" />
<glyph unicode="&#xe0;" glyph-name="agrave" horiz-adv-x="556" d="M374 532T410 522T487 490L432 112Q429 93 429 78Q429 57 436 44T463 23L450 -11Q419 -2 403 16T387 71L388 86Q357 41 316 15T225 -11Q148 -11 105 43T61 192Q61 270 88 348T175 479T326 532Q374
532 410 522ZM252 494T204 447T133 331T110 193Q110 113 141 71T230 29Q278 29 317 58T392 145L438 467Q390 494 327 494Q252 494 204 447ZM303 776L472 675L455 648L277 732L303 776Z" />
<glyph unicode="&#xe1;" glyph-name="aacute" horiz-adv-x="556" d="M374 532T410 522T487 490L432 112Q429 93 429 78Q429 57 436 44T463 23L450 -11Q419 -2 403 16T387 71L388 86Q357 41 316 15T225 -11Q148 -11 105 43T61 192Q61 270 88 348T175 479T326 532Q374
532 410 522ZM252 494T204 447T133 331T110 193Q110 113 141 71T230 29Q278 29 317 58T392 145L438 467Q390 494 327 494Q252 494 204 447ZM454 776L471 732L270 648L257 675L454 776Z" />
<glyph unicode="&#xe2;" glyph-name="acircumflex" horiz-adv-x="556" d="M374 532T410 522T487 490L432 112Q429 93 429 78Q429 57 436 44T463 23L450 -11Q419 -2 403 16T387 71L388 86Q357 41 316 15T225 -11Q148 -11 105 43T61 192Q61 270 88 348T175 479T326
532Q374 532 410 522ZM252 494T204 447T133 331T110 193Q110 113 141 71T230 29Q278 29 317 58T392 145L438 467Q390 494 327 494Q252 494 204 447ZM237 647L216 672L358 775H385L498 672L475 647L367 731L237 647Z" />
<glyph unicode="&#xe3;" glyph-name="atilde" horiz-adv-x="556" d="M374 532T410 522T487 490L432 112Q429 93 429 78Q429 57 436 44T463 23L450 -11Q419 -2 403 16T387 71L388 86Q357 41 316 15T225 -11Q148 -11 105 43T61 192Q61 270 88 348T175 479T326 532Q374
532 410 522ZM252 494T204 447T133 331T110 193Q110 113 141 71T230 29Q278 29 317 58T392 145L438 467Q390 494 327 494Q252 494 204 447ZM403 670T389 676T354 695Q340 705 330 709T308 714Q289 714 277 706T245 674L218 693Q262 753 308 753Q325 753 338 747T371
729Q386 719 397 714T421 708Q437 708 451 718T484 752L512 735Q471 670 422 670Q403 670 389 676Z" />
<glyph unicode="&#xe4;" glyph-name="adieresis" horiz-adv-x="556" d="M374 532T410 522T487 490L432 112Q429 93 429 78Q429 57 436 44T463 23L450 -11Q419 -2 403 16T387 71L388 86Q357 41 316 15T225 -11Q148 -11 105 43T61 192Q61 270 88 348T175 479T326
532Q374 532 410 522ZM252 494T204 447T133 331T110 193Q110 113 141 71T230 29Q278 29 317 58T392 145L438 467Q390 494 327 494Q252 494 204 447ZM255 666T247 674T238 695Q238 711 248 721T275 732Q289 732 297 724T306 703Q306 687 295 677T268 666Q255 666
247 674ZM436 666T428 674T419 695Q419 711 429 721T456 732Q470 732 478 724T487 703Q487 687 477 677T450 666Q436 666 428 674Z" />
<glyph unicode="&#xe5;" glyph-name="aring" horiz-adv-x="556" d="M374 532T410 522T487 490L432 112Q429 93 429 78Q429 57 436 44T463 23L450 -11Q419 -2 403 16T387 71L388 86Q357 41 316 15T225 -11Q148 -11 105 43T61 192Q61 270 88 348T175 479T326 532Q374
532 410 522ZM252 494T204 447T133 331T110 193Q110 113 141 71T230 29Q278 29 317 58T392 145L438 467Q390 494 327 494Q252 494 204 447ZM415 815T438 793T461 737Q461 693 431 665T357 636Q319 636 296 658T273 715Q273 759 303 787T377 815Q415 815 438 793ZM346
785T328 765T310 715Q310 693 322 680T358 667Q389 667 406 687T424 736Q424 759 412 772T376 785Q346 785 328 765Z" />
<glyph unicode="&#xe6;" glyph-name="ae" horiz-adv-x="818" d="M351 532T389 503T438 424Q460 466 513 499T631 532Q701 532 742 498T784 408Q784 316 688 269T414 210Q414 30 556 30Q598 30 632 43T706 84L728 51Q686 20 644 5T554 -11Q492 -11 448 17T385 98Q338
39 289 14T184 -11Q116 -11 76 26T36 125Q36 201 93 251T272 302H381Q394 352 406 382Q404 432 371 462T281 493Q246 493 212 486T136 462L125 499Q211 532 284 532Q351 532 389 503ZM567 493T521 458T450 366T417 247Q577 259 656 297T736 406Q736 444 709 468T631
493Q567 493 521 458ZM275 266Q176 266 131 228T85 125Q85 78 112 53T188 28Q239 28 284 54T374 138Q369 168 369 201Q369 234 374 266H275Z" />
<glyph unicode="&#xe7;" glyph-name="ccedilla" horiz-adv-x="465" d="M246 493T199 447T131 332T110 197Q110 114 147 73T250 31Q316 31 381 76L402 43Q335 -8 256 -11L246 -67Q330 -73 330 -137Q330 -176 300 -199T222 -223Q177 -223 146 -201L165 -172Q189
-187 222 -187Q251 -187 269 -175T287 -138Q287 -115 269 -105T205 -95L223 -10Q148 -2 105 52T62 199Q62 274 89 351T174 480T320 532Q404 532 457 480L430 451Q407 472 381 482T319 493Q246 493 199 447Z" />
<glyph unicode="&#xe8;" glyph-name="egrave" horiz-adv-x="512" d="M478 316T383 269T110 209V199Q110 113 147 72T250 30Q292 30 326 43T400 84L422 51Q380 20 338 5T248 -11Q160 -11 111 43T62 198Q62 277 91 354T179 481T327 532Q397 532 437 498T478 409Q478
316 383 269ZM262 493T217 458T146 366T113 247Q272 258 351 297T430 407Q430 445 404 469T327 493Q262 493 217 458ZM277 776L446 675L429 648L251 732L277 776Z" />
<glyph unicode="&#xe9;" glyph-name="eacute" horiz-adv-x="512" d="M478 316T383 269T110 209V199Q110 113 147 72T250 30Q292 30 326 43T400 84L422 51Q380 20 338 5T248 -11Q160 -11 111 43T62 198Q62 277 91 354T179 481T327 532Q397 532 437 498T478 409Q478
316 383 269ZM262 493T217 458T146 366T113 247Q272 258 351 297T430 407Q430 445 404 469T327 493Q262 493 217 458ZM428 776L445 732L244 648L231 675L428 776Z" />
<glyph unicode="&#xea;" glyph-name="ecircumflex" horiz-adv-x="512" d="M478 316T383 269T110 209V199Q110 113 147 72T250 30Q292 30 326 43T400 84L422 51Q380 20 338 5T248 -11Q160 -11 111 43T62 198Q62 277 91 354T179 481T327 532Q397 532 437 498T478
409Q478 316 383 269ZM262 493T217 458T146 366T113 247Q272 258 351 297T430 407Q430 445 404 469T327 493Q262 493 217 458ZM211 647L190 672L332 775H359L472 672L449 647L341 731L211 647Z" />
<glyph unicode="&#xeb;" glyph-name="edieresis" horiz-adv-x="512" d="M478 316T383 269T110 209V199Q110 113 147 72T250 30Q292 30 326 43T400 84L422 51Q380 20 338 5T248 -11Q160 -11 111 43T62 198Q62 277 91 354T179 481T327 532Q397 532 437 498T478 409Q478
316 383 269ZM262 493T217 458T146 366T113 247Q272 258 351 297T430 407Q430 445 404 469T327 493Q262 493 217 458ZM229 666T221 674T212 695Q212 711 222 721T249 732Q263 732 271 724T280 703Q280 687 269 677T242 666Q229 666 221 674ZM410 666T402 674T393
695Q393 711 403 721T430 732Q444 732 452 724T461 703Q461 687 451 677T424 666Q410 666 402 674Z" />
<glyph unicode="&#xec;" glyph-name="igrave" horiz-adv-x="265" d="M192 522L118 0H72L146 522H192ZM134 776L303 675L286 648L108 732L134 776Z" />
<glyph unicode="&#xed;" glyph-name="iacute" horiz-adv-x="265" d="M192 522L118 0H72L146 522H192ZM285 776L302 732L101 648L88 675L285 776Z" />
<glyph unicode="&#xee;" glyph-name="icircumflex" horiz-adv-x="265" d="M192 522L118 0H72L146 522H192ZM68 647L47 672L189 775H216L329 672L306 647L198 731L68 647Z" />
<glyph unicode="&#xef;" glyph-name="idieresis" horiz-adv-x="265" d="M192 522L118 0H72L146 522H192ZM86 666T78 674T69 695Q69 711 79 721T106 732Q120 732 128 724T137 703Q137 687 126 677T99 666Q86 666 78 674ZM267 666T259 674T250 695Q250 711 260 721T287
732Q301 732 309 724T318 703Q318 687 308 677T281 666Q267 666 259 674Z" />
<glyph unicode="&#xf0;" glyph-name="eth" horiz-adv-x="561" d="M432 613T461 546T490 387Q490 282 463 192T378 45T236 -11Q152 -11 106 40T59 180Q59 250 83 315T158 423T286 466Q385 466 444 384Q445 463 422 524T344 635L253 556L220 571L315 657Q256 691
198 704L210 742Q282 727 345 684L425 757L451 732L374 662Q432 613 461 546ZM328 29T379 116T441 334Q383 427 291 427Q226 427 185 391T126 298T107 180Q107 107 140 68T236 29Q328 29 379 116Z" />
<glyph unicode="&#xf1;" glyph-name="ntilde" horiz-adv-x="581" d="M432 532T463 500T495 407Q495 389 492 369L440 0H394L446 367Q449 387 449 402Q449 493 366 493Q260 493 162 312L118 0H72L146 522H185L170 382Q210 454 262 493T374 532Q432 532 463 500ZM393
670T379 676T344 695Q330 705 320 709T298 714Q279 714 267 706T235 674L208 693Q252 753 298 753Q315 753 328 747T361 729Q376 719 387 714T411 708Q427 708 441 718T474 752L502 735Q461 670 412 670Q393 670 379 676Z" />
<glyph unicode="&#xf2;" glyph-name="ograve" horiz-adv-x="566" d="M160 -11T111 44T62 199Q62 274 88 350T172 479T320 532Q408 532 456 478T505 325Q505 251 480 174T396 43T247 -11Q160 -11 111 44ZM322 30T369 77T436 192T457 327Q457 408 421 450T319 493Q244
493 198 445T131 329T110 196Q110 115 146 73T248 30Q322 30 369 77ZM286 776L455 675L438 648L260 732L286 776Z" />
<glyph unicode="&#xf3;" glyph-name="oacute" horiz-adv-x="566" d="M160 -11T111 44T62 199Q62 274 88 350T172 479T320 532Q408 532 456 478T505 325Q505 251 480 174T396 43T247 -11Q160 -11 111 44ZM322 30T369 77T436 192T457 327Q457 408 421 450T319 493Q244
493 198 445T131 329T110 196Q110 115 146 73T248 30Q322 30 369 77ZM437 776L454 732L253 648L240 675L437 776Z" />
<glyph unicode="&#xf4;" glyph-name="ocircumflex" horiz-adv-x="566" d="M160 -11T111 44T62 199Q62 274 88 350T172 479T320 532Q408 532 456 478T505 325Q505 251 480 174T396 43T247 -11Q160 -11 111 44ZM322 30T369 77T436 192T457 327Q457 408 421 450T319
493Q244 493 198 445T131 329T110 196Q110 115 146 73T248 30Q322 30 369 77ZM220 647L199 672L341 775H368L481 672L458 647L350 731L220 647Z" />
<glyph unicode="&#xf5;" glyph-name="otilde" horiz-adv-x="566" d="M160 -11T111 44T62 199Q62 274 88 350T172 479T320 532Q408 532 456 478T505 325Q505 251 480 174T396 43T247 -11Q160 -11 111 44ZM322 30T369 77T436 192T457 327Q457 408 421 450T319 493Q244
493 198 445T131 329T110 196Q110 115 146 73T248 30Q322 30 369 77ZM386 670T372 676T337 695Q323 705 313 709T291 714Q272 714 260 706T228 674L201 693Q245 753 291 753Q308 753 321 747T354 729Q369 719 380 714T404 708Q420 708 434 718T467 752L495 735Q454
670 405 670Q386 670 372 676Z" />
<glyph unicode="&#xf6;" glyph-name="odieresis" horiz-adv-x="566" d="M160 -11T111 44T62 199Q62 274 88 350T172 479T320 532Q408 532 456 478T505 325Q505 251 480 174T396 43T247 -11Q160 -11 111 44ZM322 30T369 77T436 192T457 327Q457 408 421 450T319
493Q244 493 198 445T131 329T110 196Q110 115 146 73T248 30Q322 30 369 77ZM238 666T230 674T221 695Q221 711 231 721T258 732Q272 732 280 724T289 703Q289 687 278 677T251 666Q238 666 230 674ZM419 666T411 674T402 695Q402 711 412 721T439 732Q453 732
461 724T470 703Q470 687 460 677T433 666Q419 666 411 674Z" />
<glyph unicode="&#xf7;" glyph-name="divide" horiz-adv-x="490" d="M207 75T197 86T186 112Q186 131 198 143T229 155Q246 155 256 145T266 118Q266 100 254 88T223 75Q207 75 197 86ZM267 506T257 517T246 543Q246 562 258 574T289 586Q306 586 316 576T326
549Q326 531 314 519T283 506Q267 506 257 517ZM78 310L84 352H431L425 310H78Z" />
<glyph unicode="&#xf8;" glyph-name="oslash" horiz-adv-x="566" d="M463 482T484 436T505 325Q505 251 480 174T396 43T247 -11Q210 -11 181 -1L122 -123L85 -112L145 15Q105 41 84 88T62 199Q62 274 88 350T172 479T320 532Q358 532 387 522L444 646L482 634L423
506Q463 482 484 436ZM110 91T168 51L372 485Q346 493 319 493Q244 493 198 445T131 329T110 196Q110 91 168 51ZM322 30T369 77T436 192T457 327Q457 430 401 470L197 37Q218 30 248 30Q322 30 369 77Z" />
<glyph unicode="&#xf9;" glyph-name="ugrave" horiz-adv-x="577" d="M151 -11T119 22T87 116Q87 139 89 151L141 522H187L135 152Q133 140 133 119Q133 29 216 29Q275 29 325 78T414 209L458 522H504L430 0H393L409 145Q374 73 323 31T209 -11Q151 -11 119 22ZM288
776L457 675L440 648L262 732L288 776Z" />
<glyph unicode="&#xfa;" glyph-name="uacute" horiz-adv-x="577" d="M151 -11T119 22T87 116Q87 139 89 151L141 522H187L135 152Q133 140 133 119Q133 29 216 29Q275 29 325 78T414 209L458 522H504L430 0H393L409 145Q374 73 323 31T209 -11Q151 -11 119 22ZM439
776L456 732L255 648L242 675L439 776Z" />
<glyph unicode="&#xfb;" glyph-name="ucircumflex" horiz-adv-x="577" d="M151 -11T119 22T87 116Q87 139 89 151L141 522H187L135 152Q133 140 133 119Q133 29 216 29Q275 29 325 78T414 209L458 522H504L430 0H393L409 145Q374 73 323 31T209 -11Q151 -11 119
22ZM222 647L201 672L343 775H370L483 672L460 647L352 731L222 647Z" />
<glyph unicode="&#xfc;" glyph-name="udieresis" horiz-adv-x="577" d="M151 -11T119 22T87 116Q87 139 89 151L141 522H187L135 152Q133 140 133 119Q133 29 216 29Q275 29 325 78T414 209L458 522H504L430 0H393L409 145Q374 73 323 31T209 -11Q151 -11 119
22ZM240 666T232 674T223 695Q223 711 233 721T260 732Q274 732 282 724T291 703Q291 687 280 677T253 666Q240 666 232 674ZM421 666T413 674T404 695Q404 711 414 721T441 732Q455 732 463 724T472 703Q472 687 462 677T435 666Q421 666 413 674Z" />
<glyph unicode="&#xfd;" glyph-name="yacute" horiz-adv-x="458" d="M226 -4Q184 -93 135 -137T-5 -201L-8 -164Q46 -150 78 -131T131 -82T181 0H163L54 522H103L199 35L428 522H478L226 -4ZM376 776L393 732L192 648L179 675L376 776Z" />
<glyph unicode="&#xfe;" glyph-name="thorn" horiz-adv-x="569" d="M428 532T468 482T508 337Q508 257 482 178T397 44T244 -11Q177 -11 120 14L91 -197L44 -204L176 735L223 741L182 451Q258 532 351 532Q428 532 468 482ZM322 29T370 78T440 199T461 340Q461
493 343 493Q294 493 255 470T175 400L127 52Q157 41 183 35T245 29Q322 29 370 78Z" />
<glyph unicode="&#xff;" glyph-name="ydieresis" horiz-adv-x="458" d="M226 -4Q184 -93 135 -137T-5 -201L-8 -164Q46 -150 78 -131T131 -82T181 0H163L54 522H103L199 35L428 522H478L226 -4ZM177 666T169 674T160 695Q160 711 170 721T197 732Q211 732 219
724T228 703Q228 687 217 677T190 666Q177 666 169 674ZM358 666T350 674T341 695Q341 711 351 721T378 732Q392 732 400 724T409 703Q409 687 399 677T372 666Q358 666 350 674Z" />
<glyph unicode="&#x2013;" glyph-name="endash" horiz-adv-x="518" d="M46 292L52 334H486L480 292H46Z" />
<glyph unicode="&#x2014;" glyph-name="emdash" horiz-adv-x="778" d="M47 293L52 334H746L740 293H47Z" />
<glyph unicode="&#x2018;" glyph-name="quoteleft" horiz-adv-x="214" d="M129 540T120 549T110 573Q110 584 113 593T127 621L197 737H230L170 608Q187 600 187 578Q187 562 176 551T146 540Q129 540 120 549Z" />
<glyph unicode="&#x2019;" glyph-name="quoteright" horiz-adv-x="214" d="M191 737T200 728T210 704Q210 693 207 684T193 656L123 540H90L150 669Q133 677 133 699Q133 715 144 726T174 737Q191 737 200 728Z" />
<glyph unicode="&#x201a;" glyph-name="quotesinglbase" horiz-adv-x="214" d="M96 64T105 55T115 31Q115 20 112 11T98 -17L28 -133H-5L55 -4Q38 4 38 26Q38 42 49 53T79 64Q96 64 105 55Z" />
<glyph unicode="&#x201c;" glyph-name="quotedblleft" horiz-adv-x="357" d="M130 540T121 549T111 573Q111 584 114 593T128 621L198 737H231L171 608Q188 600 188 578Q188 562 177 551T147 540Q130 540 121 549ZM273 540T264 549T254 573Q254 584 257 593T271
621L341 737H374L314 608Q331 600 331 578Q331 562 320 551T290 540Q273 540 264 549Z" />
<glyph unicode="&#x201d;" glyph-name="quotedblright" horiz-adv-x="357" d="M191 737T200 728T210 704Q210 693 207 684T193 656L123 540H90L150 669Q133 677 133 699Q133 715 144 726T174 737Q191 737 200 728ZM334 737T343 728T353 704Q353 693 350 684T336
656L266 540H233L293 669Q276 677 276 699Q276 715 287 726T317 737Q334 737 343 728Z" />
<glyph unicode="&#x201e;" glyph-name="quotedblbase" horiz-adv-x="357" d="M96 64T105 55T115 31Q115 20 112 11T98 -17L28 -133H-5L55 -4Q38 4 38 26Q38 42 49 53T79 64Q96 64 105 55ZM239 64T248 55T258 31Q258 20 255 11T241 -17L171 -133H138L198 -4Q181
4 181 26Q181 42 192 53T222 64Q239 64 248 55Z" />
<glyph unicode="&#x2022;" glyph-name="bullet" horiz-adv-x="272" d="M180 408T194 393T209 355Q209 327 190 307T143 287Q118 287 103 302T87 340Q87 369 106 388T155 408Q180 408 194 393Z" />
<glyph unicode="&#x2039;" glyph-name="guilsinglleft" horiz-adv-x="341" d="M269 514L298 495L131 288L240 81L209 62L79 272L82 303L269 514Z" />
<glyph unicode="&#x203a;" glyph-name="guilsinglright" horiz-adv-x="342" d="M140 514L270 303L267 272L79 62L51 81L218 288L109 495L140 514Z" />
</font>
</defs>
</svg>
