<?xml version="1.0" standalone="no"?>
<!DOCTYPE svg PUBLIC "-//W3C//DTD SVG 1.1//EN" "http://www.w3.org/Graphics/SVG/1.1/DTD/svg11.dtd">
<svg xmlns="http://www.w3.org/2000/svg">
<defs >
<font id="FiraSans" horiz-adv-x="529" ><font-face
    font-family="Fira Sans Thin"
    units-per-em="1000"
    panose-1="2 11 3 3 5 0 0 2 0 4"
    ascent="935"
    descent="-265"
    alphabetic="0" />
<glyph unicode=" " glyph-name="space" horiz-adv-x="296" />
<glyph unicode="!" glyph-name="exclam" horiz-adv-x="238" d="M101 202L167 681H188L122 202H101ZM76 -8T70 -2T64 13Q64 24 71 31T89 38Q99 38 105 32T111 16Q111 5 104 -1T86 -8Q76 -8 70 -2Z" />
<glyph unicode="&quot;" glyph-name="quotedbl" horiz-adv-x="327" d="M111 441L142 681H165L129 441H111ZM249 441L280 681H303L267 441H249Z" />
<glyph unicode="#" glyph-name="numbersign" horiz-adv-x="488" d="M501 459H418L353 220H431L427 200H347L293 0H268L322 200H113L59 0H35L89 200H7L10 220H95L160 459H80L82 479H165L215 662H239L189 479H398L448 662H473L423 479H503L501 459ZM328 220L393
459H184L119 220H328Z" />
<glyph unicode="$" glyph-name="dollar" horiz-adv-x="523" d="M229 651T182 611T135 504Q135 454 168 424T280 367Q364 339 404 300T444 198Q444 147 423 101T353 24T230 -10L211 -146H191L210 -10Q155 -9 109 12T27 69L42 83Q74 49 117 30T214 11Q289 11 335
38T402 108T422 197Q422 251 387 285T274 347Q187 376 150 411T113 504Q113 576 164 622T307 670L326 811H346L327 670Q374 667 410 650T481 602L466 587Q432 620 395 635T312 651Q229 651 182 611Z" />
<glyph unicode="%" glyph-name="percent" horiz-adv-x="760" d="M666 695L107 -4L125 -15L684 684L666 695ZM159 361T128 394T97 486Q97 528 113 571T164 643T254 673Q309 673 339 640T370 548Q370 506 354 463T303 391T213 361Q159 361 128 394ZM262 380T292
408T335 475T348 550Q348 598 325 626T255 654Q206 654 176 626T133 559T120 484Q120 437 143 409T213 380Q262 380 292 408ZM471 -10T441 23T410 116Q410 158 426 200T477 272T567 302Q621 302 652 269T683 178Q683 136 667 93T616 20T526 -10Q471 -10 441 23ZM574
9T604 37T648 104T661 179Q661 227 638 255T567 283Q518 283 488 255T445 189T432 114Q432 66 455 38T526 9Q574 9 604 37Z" />
<glyph unicode="&amp;" glyph-name="ampersand" horiz-adv-x="719" d="M414 692T454 657T495 567Q495 526 479 495T420 433T300 361L505 140Q535 186 557 232T603 336L623 328Q597 265 574 218T518 125L628 6L608 -7L504 108Q458 51 401 21T270 -10Q190 -10 142
34T94 148Q94 214 132 265T267 366Q226 412 207 451T187 533Q187 573 206 609T263 669T353 692Q414 692 454 657ZM305 672T273 652T225 599T209 533Q209 496 226 460T287 375Q362 413 402 442T457 501T472 567Q472 615 438 643T353 672Q305 672 273 652ZM188 307T153
258T117 147Q117 87 157 49T270 11Q339 11 392 39T490 123L281 352Q188 307 153 258Z" />
<glyph unicode="&apos;" glyph-name="quotesingle" horiz-adv-x="189" d="M111 441L142 681H165L129 441H111Z" />
<glyph unicode="(" glyph-name="parenleft" horiz-adv-x="325" d="M334 820Q250 717 200 632T122 451T95 234Q95 163 109 104T145 -5T203 -121L187 -129Q148 -60 125 -11T88 100T73 234Q73 357 101 455T181 640T321 830L334 820Z" />
<glyph unicode=")" glyph-name="parenright" horiz-adv-x="325" d="M203 759T225 710T262 601T277 467Q277 343 250 245T170 60T30 -130L16 -120Q100 -17 151 68T228 250T255 467Q255 538 241 597T205 706T148 821L164 829Q203 759 225 710Z" />
<glyph unicode="*" glyph-name="asterisk" horiz-adv-x="432" d="M431 603L272 557L349 429L330 416L257 546L147 416L129 429L243 556L98 603L106 622L250 572L272 732H294L270 572L426 624L431 603Z" />
<glyph unicode="+" glyph-name="plus" horiz-adv-x="485" d="M288 496L266 341H419L416 320H263L241 165H218L240 320H86L90 341H243L265 496H288Z" />
<glyph unicode="," glyph-name="comma" horiz-adv-x="161" d="M57 38T63 32T69 16Q69 9 66 1T56 -18L-4 -130H-22L34 -6Q22 -2 22 14Q22 24 29 31T47 38Q57 38 63 32Z" />
<glyph unicode="-" glyph-name="hyphen" horiz-adv-x="399" d="M84 302L87 323H330L327 302H84Z" />
<glyph unicode="." glyph-name="period" horiz-adv-x="163" d="M35 -8T29 -2T23 13Q23 24 30 31T48 38Q58 38 64 32T70 16Q70 5 63 -1T45 -8Q35 -8 29 -2Z" />
<glyph unicode="/" glyph-name="slash" horiz-adv-x="520" d="M441 798L461 792L104 -95L85 -90L441 798Z" />
<glyph unicode="0" glyph-name="zero" horiz-adv-x="541" d="M245 673T188 603T104 428T77 215Q77 104 117 47T232 -10Q316 -10 373 59T457 234T484 447Q484 559 445 616T330 673Q245 673 188 603ZM461 652T461 449Q461 344 436 244T360 77T232 11Q100 11 100
214Q100 318 125 419T202 586T330 652Q461 652 461 449Z" />
<glyph unicode="1" glyph-name="one" horiz-adv-x="393" d="M316 661L223 0H201L290 634L102 524L92 542L298 661H316Z" />
<glyph unicode="2" glyph-name="two" horiz-adv-x="464" d="M345 673T386 633T428 527Q428 467 400 412T293 271T43 21L372 22L364 0H11L14 22Q190 190 270 277T378 417T405 526Q405 584 370 618T274 652Q224 652 184 632T105 573L88 587Q132 631 176 652T274
673Q345 673 386 633Z" />
<glyph unicode="3" glyph-name="three" horiz-adv-x="474" d="M344 673T383 635T422 532Q422 492 405 453T350 387T260 353Q320 351 357 314T394 207Q394 157 371 107T297 24T172 -10Q115 -10 75 10T2 73L19 86Q49 45 85 28T171 11Q243 11 287 42T351 118T371
209Q371 276 333 309T224 342H186L192 362H224Q281 362 320 387T380 451T400 533Q400 589 367 621T274 654Q229 654 189 638T105 585L93 600Q136 637 180 655T275 673Q344 673 383 635Z" />
<glyph unicode="4" glyph-name="four" horiz-adv-x="503" d="M456 207L453 187H359L333 0H311L338 187H41L44 205L314 673L333 665L68 207H341L373 418H392L362 207H456Z" />
<glyph unicode="5" glyph-name="five" horiz-adv-x="474" d="M443 641H163L125 376Q186 415 253 415Q327 415 368 370T410 247Q410 188 387 129T312 30T181 -10Q77 -10 16 66L33 79Q59 45 95 28T182 11Q253 11 299 48T367 139T388 247Q388 317 352 356T253 395Q214
395 184 386T119 354H101L143 661H449L443 641Z" />
<glyph unicode="6" glyph-name="six" horiz-adv-x="514" d="M371 427T411 386T452 267Q452 207 430 143T359 35T238 -10Q153 -10 114 47T74 203Q74 314 108 423T208 602T360 673Q393 673 417 664T465 635L451 619Q411 653 359 653Q296 653 244 608T156 485T104
310Q144 364 194 395T305 427Q371 427 411 386ZM305 11T348 53T410 154T429 266Q429 335 395 371T304 407Q194 407 101 275Q97 240 97 201Q97 111 131 61T238 11Q305 11 348 53Z" />
<glyph unicode="7" glyph-name="seven" horiz-adv-x="432" d="M445 661L443 643L78 -6L56 2L417 641H92L94 661H445Z" />
<glyph unicode="8" glyph-name="eight" horiz-adv-x="526" d="M390 315T421 280T452 190Q452 131 424 86T344 15T226 -10Q143 -10 96 33T48 146Q48 214 90 270T232 362Q177 386 152 418T127 500Q127 551 154 590T225 651T320 673Q385 673 428 637T472 535Q472
472 438 428T321 345Q390 315 421 280ZM149 454T173 425T257 371L302 353Q382 391 416 434T450 536Q450 592 414 622T320 653Q275 653 236 634T173 580T149 500Q149 454 173 425ZM284 11T330 32T402 94T429 191Q429 244 398 275T293 337L255 352Q149 314 110 262T71
145Q71 82 113 47T227 11Q284 11 330 32Z" />
<glyph unicode="9" glyph-name="nine" horiz-adv-x="508" d="M462 673T462 480Q462 306 380 175T87 -15L82 3Q228 48 315 132T431 363Q391 310 342 283T236 255Q169 255 128 301T86 426Q86 483 109 540T181 635T303 673Q462 673 462 480ZM294 276T342 306T434
394Q439 434 439 479Q439 564 407 608T303 653Q235 653 192 617T128 529T108 426Q108 356 143 316T238 276Q294 276 342 306Z" />
<glyph unicode=":" glyph-name="colon" horiz-adv-x="163" d="M35 -8T29 -2T23 13Q23 24 30 31T48 38Q58 38 64 32T70 16Q70 5 63 -1T45 -8Q35 -8 29 -2ZM94 407T88 413T82 428Q82 439 89 446T107 453Q117 453 123 447T129 431Q129 420 122 414T104 407Q94 407 88 413Z" />
<glyph unicode=";" glyph-name="semicolon" horiz-adv-x="163" d="M57 38T63 32T69 16Q69 9 66 1T56 -18L-4 -130H-22L34 -6Q22 -2 22 14Q22 24 29 31T47 38Q57 38 63 32ZM94 407T88 413T82 428Q82 439 89 446T107 453Q117 453 123 447T129 431Q129 420 122 414T104
407Q94 407 88 413Z" />
<glyph unicode="&lt;" glyph-name="less" horiz-adv-x="493" d="M440 503L446 484L114 332L403 177L392 159L89 325L91 341L440 503Z" />
<glyph unicode="=" glyph-name="equal" horiz-adv-x="486" d="M98 399L101 420H431L428 399H98ZM331 497L334 518H664L661 497H331Z" />
<glyph unicode="&gt;" glyph-name="greater" horiz-adv-x="495" d="M122 503L427 341L425 325L74 159L67 178L401 334L111 485L122 503Z" />
<glyph unicode="?" glyph-name="question" horiz-adv-x="441" d="M355 691T390 659T426 576Q426 533 409 502T368 450T303 403Q251 369 226 342T201 271Q201 251 208 218L189 213Q179 245 179 272Q179 306 193 331T230 375T288 417Q326 442 349 461T387 509T403
575Q403 618 374 645T292 672Q242 672 203 654T121 594L106 608Q150 651 193 671T292 691Q355 691 390 659ZM175 -9T169 -3T163 12Q163 23 170 30T188 37Q198 37 204 31T210 15Q210 4 203 -2T185 -9Q175 -9 169 -3Z" />
<glyph unicode="@" glyph-name="at" horiz-adv-x="1020" d="M691 692T770 649T890 530T930 359Q930 276 908 197T838 67T721 15Q674 15 648 48T621 138Q557 17 455 17Q394 17 356 60T317 183Q317 250 342 317T420 431T553 477Q620 477 679 443L644 183Q641 162
641 141Q641 93 660 64T721 34Q783 34 825 83T888 208T908 359Q908 449 870 520T758 631T577 671Q421 671 317 594T163 402T113 176Q113 68 158 -11T285 -133T472 -176Q571 -176 661 -144L665 -164Q569 -197 471 -197Q361 -197 275 -152T140 -22T91 175Q91 292
142 411T303 611T577 692Q691 692 770 649ZM507 37T550 73T619 169L657 430Q607 456 554 456Q480 456 432 412T362 305T340 180Q340 111 371 74T456 37Q507 37 550 73Z" />
<glyph unicode="A" glyph-name="A" horiz-adv-x="557" d="M469 0L428 203H113L15 0H-9L324 681H351L493 0H469ZM123 224H424L335 662L123 224Z" />
<glyph unicode="B" glyph-name="B" horiz-adv-x="587" d="M437 355T477 319T517 215Q517 160 493 112T412 32T263 0H86L182 681H329Q424 681 475 645T527 536Q527 465 484 418T371 361Q437 355 477 319ZM161 370H327Q381 370 421 392T483 451T505 535Q505 598
460 629T331 660H202L161 370ZM388 21T441 77T494 216Q494 281 450 315T331 350H158L112 21H266Q388 21 441 77Z" />
<glyph unicode="C" glyph-name="C" horiz-adv-x="538" d="M455 691T490 677T556 633L542 617Q511 645 481 657T404 670Q300 670 233 606T136 447T106 258Q106 139 160 76T306 12Q359 12 396 27T471 71L484 53Q403 -10 305 -10Q204 -10 144 59T83 257Q83 357 115
456T220 623T403 691Q455 691 490 677Z" />
<glyph unicode="D" glyph-name="D" horiz-adv-x="619" d="M418 681T489 627T560 431Q560 319 526 222T413 62T213 0H86L182 681H303Q418 681 489 627ZM202 660L112 21H216Q330 21 402 80T505 233T537 432Q537 565 472 612T299 660H202Z" />
<glyph unicode="E" glyph-name="E" horiz-adv-x="494" d="M503 681L497 660H202L161 370H416L413 349H158L112 21H418L414 0H86L182 681H503Z" />
<glyph unicode="F" glyph-name="F" horiz-adv-x="471" d="M498 681L492 660H202L159 356H410L407 335H156L109 0H86L182 681H498Z" />
<glyph unicode="G" glyph-name="G" horiz-adv-x="605" d="M455 691T493 677T568 632L554 617Q521 644 486 657T405 670Q308 670 241 609T141 453T107 257Q107 136 162 74T316 12Q364 12 403 22T480 53L520 333H375V354H546L502 40Q409 -10 316 -10Q207 -10 145
59T83 259Q83 365 120 464T230 627T405 691Q455 691 493 677Z" />
<glyph unicode="H" glyph-name="H" horiz-adv-x="660" d="M109 0H86L182 681H205L161 372H530L573 681H596L500 0H477L527 351H158L109 0Z" />
<glyph unicode="I" glyph-name="I" horiz-adv-x="268" d="M205 681L109 0H86L182 681H205Z" />
<glyph unicode="J" glyph-name="J" horiz-adv-x="278" d="M137 87Q129 34 115 3T69 -52T-20 -100L-26 -83Q24 -61 52 -39T93 12T114 90L197 681H220L137 87Z" />
<glyph unicode="K" glyph-name="K" horiz-adv-x="510" d="M86 0L182 681H205L109 0H86ZM442 0L164 367L520 681H549L192 365L469 0H442Z" />
<glyph unicode="L" glyph-name="L" horiz-adv-x="452" d="M205 681L112 22H401L393 0H86L182 681H205Z" />
<glyph unicode="M" glyph-name="M" horiz-adv-x="762" d="M647 0H625L635 346Q640 549 647 663L367 84H345L226 662Q218 625 181 476Q159 392 150 353L63 0H41L210 681H243L359 110L633 681H668L647 0Z" />
<glyph unicode="N" glyph-name="N" horiz-adv-x="661" d="M502 0H474L197 658Q195 617 175 476L108 0H86L182 681H211L487 25Q494 103 509 205L575 681H597L502 0Z" />
<glyph unicode="O" glyph-name="O" horiz-adv-x="689" d="M510 691T570 623T630 427Q630 328 599 228T495 59T308 -10Q203 -10 143 59T83 257Q83 353 115 453T220 622T404 691Q510 691 570 623ZM300 671T233 605T136 443T106 256Q106 138 159 75T308 12Q416 12
483 78T578 240T606 427Q606 546 553 608T404 671Q300 671 233 605Z" />
<glyph unicode="P" glyph-name="P" horiz-adv-x="558" d="M426 681T480 642T535 519Q535 417 472 350T260 282H149L109 0H86L182 681H319Q426 681 480 642ZM398 303T454 364T511 519Q511 594 463 627T317 660H202L152 303H263Q398 303 454 364Z" />
<glyph unicode="Q" glyph-name="Q" horiz-adv-x="674" d="M630 341T606 252T525 93T382 4Q447 2 498 -13T585 -64L568 -82Q525 -40 467 -25T311 -10H308Q203 -10 143 59T83 257Q83 353 115 453T220 622T404 691Q510 691 570 623T630 427Q630 341 606 252ZM106
138T160 75T308 12Q416 12 483 78T578 240T606 428Q606 546 553 608T404 671Q300 671 233 605T136 442T106 255Q106 138 160 75Z" />
<glyph unicode="R" glyph-name="R" horiz-adv-x="572" d="M533 455T486 397T345 326L491 0H466L321 324H155L109 0H86L182 681H336Q533 681 533 531Q533 455 486 397ZM302 345Q374 345 420 372T488 441T509 531Q509 595 468 627T333 660H202L158 345H302Z" />
<glyph unicode="S" glyph-name="S" horiz-adv-x="536" d="M380 691T420 673T495 621L481 606Q448 640 411 655T324 671Q266 671 225 651T162 596T140 521Q140 466 173 436T290 379Q378 350 418 310T458 200Q458 151 433 103T355 22T222 -10Q158 -10 112 11T28
73L43 87Q78 50 120 31T221 12Q296 12 344 41T413 114T435 200Q435 261 399 296T281 359Q190 389 154 424T117 521Q117 565 140 604T211 667T324 691Q380 691 420 673Z" />
<glyph unicode="T" glyph-name="T" horiz-adv-x="476" d="M522 681L515 659H305L212 0H190L283 659H73L75 681H522Z" />
<glyph unicode="U" glyph-name="U" horiz-adv-x="641" d="M521 207Q507 107 448 49T285 -10Q192 -10 147 35T102 160Q102 174 106 208L172 681H195L129 209Q126 185 126 163Q126 91 164 52T285 12Q380 12 433 65T498 210L564 681H587L521 207Z" />
<glyph unicode="V" glyph-name="V" horiz-adv-x="534" d="M565 681L244 0H216L87 681H110L233 21L541 681H565Z" />
<glyph unicode="W" glyph-name="W" horiz-adv-x="790" d="M811 681L556 0H530L451 659L187 0H160L97 681H120L178 26L440 681H468L546 24L788 681H811Z" />
<glyph unicode="X" glyph-name="X" horiz-adv-x="486" d="M496 681L270 370L432 0H408L254 353L5 0H-20L241 370L100 681H125L257 386L471 681H496Z" />
<glyph unicode="Y" glyph-name="Y" horiz-adv-x="494" d="M532 681L261 271L223 0H200L238 270L80 681H105L251 293L505 681H532Z" />
<glyph unicode="Z" glyph-name="Z" horiz-adv-x="509" d="M5 0L8 21L487 660H135L138 681H518L516 662L36 22H412L406 0H5Z" />
<glyph unicode="[" glyph-name="bracketleft" horiz-adv-x="312" d="M305 796L303 779H196L73 -89H180L178 -106H51L179 796H305Z" />
<glyph unicode="\" glyph-name="backslash" horiz-adv-x="520" d="M229 798L337 -90L316 -95L209 792L229 798Z" />
<glyph unicode="]" glyph-name="bracketright" horiz-adv-x="312" d="M285 796L158 -106H31L33 -89H140L263 779H156L158 796H285Z" />
<glyph unicode="^" glyph-name="asciicircum" horiz-adv-x="524" d="M348 823L484 527H457L337 796L142 527H113L332 823H348Z" />
<glyph unicode="_" glyph-name="underscore" horiz-adv-x="520" d="M-8 -100L-5 -79H431L428 -100H-8Z" />
<glyph unicode="`" glyph-name="grave" horiz-adv-x="244" d="M110 761L272 669L263 654L97 738L110 761Z" />
<glyph unicode="a" glyph-name="a" horiz-adv-x="548" d="M372 529T406 519T473 488L419 112Q415 80 415 68Q415 45 423 30T451 7L444 -10Q419 0 407 18T395 68Q395 75 397 97Q366 47 322 19T228 -10Q153 -10 111 43T68 190Q68 268 94 346T179 476T328 529Q372
529 406 519ZM246 510T193 460T115 337T90 191Q90 106 126 59T228 11Q330 11 400 135L449 477Q396 510 328 510Q246 510 193 460Z" />
<glyph unicode="b" glyph-name="b" horiz-adv-x="565" d="M419 529T458 481T498 339Q498 261 473 181T391 46T245 -10Q202 -10 167 -3T85 24L185 733L207 736L166 436Q245 529 345 529Q419 529 458 481ZM290 509T248 484T161 408L110 39Q143 25 173 18T244 11Q327
11 379 64T453 192T476 339Q476 422 443 465T345 509Q290 509 248 484Z" />
<glyph unicode="c" glyph-name="c" horiz-adv-x="464" d="M399 529T449 479L435 465Q389 509 319 509Q243 509 192 462T116 342T92 197Q92 106 133 59T247 11Q319 11 382 59L394 43Q326 -10 246 -10Q165 -10 117 44T69 197Q69 275 96 351T179 478T320 529Q399
529 449 479Z" />
<glyph unicode="d" glyph-name="d" horiz-adv-x="569" d="M518 733L414 0H396L411 130Q375 67 330 29T222 -10Q151 -10 110 43T68 190Q68 266 92 344T172 475T311 529Q366 529 401 505T455 445L496 736L518 733ZM235 509T186 459T113 336T90 191Q90 105 125 58T223
11Q284 11 328 52T417 171L451 416Q409 509 311 509Q235 509 186 459Z" />
<glyph unicode="e" glyph-name="e" horiz-adv-x="509" d="M471 323T374 274T90 214V196Q90 104 131 58T244 11Q289 11 323 24T399 67L411 51Q370 20 331 5T244 -10Q161 -10 115 43T68 195Q68 271 96 348T183 477T328 529Q393 529 432 497T471 411Q471 323 374
274ZM256 509T205 468T127 365T92 234Q448 255 448 410Q448 456 417 482T328 509Q256 509 205 468Z" />
<glyph unicode="f" glyph-name="f" horiz-adv-x="307" d="M263 717T231 692T192 614L179 519H326L320 499H176L107 5Q99 -58 83 -94T40 -151T-32 -195L-39 -177Q2 -157 25 -137T63 -84T86 7L155 499H65L67 519H157L171 617Q179 675 217 706T312 737Q371 737 424
702L414 686Q386 702 363 709T313 717Q263 717 231 692Z" />
<glyph unicode="g" glyph-name="g" horiz-adv-x="555" d="M373 529T406 519T474 488L403 -5Q375 -197 210 -197Q126 -197 46 -150L55 -134Q93 -155 129 -166T210 -178Q277 -178 322 -138T381 -7L398 108Q367 57 323 29T229 0Q154 0 112 55T69 203Q69 277 95 352T180
478T328 529Q373 529 406 519ZM247 510T193 462T115 342T92 201Q92 118 128 70T229 21Q332 21 403 144L451 477Q398 510 329 510Q247 510 193 462Z" />
<glyph unicode="h" glyph-name="h" horiz-adv-x="581" d="M428 529T457 498T487 408Q487 390 484 369L432 0H410L462 367Q465 388 465 406Q465 510 366 510Q304 510 251 461T148 315L103 0H81L185 733L207 736L154 359Q196 443 251 486T369 529Q428 529 457 498Z" />
<glyph unicode="i" glyph-name="i" horiz-adv-x="258" d="M177 519L103 0H81L155 519H177ZM183 685T178 689T173 702Q173 711 179 717T194 724Q203 724 208 719T213 706Q213 698 207 692T191 685Q183 685 178 689Z" />
<glyph unicode="j" glyph-name="j" horiz-adv-x="258" d="M-41 -178Q-1 -158 22 -138T60 -84T83 7L155 519H177L105 5Q96 -58 80 -94T37 -151T-35 -195L-41 -178ZM183 685T178 689T173 702Q173 711 179 717T194 724Q203 724 208 719T213 706Q213 698 207 692T191
685Q183 685 178 689Z" />
<glyph unicode="k" glyph-name="k" horiz-adv-x="505" d="M152 347Q197 439 252 484T367 529Q418 529 447 501T477 424Q477 299 295 240L416 0H392L267 250Q455 304 455 424Q455 464 433 487T366 510Q244 510 145 298L103 0H81L185 733L207 736L152 347Z" />
<glyph unicode="l" glyph-name="l" horiz-adv-x="276" d="M109 73Q108 67 108 55Q108 11 151 11Q168 11 192 19L198 0Q170 -10 150 -10Q119 -10 102 6T85 55Q85 61 87 75L180 733L202 736L109 73Z" />
<glyph unicode="m" glyph-name="m" horiz-adv-x="847" d="M699 529T725 499T752 411Q752 392 749 369L698 0H676L727 367Q730 390 730 409Q730 459 709 484T647 510Q592 510 543 462T445 317L400 0H378L430 367Q433 390 433 408Q433 458 412 484T350 510Q244 510
148 315L103 0H81L155 519H173L153 358Q196 443 246 486T352 529Q402 529 428 499T455 411Q455 392 452 369L451 365Q493 446 544 487T649 529Q699 529 725 499Z" />
<glyph unicode="n" glyph-name="n" horiz-adv-x="581" d="M427 529T457 498T487 407Q487 389 484 369L432 0H410L462 367Q465 388 465 405Q465 510 368 510Q306 510 252 460T148 315L103 0H81L155 519H173L153 358Q197 443 252 486T369 529Q427 529 457 498Z" />
<glyph unicode="o" glyph-name="o" horiz-adv-x="561" d="M161 -10T115 44T69 196Q69 271 94 347T175 476T318 529Q401 529 447 477T493 327Q493 253 469 176T388 44T244 -10Q161 -10 115 44ZM324 11T375 61T448 183T471 327Q471 415 432 462T318 509Q238 509
187 459T114 336T91 195Q91 107 131 59T244 11Q324 11 375 61Z" />
<glyph unicode="p" glyph-name="p" horiz-adv-x="564" d="M155 519H174L164 437Q246 529 344 529Q419 529 458 480T498 339Q498 261 473 181T390 46T244 -10Q173 -10 106 17L76 -194L54 -197L155 519ZM326 11T378 64T453 192T476 339Q476 423 443 466T344 509Q289
509 247 484T161 408L109 39Q172 11 243 11Q326 11 378 64Z" />
<glyph unicode="q" glyph-name="q" horiz-adv-x="556" d="M398 97Q367 46 323 18T227 -10Q152 -10 110 43T68 190Q68 268 94 346T179 476T328 529Q373 529 408 519T476 488L379 -194L357 -197L398 97ZM332 11T403 135L452 477Q401 510 328 510Q246 510 193 460T115
337T90 191Q90 106 126 59T228 11Q332 11 403 135Z" />
<glyph unicode="r" glyph-name="r" horiz-adv-x="362" d="M355 529T381 522L375 503Q355 509 333 509Q273 509 231 465T149 324L103 0H81L155 519H174L153 371Q185 451 228 490T333 529Q355 529 381 522Z" />
<glyph unicode="s" glyph-name="s" horiz-adv-x="460" d="M304 529T340 516T407 476L392 462Q362 486 331 497T258 509Q194 509 154 479T113 398Q113 359 139 334T238 286Q316 261 348 229T381 143Q381 77 333 34T194 -10Q136 -10 96 7T21 56L34 70Q69 41 105
26T192 11Q265 11 311 44T358 142Q358 188 331 216T229 267Q151 292 121 322T90 398Q90 456 138 492T258 529Q304 529 340 516Z" />
<glyph unicode="t" glyph-name="t" horiz-adv-x="324" d="M114 118Q112 98 112 89Q112 10 189 10Q234 10 284 37L292 20Q239 -10 187 -10Q141 -10 116 15T90 89Q90 97 92 117L145 499H60L62 519H148L172 650L189 652L170 519H314L308 499H168L114 118Z" />
<glyph unicode="u" glyph-name="u" horiz-adv-x="576" d="M158 -10T127 22T95 115Q95 132 98 150L149 519H171L120 150Q117 131 117 114Q117 63 143 37T217 11Q281 11 335 62T429 204L473 519H495L422 0H405L426 164Q391 84 336 37T215 -10Q158 -10 127 22Z" />
<glyph unicode="v" glyph-name="v" horiz-adv-x="447" d="M461 519L206 0H177L60 519H83L193 19L435 519H461Z" />
<glyph unicode="w" glyph-name="w" horiz-adv-x="680" d="M684 519L474 0H446L375 497L165 0H135L70 519H92L153 21L364 519H392L463 21L661 519H684Z" />
<glyph unicode="x" glyph-name="x" horiz-adv-x="433" d="M427 519L232 277L379 0H354L217 263L7 0H-19L205 279L80 519H104L220 293L400 519H427Z" />
<glyph unicode="y" glyph-name="y" horiz-adv-x="444" d="M205 -2Q175 -63 150 -98T89 -156T-4 -195L-6 -176Q47 -161 78 -141T131 -90T183 0H173L60 519H83L191 16L433 519H458L205 -2Z" />
<glyph unicode="z" glyph-name="z" horiz-adv-x="410" d="M410 519L407 501L27 21H332L327 0H-5L-2 18L379 499H92L95 519H410Z" />
<glyph unicode="{" glyph-name="braceleft" horiz-adv-x="328" d="M321 801Q279 801 257 779T227 711L189 440Q183 396 162 375T101 349Q133 344 149 329T165 281Q165 275 163 257L125 -14Q123 -34 123 -41Q123 -73 139 -88T192 -103L191 -120Q103 -120 103 -40Q103
-33 105 -17L145 267Q146 272 146 282Q146 339 75 339L77 359Q114 359 138 377T169 433L208 716Q215 769 243 793T322 818L321 801Z" />
<glyph unicode="|" glyph-name="bar" horiz-adv-x="413" d="M293 801L168 -98H146L271 801H293Z" />
<glyph unicode="}" glyph-name="braceright" horiz-adv-x="328" d="M32 -103Q74 -103 96 -81T126 -13L164 258Q170 302 191 323T252 349Q220 354 204 369T188 417Q188 423 190 441L228 712Q230 732 230 739Q230 771 214 786T161 801L162 818Q203 818 226 798T250
737Q250 731 248 715L208 431Q207 426 207 416Q207 359 278 359L276 339Q239 339 215 321T185 265L145 -18Q131 -120 32 -120V-103Z" />
<glyph unicode="~" glyph-name="asciitilde" horiz-adv-x="457" d="M291 280T275 287T233 309Q211 322 197 328T167 335Q143 335 127 325T91 292L77 302Q99 329 119 343T167 357Q186 357 203 350T244 328Q267 315 280 309T309 302Q331 302 346 312T382 344L396
334Q374 307 355 294T309 280Q291 280 275 287Z" />
<glyph unicode="&#xa0;" glyph-name="uni00A0" horiz-adv-x="297" />
<glyph unicode="&#xa1;" glyph-name="exclamdown" horiz-adv-x="238" d="M135 406T129 412T123 427Q123 438 130 445T148 452Q158 452 164 446T170 430Q170 419 163 413T145 406Q135 406 129 412ZM132 252L69 -192H48L111 252H132Z" />
<glyph unicode="&#xa2;" glyph-name="cent" horiz-adv-x="464" d="M243 509T192 462T116 342T92 197Q92 106 133 59T247 11Q319 11 382 59L394 43Q326 -10 246 -10H244L225 -146H205L224 -9Q152 -1 111 52T69 197Q69 272 94 346T171 471T302 528L322 676H341L321
529Q361 529 392 517T449 479L435 465Q389 509 319 509Q243 509 192 462Z" />
<glyph unicode="&#xa3;" glyph-name="sterling" horiz-adv-x="498" d="M402 673T434 656T492 605L475 593Q453 623 426 637T356 652Q291 652 251 611T202 504L183 364H398L395 343H180L151 136Q144 88 124 64T63 21H401L394 0H26L28 21Q78 42 100 66T129 136L158
343H95L97 364H160L180 506Q190 579 236 626T356 673Q402 673 434 656Z" />
<glyph unicode="&#xa4;" glyph-name="currency" horiz-adv-x="560" d="M453 265T407 213L487 134L472 119L391 199Q347 161 280 161Q215 161 169 199L88 119L73 134L154 214Q132 238 120 271T108 340Q108 413 152 465L73 544L88 559L167 479Q213 520 280 520Q347
520 393 480L472 559L487 544L408 465Q430 441 441 409T453 340Q453 265 407 213ZM130 269T170 225T280 181Q351 181 391 225T431 340Q431 411 392 455T280 500Q210 500 170 456T130 340Q130 269 170 225Z" />
<glyph unicode="&#xa5;" glyph-name="yen" horiz-adv-x="485" d="M520 661L275 328H397L395 308H262L246 190H378L375 168H243L219 0H196L220 168H88L91 190H223L239 308H108L110 328H233L77 661H104L253 330L494 661H520Z" />
<glyph unicode="&#xa6;" glyph-name="brokenbar" horiz-adv-x="413" d="M294 801L243 443H221L272 801H294ZM218 262L168 -98H146L196 262H218Z" />
<glyph unicode="&#xa7;" glyph-name="section" horiz-adv-x="531" d="M257 652T223 621T188 544Q188 504 213 480T309 430Q379 404 408 374T437 298Q437 254 414 221T335 156Q360 139 371 118T382 69Q382 13 339 -25T213 -64Q168 -64 132 -53T63 -20L76 -3Q131
-43 213 -43Q290 -43 325 -11T360 69Q360 105 335 130T244 179Q168 207 137 235T106 310Q106 353 131 386T214 453Q187 471 176 492T165 544Q165 578 183 607T238 654T327 672Q370 672 403 661T469 629L457 612Q427 633 397 642T327 652Q257 652 223 621ZM415 335T391
362T303 412Q255 430 230 444Q174 410 152 380T129 310Q129 272 156 247T252 196Q291 182 319 166Q375 198 395 228T415 298Q415 335 391 362Z" />
<glyph unicode="&#xa8;" glyph-name="dieresis" horiz-adv-x="265" d="M101 673T96 677T91 690Q91 699 97 705T112 712Q121 712 126 707T131 694Q131 686 125 680T109 673Q101 673 96 677ZM266 673T261 677T256 690Q256 699 262 705T278 712Q286 712 291 707T296
694Q296 685 290 679T274 673Q266 673 261 677Z" />
<glyph unicode="&#xa9;" glyph-name="copyright" horiz-adv-x="810" d="M509 722T572 686T672 584T708 435Q708 353 672 288T573 185T430 148Q351 148 288 184T188 286T152 435Q152 517 188 582T287 685T430 722Q509 722 572 686ZM357 701T299 667T207 573T174
435Q174 357 207 297T298 203T431 169Q504 169 562 203T653 297T686 435Q686 513 653 573T562 667T431 701Q357 701 299 667ZM457 606T477 599T516 577L505 562Q489 574 472 580T430 586Q404 586 379 572T337 524T320 437Q320 362 350 324T430 285Q458 285 478
292T515 314L525 297Q485 265 430 265Q371 265 334 311T297 437Q297 494 317 532T367 588T430 606Q457 606 477 599Z" />
<glyph unicode="&#xaa;" glyph-name="ordfeminine" horiz-adv-x="505" d="M168 277T139 305T110 380Q110 442 157 479T289 517H385L391 562Q393 580 393 586Q393 625 372 643T305 661Q250 661 185 637L179 656Q248 681 306 681Q415 681 415 588Q415 581 413 563L386
367Q383 349 383 335Q383 320 389 309T411 292L405 277Q380 284 371 300T363 349Q334 312 300 295T220 277Q168 277 139 305ZM309 297T366 378L382 496H289Q212 496 173 466T133 380Q133 341 156 319T220 297Q309 297 366 378ZM51 0L54 21H384L381 0H51Z" />
<glyph unicode="&#xab;" glyph-name="guillemotleft" horiz-adv-x="533" d="M274 503L288 494L119 288L231 83L215 74L93 281L94 295L274 503ZM463 503L477 494L308 288L420 83L404 74L282 281L283 295L463 503Z" />
<glyph unicode="&#xac;" glyph-name="logicalnot" horiz-adv-x="496" d="M427 330L409 198H386L401 309H85L88 330H427Z" />
<glyph unicode="&#xad;" glyph-name="uni00AD" horiz-adv-x="399" d="M84 302L87 323H330L327 302H84Z" />
<glyph unicode="&#xae;" glyph-name="registered" horiz-adv-x="637" d="M415 721T466 693T546 614T575 502Q575 441 547 390T467 308T352 278Q289 278 239 306T159 385T130 498Q130 559 158 610T238 691T352 721Q415 721 466 693ZM410 297T456 324T529 399T555
502Q555 558 529 604T456 676T352 702Q295 702 249 675T176 601T150 498Q150 441 176 396T249 324T352 297Q410 297 456 324ZM441 502T378 489L452 369H425L356 487H301V369H279V638H339Q441 638 441 560Q441 502 378 489ZM301 506H356Q419 506 419 560Q419 591
400 604T343 618H301V506Z" />
<glyph unicode="&#xaf;" glyph-name="overscore" horiz-adv-x="267" d="M297 685H90L93 706H300L297 685Z" />
<glyph unicode="&#xb0;" glyph-name="degree" horiz-adv-x="520" d="M190 411T157 442T124 530Q124 576 145 613T202 670T276 691Q329 691 361 660T394 574Q394 527 373 490T317 432T242 411Q190 411 157 442ZM298 432T334 471T371 574Q371 619 346 645T276 671Q241
671 211 653T164 603T146 530Q146 484 172 458T242 432Q298 432 334 471Z" />
<glyph unicode="&#xb1;" glyph-name="plusminus" horiz-adv-x="487" d="M41 0L44 21H374L371 0H41ZM289 496L267 341H420L417 320H264L242 165H219L241 320H87L91 341H244L266 496H289Z" />
<glyph unicode="&#xb2;" glyph-name="uni00B2" horiz-adv-x="400" d="M310 738T336 712T363 644Q363 600 338 559T274 479T159 375Q157 373 121 343H332L325 322H92L95 343L131 375Q209 443 249 482T315 562T340 644Q340 679 320 698T262 718Q204 718 153 669L138
683Q169 712 199 725T263 738Q310 738 336 712Z" />
<glyph unicode="&#xb3;" glyph-name="uni00B3" horiz-adv-x="400" d="M314 740T341 716T368 652Q368 606 339 576T265 541Q303 539 326 517T350 455Q350 394 309 355T202 315Q166 315 139 328T90 368L106 379Q126 355 149 345T202 335Q260 335 294 369T328 456Q328
494 304 512T236 530H210L215 549H235Q280 549 313 578T346 653Q346 684 325 702T267 720Q238 720 213 711T159 681L147 695Q175 718 204 729T268 740Q314 740 341 716Z" />
<glyph unicode="&#xb4;" glyph-name="acute" horiz-adv-x="247" d="M274 761L283 738L93 654L86 669L274 761Z" />
<glyph unicode="&#xb5;" glyph-name="uni00B5" horiz-adv-x="582" d="M437 126T437 88Q437 44 447 -1L427 -4Q416 46 416 86Q416 95 418 123Q378 61 330 26T221 -10Q127 -10 110 68Q105 14 94 -65L76 -192L54 -194L155 519H177L124 141Q121 123 121 108Q121 57
149 34T222 11Q280 11 329 49T419 154L471 519H493L444 169Q437 126 437 88Z" />
<glyph unicode="&#xb6;" glyph-name="paragraph" horiz-adv-x="686" d="M576 681L454 -192L431 -196L551 661H409L289 -192L267 -196L338 306Q237 309 192 351T146 464Q146 565 213 623T392 681H576Z" />
<glyph unicode="&#xb7;" glyph-name="middot" horiz-adv-x="163" d="M79 304T73 310T67 325Q67 336 74 343T92 350Q102 350 108 344T114 328Q114 317 107 311T89 304Q79 304 73 310Z" />
<glyph unicode="&#xb8;" glyph-name="cedilla" horiz-adv-x="214" d="M43 -74Q86 -77 106 -92T127 -138Q127 -172 101 -192T34 -212Q-6 -212 -33 -194L-23 -178Q0 -192 34 -192Q66 -192 85 -178T104 -138Q104 -113 85 -103T21 -91L41 9H58L43 -74Z" />
<glyph unicode="&#xb9;" glyph-name="uni00B9" horiz-adv-x="400" d="M307 732L249 322H228L282 707L164 642L154 658L290 732H307Z" />
<glyph unicode="&#xba;" glyph-name="ordmasculine" horiz-adv-x="500" d="M377 681T414 641T452 526Q452 458 429 401T360 311T253 277Q185 277 148 318T110 434Q110 501 133 557T202 647T308 681Q377 681 414 641ZM252 661T213 630T153 547T133 434Q133 368
164 333T253 297Q310 297 349 329T409 413T429 528Q429 593 398 627T309 661Q252 661 213 630ZM48 0L51 21H381L378 0H48Z" />
<glyph unicode="&#xbb;" glyph-name="guillemotright" horiz-adv-x="533" d="M138 503L260 295L258 281L78 74L64 83L233 288L122 494L138 503ZM327 503L449 295L447 281L267 74L253 83L422 288L311 494L327 503Z" />
<glyph unicode="&#xbc;" glyph-name="onequarter" horiz-adv-x="892" d="M300 681L242 271H221L275 656L157 591L147 607L283 681H300ZM708 742L725 733L206 -66L189 -57L708 742ZM810 132L807 112H748L732 0H711L727 112H535L537 130L710 418L728 411L561 132H730L750
259H769L751 132H810Z" />
<glyph unicode="&#xbd;" glyph-name="onehalf" horiz-adv-x="892" d="M300 681L242 271H221L275 656L157 591L147 607L283 681H300ZM708 742L725 733L206 -66L189 -57L708 742ZM757 416T783 390T810 322Q810 278 785 237T721 157T606 53Q604 51 568 21H779L772
0H539L542 21L578 53Q656 121 696 160T762 240T787 322Q787 357 767 376T709 396Q651 396 600 347L585 361Q616 390 646 403T710 416Q757 416 783 390Z" />
<glyph unicode="&#xbe;" glyph-name="threequarters" horiz-adv-x="892" d="M307 689T334 665T361 601Q361 555 332 525T258 490Q296 488 319 466T343 404Q343 343 302 304T195 264Q159 264 132 277T83 317L99 328Q119 304 142 294T195 284Q253 284 287 318T321
405Q321 443 297 461T229 479H203L208 498H228Q273 498 306 527T339 602Q339 633 318 651T260 669Q231 669 206 660T152 630L140 644Q168 667 197 678T261 689Q307 689 334 665ZM708 742L725 733L206 -66L189 -57L708 742ZM810 132L807 112H748L732 0H711L727 112H535L537
130L710 418L728 411L561 132H730L750 259H769L751 132H810Z" />
<glyph unicode="&#xbf;" glyph-name="questiondown" horiz-adv-x="440" d="M262 503T268 497T274 482Q274 471 267 464T249 457Q239 457 233 463T227 479Q227 490 234 496T252 503Q262 503 268 497ZM82 -198T47 -165T11 -82Q11 -39 28 -8T69 43T134 91Q185 125
210 152T236 222Q236 248 228 276L248 281Q258 249 258 223Q258 189 243 163T206 119T148 76Q109 50 87 32T49 -15T33 -81Q33 -123 63 -150T145 -178Q195 -178 234 -160T316 -100L331 -114Q286 -158 243 -178T145 -198Q82 -198 47 -165Z" />
<glyph unicode="&#xc0;" glyph-name="Agrave" horiz-adv-x="557" d="M469 0L428 203H113L15 0H-9L324 681H351L493 0H469ZM123 224H424L335 662L123 224ZM282 860L445 779L437 764L270 836L282 860Z" />
<glyph unicode="&#xc1;" glyph-name="Aacute" horiz-adv-x="557" d="M469 0L428 203H113L15 0H-9L324 681H351L493 0H469ZM123 224H424L335 662L123 224ZM434 861L443 836L254 764L248 779L434 861Z" />
<glyph unicode="&#xc2;" glyph-name="Acircumflex" horiz-adv-x="557" d="M469 0L428 203H113L15 0H-9L324 681H351L493 0H469ZM123 224H424L335 662L123 224ZM231 766L221 780L353 869H365L472 779L460 766L358 845L231 766Z" />
<glyph unicode="&#xc3;" glyph-name="Atilde" horiz-adv-x="557" d="M469 0L428 203H113L15 0H-9L324 681H351L493 0H469ZM123 224H424L335 662L123 224ZM400 804T387 809T353 827Q337 837 326 842T303 847Q284 847 272 840T238 811L225 821Q245 844 264 855T303
867Q317 867 329 862T359 846Q377 835 389 830T416 824Q432 824 447 833T480 865L494 856Q474 828 456 816T416 804Q400 804 387 809Z" />
<glyph unicode="&#xc4;" glyph-name="Adieresis" horiz-adv-x="557" d="M469 0L428 203H113L15 0H-9L324 681H351L493 0H469ZM123 224H424L335 662L123 224ZM265 799T260 803T255 816Q255 825 261 831T276 838Q285 838 290 833T295 820Q295 812 289 806T273 799Q265
799 260 803ZM430 799T425 803T420 816Q420 825 426 831T442 838Q450 838 455 833T460 820Q460 811 454 805T438 799Q430 799 425 803Z" />
<glyph unicode="&#xc5;" glyph-name="Aring" horiz-adv-x="557" d="M469 0L428 203H113L15 0H-9L324 681H351L493 0H469ZM123 224H424L335 662L123 224ZM405 927T424 909T443 861Q443 821 418 796T354 770Q321 770 302 789T283 838Q283 877 308 902T373 927Q405
927 424 909ZM341 909T323 889T304 837Q304 814 317 801T354 788Q386 788 404 809T422 859Q422 883 409 896T372 909Q341 909 323 889Z" />
<glyph unicode="&#xc6;" glyph-name="AE" horiz-adv-x="755" d="M712 660H369L405 370H666L664 349H407L448 21H679L675 0H428L404 196H103L0 0H-24L334 681H718L712 660ZM402 217L348 663L114 217H402Z" />
<glyph unicode="&#xc7;" glyph-name="Ccedilla" horiz-adv-x="538" d="M300 670T233 606T136 447T106 258Q106 139 160 76T306 12Q359 12 396 27T471 71L484 53Q404 -9 310 -10L298 -74Q341 -77 361 -92T382 -138Q382 -172 356 -192T289 -212Q249 -212 222 -194L232
-178Q255 -192 289 -192Q321 -192 340 -178T359 -138Q359 -113 340 -103T276 -91L292 -10Q196 -5 140 64T83 257Q83 357 115 456T220 623T403 691Q455 691 490 677T556 633L542 617Q511 645 481 657T404 670Q300 670 233 606Z" />
<glyph unicode="&#xc8;" glyph-name="Egrave" horiz-adv-x="494" d="M503 681L497 660H202L161 370H416L413 349H158L112 21H418L414 0H86L182 681H503ZM290 860L453 779L445 764L278 836L290 860Z" />
<glyph unicode="&#xc9;" glyph-name="Eacute" horiz-adv-x="494" d="M503 681L497 660H202L161 370H416L413 349H158L112 21H418L414 0H86L182 681H503ZM442 861L451 836L262 764L256 779L442 861Z" />
<glyph unicode="&#xca;" glyph-name="Ecircumflex" horiz-adv-x="494" d="M503 681L497 660H202L161 370H416L413 349H158L112 21H418L414 0H86L182 681H503ZM239 766L229 780L361 869H373L480 779L468 766L366 845L239 766Z" />
<glyph unicode="&#xcb;" glyph-name="Edieresis" horiz-adv-x="494" d="M503 681L497 660H202L161 370H416L413 349H158L112 21H418L414 0H86L182 681H503ZM273 799T268 803T263 816Q263 825 269 831T284 838Q293 838 298 833T303 820Q303 812 297 806T281 799Q273
799 268 803ZM438 799T433 803T428 816Q428 825 434 831T450 838Q458 838 463 833T468 820Q468 811 462 805T446 799Q438 799 433 803Z" />
<glyph unicode="&#xcc;" glyph-name="Igrave" horiz-adv-x="268" d="M205 681L109 0H86L182 681H205ZM138 860L301 779L293 764L126 836L138 860Z" />
<glyph unicode="&#xcd;" glyph-name="Iacute" horiz-adv-x="268" d="M205 681L109 0H86L182 681H205ZM290 861L299 836L110 764L104 779L290 861Z" />
<glyph unicode="&#xce;" glyph-name="Icircumflex" horiz-adv-x="268" d="M205 681L109 0H86L182 681H205ZM87 766L77 780L209 869H221L328 779L316 766L214 845L87 766Z" />
<glyph unicode="&#xcf;" glyph-name="Idieresis" horiz-adv-x="268" d="M205 681L109 0H86L182 681H205ZM121 799T116 803T111 816Q111 825 117 831T132 838Q141 838 146 833T151 820Q151 812 145 806T129 799Q121 799 116 803ZM286 799T281 803T276 816Q276 825
282 831T298 838Q306 838 311 833T316 820Q316 811 310 805T294 799Q286 799 281 803Z" />
<glyph unicode="&#xd0;" glyph-name="Eth" horiz-adv-x="621" d="M419 681T490 627T561 431Q561 319 527 222T414 62T214 0H87L135 343H48L51 363H138L183 681H304Q419 681 490 627ZM331 21T403 80T506 233T538 432Q538 565 473 612T300 660H203L161 363H357L354
343H158L113 21H217Q331 21 403 80Z" />
<glyph unicode="&#xd1;" glyph-name="Ntilde" horiz-adv-x="661" d="M502 0H474L197 658Q195 617 175 476L108 0H86L182 681H211L487 25Q494 103 509 205L575 681H597L502 0ZM458 804T445 809T411 827Q395 837 384 842T361 847Q342 847 330 840T296 811L283 821Q303
844 322 855T361 867Q375 867 387 862T417 846Q435 835 447 830T474 824Q490 824 505 833T538 865L552 856Q532 828 514 816T474 804Q458 804 445 809Z" />
<glyph unicode="&#xd2;" glyph-name="Ograve" horiz-adv-x="689" d="M510 691T570 623T630 427Q630 328 599 228T495 59T308 -10Q203 -10 143 59T83 257Q83 353 115 453T220 622T404 691Q510 691 570 623ZM300 671T233 605T136 443T106 256Q106 138 159 75T308
12Q416 12 483 78T578 240T606 427Q606 546 553 608T404 671Q300 671 233 605ZM347 860L510 779L502 764L335 836L347 860Z" />
<glyph unicode="&#xd3;" glyph-name="Oacute" horiz-adv-x="689" d="M510 691T570 623T630 427Q630 328 599 228T495 59T308 -10Q203 -10 143 59T83 257Q83 353 115 453T220 622T404 691Q510 691 570 623ZM300 671T233 605T136 443T106 256Q106 138 159 75T308
12Q416 12 483 78T578 240T606 427Q606 546 553 608T404 671Q300 671 233 605ZM499 861L508 836L319 764L313 779L499 861Z" />
<glyph unicode="&#xd4;" glyph-name="Ocircumflex" horiz-adv-x="689" d="M510 691T570 623T630 427Q630 328 599 228T495 59T308 -10Q203 -10 143 59T83 257Q83 353 115 453T220 622T404 691Q510 691 570 623ZM300 671T233 605T136 443T106 256Q106 138 159 75T308
12Q416 12 483 78T578 240T606 427Q606 546 553 608T404 671Q300 671 233 605ZM296 766L286 780L418 869H430L537 779L525 766L423 845L296 766Z" />
<glyph unicode="&#xd5;" glyph-name="Otilde" horiz-adv-x="689" d="M510 691T570 623T630 427Q630 328 599 228T495 59T308 -10Q203 -10 143 59T83 257Q83 353 115 453T220 622T404 691Q510 691 570 623ZM300 671T233 605T136 443T106 256Q106 138 159 75T308
12Q416 12 483 78T578 240T606 427Q606 546 553 608T404 671Q300 671 233 605ZM465 804T452 809T418 827Q402 837 391 842T368 847Q349 847 337 840T303 811L290 821Q310 844 329 855T368 867Q382 867 394 862T424 846Q442 835 454 830T481 824Q497 824 512 833T545
865L559 856Q539 828 521 816T481 804Q465 804 452 809Z" />
<glyph unicode="&#xd6;" glyph-name="Odieresis" horiz-adv-x="689" d="M510 691T570 623T630 427Q630 328 599 228T495 59T308 -10Q203 -10 143 59T83 257Q83 353 115 453T220 622T404 691Q510 691 570 623ZM300 671T233 605T136 443T106 256Q106 138 159 75T308
12Q416 12 483 78T578 240T606 427Q606 546 553 608T404 671Q300 671 233 605ZM330 799T325 803T320 816Q320 825 326 831T341 838Q350 838 355 833T360 820Q360 812 354 806T338 799Q330 799 325 803ZM495 799T490 803T485 816Q485 825 491 831T507 838Q515 838
520 833T525 820Q525 811 519 805T503 799Q495 799 490 803Z" />
<glyph unicode="&#xd7;" glyph-name="multiply" horiz-adv-x="485" d="M398 455L413 440L264 307L376 175L358 160L248 293L101 160L86 175L234 307L123 440L141 455L250 322L398 455Z" />
<glyph unicode="&#xd8;" glyph-name="Oslash" horiz-adv-x="689" d="M567 643T598 581T630 427Q630 328 599 228T495 59T308 -10Q259 -10 220 5L170 -111L150 -104L202 13Q145 42 114 104T83 257Q83 353 115 453T220 622T404 691Q450 691 490 677L542 798L563
792L508 670Q567 643 598 581ZM106 172T133 116T213 33L483 658Q450 671 404 671Q300 671 233 605T136 442T106 255Q106 172 133 116ZM416 12T483 78T578 240T606 428Q606 513 579 569T499 651L228 26Q265 12 308 12Q416 12 483 78Z" />
<glyph unicode="&#xd9;" glyph-name="Ugrave" horiz-adv-x="641" d="M521 207Q507 107 448 49T285 -10Q192 -10 147 35T102 160Q102 174 106 208L172 681H195L129 209Q126 185 126 163Q126 91 164 52T285 12Q380 12 433 65T498 210L564 681H587L521 207ZM324 860L487
779L479 764L312 836L324 860Z" />
<glyph unicode="&#xda;" glyph-name="Uacute" horiz-adv-x="641" d="M521 207Q507 107 448 49T285 -10Q192 -10 147 35T102 160Q102 174 106 208L172 681H195L129 209Q126 185 126 163Q126 91 164 52T285 12Q380 12 433 65T498 210L564 681H587L521 207ZM476 861L485
836L296 764L290 779L476 861Z" />
<glyph unicode="&#xdb;" glyph-name="Ucircumflex" horiz-adv-x="641" d="M521 207Q507 107 448 49T285 -10Q192 -10 147 35T102 160Q102 174 106 208L172 681H195L129 209Q126 185 126 163Q126 91 164 52T285 12Q380 12 433 65T498 210L564 681H587L521 207ZM273
766L263 780L395 869H407L514 779L502 766L400 845L273 766Z" />
<glyph unicode="&#xdc;" glyph-name="Udieresis" horiz-adv-x="641" d="M521 207Q507 107 448 49T285 -10Q192 -10 147 35T102 160Q102 174 106 208L172 681H195L129 209Q126 185 126 163Q126 91 164 52T285 12Q380 12 433 65T498 210L564 681H587L521 207ZM307
799T302 803T297 816Q297 825 303 831T318 838Q327 838 332 833T337 820Q337 812 331 806T315 799Q307 799 302 803ZM472 799T467 803T462 816Q462 825 468 831T484 838Q492 838 497 833T502 820Q502 811 496 805T480 799Q472 799 467 803Z" />
<glyph unicode="&#xdd;" glyph-name="Yacute" horiz-adv-x="494" d="M532 681L261 271L223 0H200L238 270L80 681H105L251 293L505 681H532ZM399 861L408 836L219 764L213 779L399 861Z" />
<glyph unicode="&#xde;" glyph-name="Thorn" horiz-adv-x="558" d="M409 554T463 514T517 384Q517 285 453 216T241 147H130L109 0H86L182 681H205L187 554H302Q409 554 463 514ZM378 168T436 230T494 384Q494 465 447 499T300 533H184L133 168H245Q378 168 436 230Z" />
<glyph unicode="&#xdf;" glyph-name="germandbls" horiz-adv-x="574" d="M-41 -177Q0 -157 23 -137T61 -84T84 7L159 542Q172 635 227 686T359 737Q418 737 454 707T490 627Q490 580 467 551T402 491Q371 469 356 452T341 411Q341 390 355 374T400 333Q432 307
452 287T487 235T502 160Q502 123 484 84T426 17T329 -10Q299 -10 271 -2T224 17L233 34Q277 11 329 11Q380 11 414 35T464 94T480 160Q480 199 467 227T434 275T385 319Q351 347 336 366T320 411Q320 440 336 459T387 503Q427 532 447 557T468 627Q468 668 439
692T359 717Q290 717 242 671T181 537L105 5Q97 -58 81 -94T38 -151T-34 -195L-41 -177Z" />
<glyph unicode="&#xe0;" glyph-name="agrave" horiz-adv-x="548" d="M372 529T406 519T473 488L419 112Q415 80 415 68Q415 45 423 30T451 7L444 -10Q419 0 407 18T395 68Q395 75 397 97Q366 47 322 19T228 -10Q153 -10 111 43T68 190Q68 268 94 346T179 476T328
529Q372 529 406 519ZM246 510T193 460T115 337T90 191Q90 106 126 59T228 11Q330 11 400 135L449 477Q396 510 328 510Q246 510 193 460ZM299 761L461 669L452 654L286 738L299 761Z" />
<glyph unicode="&#xe1;" glyph-name="aacute" horiz-adv-x="548" d="M372 529T406 519T473 488L419 112Q415 80 415 68Q415 45 423 30T451 7L444 -10Q419 0 407 18T395 68Q395 75 397 97Q366 47 322 19T228 -10Q153 -10 111 43T68 190Q68 268 94 346T179 476T328
529Q372 529 406 519ZM246 510T193 460T115 337T90 191Q90 106 126 59T228 11Q330 11 400 135L449 477Q396 510 328 510Q246 510 193 460ZM452 761L461 738L271 654L264 669L452 761Z" />
<glyph unicode="&#xe2;" glyph-name="acircumflex" horiz-adv-x="548" d="M372 529T406 519T473 488L419 112Q415 80 415 68Q415 45 423 30T451 7L444 -10Q419 0 407 18T395 68Q395 75 397 97Q366 47 322 19T228 -10Q153 -10 111 43T68 190Q68 268 94 346T179
476T328 529Q372 529 406 519ZM246 510T193 460T115 337T90 191Q90 106 126 59T228 11Q330 11 400 135L449 477Q396 510 328 510Q246 510 193 460ZM241 654L230 667L364 762H376L482 667L470 654L367 738L241 654Z" />
<glyph unicode="&#xe3;" glyph-name="atilde" horiz-adv-x="548" d="M372 529T406 519T473 488L419 112Q415 80 415 68Q415 45 423 30T451 7L444 -10Q419 0 407 18T395 68Q395 75 397 97Q366 47 322 19T228 -10Q153 -10 111 43T68 190Q68 268 94 346T179 476T328
529Q372 529 406 519ZM246 510T193 460T115 337T90 191Q90 106 126 59T228 11Q330 11 400 135L449 477Q396 510 328 510Q246 510 193 460ZM404 678T391 683T357 701Q341 711 330 716T307 721Q288 721 276 714T242 685L229 695Q249 718 268 729T307 741Q321 741
333 736T363 720Q381 709 393 704T420 698Q436 698 451 707T484 739L498 730Q478 702 460 690T420 678Q404 678 391 683Z" />
<glyph unicode="&#xe4;" glyph-name="adieresis" horiz-adv-x="548" d="M372 529T406 519T473 488L419 112Q415 80 415 68Q415 45 423 30T451 7L444 -10Q419 0 407 18T395 68Q395 75 397 97Q366 47 322 19T228 -10Q153 -10 111 43T68 190Q68 268 94 346T179 476T328
529Q372 529 406 519ZM246 510T193 460T115 337T90 191Q90 106 126 59T228 11Q330 11 400 135L449 477Q396 510 328 510Q246 510 193 460ZM269 673T264 677T259 690Q259 699 265 705T280 712Q289 712 294 707T299 694Q299 686 293 680T277 673Q269 673 264 677ZM434
673T429 677T424 690Q424 699 430 705T446 712Q454 712 459 707T464 694Q464 685 458 679T442 673Q434 673 429 677Z" />
<glyph unicode="&#xe5;" glyph-name="aring" horiz-adv-x="548" d="M372 529T406 519T473 488L419 112Q415 80 415 68Q415 45 423 30T451 7L444 -10Q419 0 407 18T395 68Q395 75 397 97Q366 47 322 19T228 -10Q153 -10 111 43T68 190Q68 268 94 346T179 476T328
529Q372 529 406 519ZM246 510T193 460T115 337T90 191Q90 106 126 59T228 11Q330 11 400 135L449 477Q396 510 328 510Q246 510 193 460ZM408 801T427 783T446 735Q446 695 421 670T357 644Q324 644 305 663T286 712Q286 751 311 776T376 801Q408 801 427 783ZM344
783T326 763T307 711Q307 688 320 675T357 662Q389 662 407 683T425 733Q425 757 412 770T375 783Q344 783 326 763Z" />
<glyph unicode="&#xe6;" glyph-name="ae" horiz-adv-x="818" d="M350 529T388 496T433 404Q444 429 471 458T540 508T634 529Q699 529 739 497T779 410Q779 323 682 274T398 214Q397 116 435 64T551 11Q596 11 631 24T707 67L718 51Q677 20 638 5T551 -10Q489
-10 447 20T388 109Q339 45 289 18T181 -10Q116 -10 79 26T41 123Q41 199 96 249T269 299H389Q401 348 416 380Q415 440 380 474T284 509Q219 509 137 477L130 495Q217 529 284 529Q350 529 388 496ZM559 509T509 466T432 361T400 234Q578 244 667 289T756 410Q756
456 724 482T634 509Q559 509 509 466ZM269 279Q161 279 113 236T64 123Q64 70 95 41T181 11Q238 11 286 39T382 131Q375 166 375 197Q375 237 384 279H269Z" />
<glyph unicode="&#xe7;" glyph-name="ccedilla" horiz-adv-x="464" d="M243 509T192 462T116 342T92 197Q92 106 133 59T247 11Q319 11 382 59L394 43Q327 -9 250 -10L238 -74Q281 -77 301 -92T322 -138Q322 -172 296 -192T229 -212Q189 -212 162 -194L172 -178Q195
-192 229 -192Q261 -192 280 -178T299 -138Q299 -113 280 -103T216 -91L232 -10Q157 -5 113 49T69 197Q69 275 96 351T179 478T320 529Q399 529 449 479L435 465Q389 509 319 509Q243 509 192 462Z" />
<glyph unicode="&#xe8;" glyph-name="egrave" horiz-adv-x="509" d="M471 323T374 274T90 214V196Q90 104 131 58T244 11Q289 11 323 24T399 67L411 51Q370 20 331 5T244 -10Q161 -10 115 43T68 195Q68 271 96 348T183 477T328 529Q393 529 432 497T471 411Q471
323 374 274ZM256 509T205 468T127 365T92 234Q448 255 448 410Q448 456 417 482T328 509Q256 509 205 468ZM272 761L434 669L425 654L259 738L272 761Z" />
<glyph unicode="&#xe9;" glyph-name="eacute" horiz-adv-x="509" d="M471 323T374 274T90 214V196Q90 104 131 58T244 11Q289 11 323 24T399 67L411 51Q370 20 331 5T244 -10Q161 -10 115 43T68 195Q68 271 96 348T183 477T328 529Q393 529 432 497T471 411Q471
323 374 274ZM256 509T205 468T127 365T92 234Q448 255 448 410Q448 456 417 482T328 509Q256 509 205 468ZM425 761L434 738L244 654L237 669L425 761Z" />
<glyph unicode="&#xea;" glyph-name="ecircumflex" horiz-adv-x="509" d="M471 323T374 274T90 214V196Q90 104 131 58T244 11Q289 11 323 24T399 67L411 51Q370 20 331 5T244 -10Q161 -10 115 43T68 195Q68 271 96 348T183 477T328 529Q393 529 432 497T471 411Q471
323 374 274ZM256 509T205 468T127 365T92 234Q448 255 448 410Q448 456 417 482T328 509Q256 509 205 468ZM214 654L203 667L337 762H349L455 667L443 654L340 738L214 654Z" />
<glyph unicode="&#xeb;" glyph-name="edieresis" horiz-adv-x="509" d="M471 323T374 274T90 214V196Q90 104 131 58T244 11Q289 11 323 24T399 67L411 51Q370 20 331 5T244 -10Q161 -10 115 43T68 195Q68 271 96 348T183 477T328 529Q393 529 432 497T471 411Q471
323 374 274ZM256 509T205 468T127 365T92 234Q448 255 448 410Q448 456 417 482T328 509Q256 509 205 468ZM242 673T237 677T232 690Q232 699 238 705T253 712Q262 712 267 707T272 694Q272 686 266 680T250 673Q242 673 237 677ZM407 673T402 677T397 690Q397
699 403 705T419 712Q427 712 432 707T437 694Q437 685 431 679T415 673Q407 673 402 677Z" />
<glyph unicode="&#xec;" glyph-name="igrave" horiz-adv-x="258" d="M177 519L103 0H81L155 519H177ZM128 761L290 669L281 654L115 738L128 761Z" />
<glyph unicode="&#xed;" glyph-name="iacute" horiz-adv-x="258" d="M177 519L103 0H81L155 519H177ZM281 761L290 738L100 654L93 669L281 761Z" />
<glyph unicode="&#xee;" glyph-name="icircumflex" horiz-adv-x="258" d="M177 519L103 0H81L155 519H177ZM70 654L59 667L193 762H205L311 667L299 654L196 738L70 654Z" />
<glyph unicode="&#xef;" glyph-name="idieresis" horiz-adv-x="258" d="M177 519L103 0H81L155 519H177ZM98 673T93 677T88 690Q88 699 94 705T109 712Q118 712 123 707T128 694Q128 686 122 680T106 673Q98 673 93 677ZM263 673T258 677T253 690Q253 699 259
705T275 712Q283 712 288 707T293 694Q293 685 287 679T271 673Q263 673 258 677Z" />
<glyph unicode="&#xf0;" glyph-name="eth" horiz-adv-x="555" d="M420 618T449 553T478 396Q478 291 452 199T370 48T232 -10Q152 -10 109 40T65 176Q65 244 88 309T161 418T288 461Q391 461 456 363Q457 374 457 394Q457 474 432 538T349 652L253 566L236 573L335
663Q309 682 276 696T210 718L216 738Q292 720 350 676L426 746L440 734L364 665Q420 618 449 553ZM300 10T347 57T421 178T454 337Q386 441 289 441Q220 441 175 401T109 301T88 176Q88 98 125 54T232 10Q300 10 347 57Z" />
<glyph unicode="&#xf1;" glyph-name="ntilde" horiz-adv-x="581" d="M427 529T457 498T487 407Q487 389 484 369L432 0H410L462 367Q465 388 465 405Q465 510 368 510Q306 510 252 460T148 315L103 0H81L155 519H173L153 358Q197 443 252 486T369 529Q427 529
457 498ZM396 678T383 683T349 701Q333 711 322 716T299 721Q280 721 268 714T234 685L221 695Q241 718 260 729T299 741Q313 741 325 736T355 720Q373 709 385 704T412 698Q428 698 443 707T476 739L490 730Q470 702 452 690T412 678Q396 678 383 683Z" />
<glyph unicode="&#xf2;" glyph-name="ograve" horiz-adv-x="561" d="M161 -10T115 44T69 196Q69 271 94 347T175 476T318 529Q401 529 447 477T493 327Q493 253 469 176T388 44T244 -10Q161 -10 115 44ZM324 11T375 61T448 183T471 327Q471 415 432 462T318 509Q238
509 187 459T114 336T91 195Q91 107 131 59T244 11Q324 11 375 61ZM280 761L442 669L433 654L267 738L280 761Z" />
<glyph unicode="&#xf3;" glyph-name="oacute" horiz-adv-x="561" d="M161 -10T115 44T69 196Q69 271 94 347T175 476T318 529Q401 529 447 477T493 327Q493 253 469 176T388 44T244 -10Q161 -10 115 44ZM324 11T375 61T448 183T471 327Q471 415 432 462T318 509Q238
509 187 459T114 336T91 195Q91 107 131 59T244 11Q324 11 375 61ZM433 761L442 738L252 654L245 669L433 761Z" />
<glyph unicode="&#xf4;" glyph-name="ocircumflex" horiz-adv-x="561" d="M161 -10T115 44T69 196Q69 271 94 347T175 476T318 529Q401 529 447 477T493 327Q493 253 469 176T388 44T244 -10Q161 -10 115 44ZM324 11T375 61T448 183T471 327Q471 415 432 462T318
509Q238 509 187 459T114 336T91 195Q91 107 131 59T244 11Q324 11 375 61ZM222 654L211 667L345 762H357L463 667L451 654L348 738L222 654Z" />
<glyph unicode="&#xf5;" glyph-name="otilde" horiz-adv-x="561" d="M161 -10T115 44T69 196Q69 271 94 347T175 476T318 529Q401 529 447 477T493 327Q493 253 469 176T388 44T244 -10Q161 -10 115 44ZM324 11T375 61T448 183T471 327Q471 415 432 462T318 509Q238
509 187 459T114 336T91 195Q91 107 131 59T244 11Q324 11 375 61ZM385 678T372 683T338 701Q322 711 311 716T288 721Q269 721 257 714T223 685L210 695Q230 718 249 729T288 741Q302 741 314 736T344 720Q362 709 374 704T401 698Q417 698 432 707T465 739L479
730Q459 702 441 690T401 678Q385 678 372 683Z" />
<glyph unicode="&#xf6;" glyph-name="odieresis" horiz-adv-x="561" d="M161 -10T115 44T69 196Q69 271 94 347T175 476T318 529Q401 529 447 477T493 327Q493 253 469 176T388 44T244 -10Q161 -10 115 44ZM324 11T375 61T448 183T471 327Q471 415 432 462T318
509Q238 509 187 459T114 336T91 195Q91 107 131 59T244 11Q324 11 375 61ZM250 673T245 677T240 690Q240 699 246 705T261 712Q270 712 275 707T280 694Q280 686 274 680T258 673Q250 673 245 677ZM415 673T410 677T405 690Q405 699 411 705T427 712Q435 712 440
707T445 694Q445 685 439 679T423 673Q415 673 410 677Z" />
<glyph unicode="&#xf7;" glyph-name="divide" horiz-adv-x="485" d="M212 101T206 107T200 122Q200 133 207 140T225 147Q235 147 241 141T247 125Q247 114 240 108T222 101Q212 101 206 107ZM270 515T264 521T258 536Q258 547 265 554T283 561Q293 561 299 555T305
539Q305 528 298 522T280 515Q270 515 264 521ZM86 320L89 341H419L416 320H86Z" />
<glyph unicode="&#xf8;" glyph-name="oslash" horiz-adv-x="561" d="M450 484T471 438T493 327Q493 253 469 176T388 44T244 -10Q205 -10 171 3L112 -118L93 -113L153 12Q112 36 91 83T69 196Q69 271 94 347T175 476T318 529Q360 529 392 516L449 639L468 633L410
507Q450 484 471 438ZM91 135T109 94T164 31L383 497Q355 509 318 509Q238 509 187 459T114 336T91 195Q91 135 109 94ZM324 11T375 61T448 183T471 327Q471 446 400 489L180 23Q209 11 244 11Q324 11 375 61Z" />
<glyph unicode="&#xf9;" glyph-name="ugrave" horiz-adv-x="576" d="M158 -10T127 22T95 115Q95 132 98 150L149 519H171L120 150Q117 131 117 114Q117 63 143 37T217 11Q281 11 335 62T429 204L473 519H495L422 0H405L426 164Q391 84 336 37T215 -10Q158 -10
127 22ZM284 761L446 669L437 654L271 738L284 761Z" />
<glyph unicode="&#xfa;" glyph-name="uacute" horiz-adv-x="576" d="M158 -10T127 22T95 115Q95 132 98 150L149 519H171L120 150Q117 131 117 114Q117 63 143 37T217 11Q281 11 335 62T429 204L473 519H495L422 0H405L426 164Q391 84 336 37T215 -10Q158 -10
127 22ZM437 761L446 738L256 654L249 669L437 761Z" />
<glyph unicode="&#xfb;" glyph-name="ucircumflex" horiz-adv-x="576" d="M158 -10T127 22T95 115Q95 132 98 150L149 519H171L120 150Q117 131 117 114Q117 63 143 37T217 11Q281 11 335 62T429 204L473 519H495L422 0H405L426 164Q391 84 336 37T215 -10Q158
-10 127 22ZM226 654L215 667L349 762H361L467 667L455 654L352 738L226 654Z" />
<glyph unicode="&#xfc;" glyph-name="udieresis" horiz-adv-x="576" d="M158 -10T127 22T95 115Q95 132 98 150L149 519H171L120 150Q117 131 117 114Q117 63 143 37T217 11Q281 11 335 62T429 204L473 519H495L422 0H405L426 164Q391 84 336 37T215 -10Q158 -10
127 22ZM254 673T249 677T244 690Q244 699 250 705T265 712Q274 712 279 707T284 694Q284 686 278 680T262 673Q254 673 249 677ZM419 673T414 677T409 690Q409 699 415 705T431 712Q439 712 444 707T449 694Q449 685 443 679T427 673Q419 673 414 677Z" />
<glyph unicode="&#xfd;" glyph-name="yacute" horiz-adv-x="444" d="M205 -2Q175 -63 150 -98T89 -156T-4 -195L-6 -176Q47 -161 78 -141T131 -90T183 0H173L60 519H83L191 16L433 519H458L205 -2ZM368 761L377 738L187 654L180 669L368 761Z" />
<glyph unicode="&#xfe;" glyph-name="thorn" horiz-adv-x="564" d="M419 529T458 480T497 339Q497 261 472 181T391 46T244 -10Q171 -10 105 19L76 -193L53 -196L185 733L207 736L164 436Q245 529 344 529Q419 529 458 480ZM326 11T378 64T452 192T475 340Q475
423 442 466T344 509Q289 509 247 484T161 408L109 39Q143 25 173 18T243 11Q326 11 378 64Z" />
<glyph unicode="&#xff;" glyph-name="ydieresis" horiz-adv-x="444" d="M205 -2Q175 -63 150 -98T89 -156T-4 -195L-6 -176Q47 -161 78 -141T131 -90T183 0H173L60 519H83L191 16L433 519H458L205 -2ZM185 673T180 677T175 690Q175 699 181 705T196 712Q205 712
210 707T215 694Q215 686 209 680T193 673Q185 673 180 677ZM350 673T345 677T340 690Q340 699 346 705T362 712Q370 712 375 707T380 694Q380 685 374 679T358 673Q350 673 345 677Z" />
<glyph unicode="&#x2013;" glyph-name="endash" horiz-adv-x="520" d="M55 302L58 323H480L477 302H55Z" />
<glyph unicode="&#x2014;" glyph-name="emdash" horiz-adv-x="775" d="M55 303L58 323H735L733 303H55Z" />
<glyph unicode="&#x2018;" glyph-name="quoteleft" horiz-adv-x="214" d="M141 584T136 590T130 604Q130 610 133 617T144 638L206 746H222L163 625Q175 621 175 607Q175 597 169 591T152 584Q141 584 136 590Z" />
<glyph unicode="&#x2019;" glyph-name="quoteright" horiz-adv-x="214" d="M184 724T189 718T195 704Q195 698 192 691T181 670L119 562H103L162 683Q150 688 150 701Q150 711 156 717T173 724Q184 724 189 718Z" />
<glyph unicode="&#x201a;" glyph-name="quotesinglbase" horiz-adv-x="214" d="M87 37T92 31T98 17Q98 11 95 4T84 -17L22 -125H6L65 -4Q53 1 53 14Q53 24 59 30T76 37Q87 37 92 31Z" />
<glyph unicode="&#x201c;" glyph-name="quotedblleft" horiz-adv-x="326" d="M141 584T136 590T130 604Q130 610 133 617T144 638L206 746H222L163 625Q175 621 175 607Q175 597 169 591T152 584Q141 584 136 590ZM253 584T248 590T242 604Q242 610 245 617T256
638L318 746H334L275 625Q287 621 287 607Q287 597 281 591T264 584Q253 584 248 590Z" />
<glyph unicode="&#x201d;" glyph-name="quotedblright" horiz-adv-x="326" d="M184 724T189 718T195 704Q195 698 192 691T181 670L119 562H103L162 683Q150 688 150 701Q150 711 156 717T173 724Q184 724 189 718ZM296 724T301 718T307 704Q307 698 304 691T293
670L231 562H215L274 683Q262 688 262 701Q262 711 268 717T285 724Q296 724 301 718Z" />
<glyph unicode="&#x201e;" glyph-name="quotedblbase" horiz-adv-x="326" d="M87 37T92 31T98 17Q98 11 95 4T84 -17L22 -125H6L65 -4Q53 1 53 14Q53 24 59 30T76 37Q87 37 92 31ZM199 37T204 31T210 17Q210 11 207 4T196 -17L134 -125H118L177 -4Q165 1 165 14Q165
24 171 30T188 37Q199 37 204 31Z" />
<glyph unicode="&#x2022;" glyph-name="bullet" horiz-adv-x="247" d="M153 383T161 375T169 354Q169 339 159 329T134 318Q120 318 112 326T103 347Q103 362 113 372T139 383Q153 383 161 375Z" />
<glyph unicode="&#x2039;" glyph-name="guilsinglleft" horiz-adv-x="345" d="M274 503L288 494L119 288L231 83L215 74L93 281L94 295L274 503Z" />
<glyph unicode="&#x203a;" glyph-name="guilsinglright" horiz-adv-x="344" d="M138 503L260 295L258 281L78 74L64 83L233 288L122 494L138 503Z" />
</font>
</defs>
</svg>
